  0
SECTION
  2
HEADER
  9
$ACADVER
  1
AC1015
  9
$ACADMAINTVER
 70
    20
  9
$DWGCODEPAGE
  3
ANSI_1252
  9
$INSBASE
 10
0.0
 20
0.0
 30
0.0
  9
$EXTMIN
 10
3021.961415110429
 20
1372.931737830197
 30
0.0
  9
$EXTMAX
 10
5373.064247442131
 20
3121.088842312924
 30
0.0
  9
$LIMMIN
 10
0.0
 20
0.0
  9
$LIMMAX
 10
420.0
 20
297.0
  9
$ORTHOMODE
 70
     0
  9
$REGENMODE
 70
     1
  9
$FILLMODE
 70
     1
  9
$QTEXTMODE
 70
     0
  9
$MIRRTEXT
 70
     0
  9
$LTSCALE
 40
1.0
  9
$ATTMODE
 70
     1
  9
$TEXTSIZE
 40
2.5
  9
$TRACEWID
 40
1.0
  9
$TEXTSTYLE
  7
STANDARD
  9
$CLAYER
  8
0
  9
$CELTYPE
  6
ByLayer
  9
$CECOLOR
 62
   256
  9
$CELTSCALE
 40
1.0
  9
$DISPSILH
 70
     0
  9
$DIMSCALE
 40
1.0
  9
$DIMASZ
 40
3.5
  9
$DIMEXO
 40
1.0
  9
$DIMDLI
 40
10.0
  9
$DIMRND
 40
0.0
  9
$DIMDLE
 40
0.0
  9
$DIMEXE
 40
1.0
  9
$DIMTP
 40
0.1
  9
$DIMTM
 40
0.1
  9
$DIMTXT
 40
3.5
  9
$DIMCEN
 40
0.0
  9
$DIMTSZ
 40
0.0
  9
$DIMTOL
 70
     0
  9
$DIMLIM
 70
     0
  9
$DIMTIH
 70
     0
  9
$DIMTOH
 70
     0
  9
$DIMSE1
 70
     0
  9
$DIMSE2
 70
     0
  9
$DIMTAD
 70
     1
  9
$DIMZIN
 70
     8
  9
$DIMBLK
  1

  9
$DIMASO
 70
     1
  9
$DIMSHO
 70
     1
  9
$DIMPOST
  1

  9
$DIMAPOST
  1
"
  9
$DIMALT
 70
     0
  9
$DIMALTD
 70
     2
  9
$DIMALTF
 40
0.0393701
  9
$DIMLFAC
 40
1.0
  9
$DIMTOFL
 70
     1
  9
$DIMTVP
 40
0.0
  9
$DIMTIX
 70
     0
  9
$DIMSOXD
 70
     0
  9
$DIMSAH
 70
     0
  9
$DIMBLK1
  1

  9
$DIMBLK2
  1

  9
$DIMSTYLE
  2
AM_DIN
  9
$DIMCLRD
 70
   256
  9
$DIMCLRE
 70
   256
  9
$DIMCLRT
 70
     2
  9
$DIMTFAC
 40
0.71
  9
$DIMGAP
 40
1.5
  9
$DIMJUST
 70
     0
  9
$DIMSD1
 70
     0
  9
$DIMSD2
 70
     0
  9
$DIMTOLJ
 70
     0
  9
$DIMTZIN
 70
     8
  9
$DIMALTZ
 70
     0
  9
$DIMALTTZ
 70
     0
  9
$DIMUPT
 70
     0
  9
$DIMDEC
 70
     2
  9
$DIMTDEC
 70
     3
  9
$DIMALTU
 70
     2
  9
$DIMALTTD
 70
     4
  9
$DIMTXSTY
  7
STANDARD
  9
$DIMAUNIT
 70
     0
  9
$DIMADEC
 70
     0
  9
$DIMALTRND
 40
0.0
  9
$DIMAZIN
 70
     2
  9
$DIMDSEP
 70
    46
  9
$DIMATFIT
 70
     3
  9
$DIMFRAC
 70
     0
  9
$DIMLDRBLK
  1

  9
$DIMLUNIT
 70
     2
  9
$DIMLWD
 70
    -1
  9
$DIMLWE
 70
    -1
  9
$DIMTMOVE
 70
     0
  9
$LUNITS
 70
     2
  9
$LUPREC
 70
     2
  9
$SKETCHINC
 40
1.0
  9
$FILLETRAD
 40
2.5
  9
$AUNITS
 70
     0
  9
$AUPREC
 70
     0
  9
$MENU
  1
.
  9
$ELEVATION
 40
0.0
  9
$PELEVATION
 40
0.0
  9
$THICKNESS
 40
0.0
  9
$LIMCHECK
 70
     0
  9
$CHAMFERA
 40
2.5
  9
$CHAMFERB
 40
2.5
  9
$CHAMFERC
 40
0.0
  9
$CHAMFERD
 40
0.0
  9
$SKPOLY
 70
     0
  9
$TDCREATE
 40
2456524.306812130
  9
$TDUCREATE
 40
2456524.223478797
  9
$TDUPDATE
 40
2456524.345845787
  9
$TDUUPDATE
 40
2456524.262512454
  9
$TDINDWG
 40
0.0390361111
  9
$TDUSRTIMER
 40
0.0390343171
  9
$USRTIMER
 70
     1
  9
$ANGBASE
 50
0.0
  9
$ANGDIR
 70
     0
  9
$PDMODE
 70
     0
  9
$PDSIZE
 40
0.0
  9
$PLINEWID
 40
0.0
  9
$SPLFRAME
 70
     0
  9
$SPLINETYPE
 70
     6
  9
$SPLINESEGS
 70
     8
  9
$HANDSEED
  5
AF4
  9
$SURFTAB1
 70
     6
  9
$SURFTAB2
 70
     6
  9
$SURFTYPE
 70
     6
  9
$SURFU
 70
     6
  9
$SURFV
 70
     6
  9
$UCSBASE
  2

  9
$UCSNAME
  2

  9
$UCSORG
 10
0.0
 20
0.0
 30
0.0
  9
$UCSXDIR
 10
1.0
 20
0.0
 30
0.0
  9
$UCSYDIR
 10
0.0
 20
1.0
 30
0.0
  9
$UCSORTHOREF
  2

  9
$UCSORTHOVIEW
 70
     0
  9
$UCSORGTOP
 10
0.0
 20
0.0
 30
0.0
  9
$UCSORGBOTTOM
 10
0.0
 20
0.0
 30
0.0
  9
$UCSORGLEFT
 10
0.0
 20
0.0
 30
0.0
  9
$UCSORGRIGHT
 10
0.0
 20
0.0
 30
0.0
  9
$UCSORGFRONT
 10
0.0
 20
0.0
 30
0.0
  9
$UCSORGBACK
 10
0.0
 20
0.0
 30
0.0
  9
$PUCSBASE
  2

  9
$PUCSNAME
  2

  9
$PUCSORG
 10
0.0
 20
0.0
 30
0.0
  9
$PUCSXDIR
 10
1.0
 20
0.0
 30
0.0
  9
$PUCSYDIR
 10
0.0
 20
1.0
 30
0.0
  9
$PUCSORTHOREF
  2

  9
$PUCSORTHOVIEW
 70
     0
  9
$PUCSORGTOP
 10
0.0
 20
0.0
 30
0.0
  9
$PUCSORGBOTTOM
 10
0.0
 20
0.0
 30
0.0
  9
$PUCSORGLEFT
 10
0.0
 20
0.0
 30
0.0
  9
$PUCSORGRIGHT
 10
0.0
 20
0.0
 30
0.0
  9
$PUCSORGFRONT
 10
0.0
 20
0.0
 30
0.0
  9
$PUCSORGBACK
 10
0.0
 20
0.0
 30
0.0
  9
$USERI1
 70
     0
  9
$USERI2
 70
     0
  9
$USERI3
 70
     0
  9
$USERI4
 70
     0
  9
$USERI5
 70
     0
  9
$USERR1
 40
0.0
  9
$USERR2
 40
0.0
  9
$USERR3
 40
0.0
  9
$USERR4
 40
0.0
  9
$USERR5
 40
0.0
  9
$WORLDVIEW
 70
     1
  9
$SHADEDGE
 70
     3
  9
$SHADEDIF
 70
    70
  9
$TILEMODE
 70
     1
  9
$MAXACTVP
 70
    64
  9
$PINSBASE
 10
0.0
 20
0.0
 30
0.0
  9
$PLIMCHECK
 70
     0
  9
$PEXTMIN
 10
0.0
 20
0.0
 30
0.0
  9
$PEXTMAX
 10
0.0
 20
0.0
 30
0.0
  9
$PLIMMIN
 10
0.0
 20
0.0
  9
$PLIMMAX
 10
12.0
 20
9.0
  9
$UNITMODE
 70
     0
  9
$VISRETAIN
 70
     1
  9
$PLINEGEN
 70
     0
  9
$PSLTSCALE
 70
     1
  9
$TREEDEPTH
 70
  3020
  9
$CMLSTYLE
  2
Standard
  9
$CMLJUST
 70
     0
  9
$CMLSCALE
 40
20.0
  9
$PROXYGRAPHICS
 70
     1
  9
$MEASUREMENT
 70
     1
  9
$CELWEIGHT
370
    -1
  9
$ENDCAPS
280
     0
  9
$JOINSTYLE
280
     0
  9
$LWDISPLAY
290
     0
  9
$INSUNITS
 70
     4
  9
$HYPERLINKBASE
  1

  9
$STYLESHEET
  1

  9
$XEDIT
290
     1
  9
$CEPSNTYPE
380
     0
  9
$PSTYLEMODE
290
     1
  9
$FINGERPRINTGUID
  2
{265E2AE6-977F-46DA-A81E-2AA03B885A14}
  9
$VERSIONGUID
  2
{501A2638-B837-461A-8FD0-E9A00CE44BBC}
  9
$EXTNAMES
290
     1
  9
$PSVPSCALE
 40
0.0
  9
$OLESTARTUP
290
     0
  0
ENDSEC
  0
SECTION
  2
CLASSES
  0
CLASS
  1
ACDBDICTIONARYWDFLT
  2
AcDbDictionaryWithDefault
  3
ObjectDBX Classes
 90
        0
280
     0
281
     0
  0
CLASS
  1
ACDBPLACEHOLDER
  2
AcDbPlaceHolder
  3
ObjectDBX Classes
 90
        0
280
     0
281
     0
  0
CLASS
  1
LAYOUT
  2
AcDbLayout
  3
ObjectDBX Classes
 90
        0
280
     0
281
     0
  0
CLASS
  1
DICTIONARYVAR
  2
AcDbDictionaryVar
  3
ObjectDBX Classes
 90
        0
280
     0
281
     0
  0
CLASS
  1
TABLESTYLE
  2
AcDbTableStyle
  3
ObjectDBX Classes
 90
     4095
280
     0
281
     0
  0
CLASS
  1
MATERIAL
  2
AcDbMaterial
  3
ObjectDBX Classes
 90
     1153
280
     0
281
     0
  0
CLASS
  1
VISUALSTYLE
  2
AcDbVisualStyle
  3
ObjectDBX Classes
 90
     4095
280
     0
281
     0
  0
CLASS
  1
SCALE
  2
AcDbScale
  3
ObjectDBX Classes
 90
     1153
280
     0
281
     0
  0
CLASS
  1
MLEADERSTYLE
  2
AcDbMLeaderStyle
  3
ACDB_MLEADERSTYLE_CLASS
 90
     4095
280
     0
281
     0
  0
CLASS
  1
CELLSTYLEMAP
  2
AcDbCellStyleMap
  3
ObjectDBX Classes
 90
     1152
280
     0
281
     0
  0
CLASS
  1
EXACXREFPANELOBJECT
  2
ExAcXREFPanelObject
  3
EXAC_ESW
 90
     1025
280
     0
281
     0
  0
CLASS
  1
NPOCOLLECTION
  2
AcDbImpNonPersistentObjectsCollection
  3
ObjectDBX Classes
 90
     1153
280
     0
281
     0
  0
CLASS
  1
LAYER_INDEX
  2
AcDbLayerIndex
  3
ObjectDBX Classes
 90
    32768
280
     0
281
     0
  0
CLASS
  1
SPATIAL_INDEX
  2
AcDbSpatialIndex
  3
ObjectDBX Classes
 90
    32768
280
     0
281
     0
  0
CLASS
  1
IDBUFFER
  2
AcDbIdBuffer
  3
ObjectDBX Classes
 90
    32768
280
     0
281
     0
  0
CLASS
  1
ACME_DOCUMENT
  2
AcMeDbDoc
  3
AcMeServices
 90
     1024
280
     0
281
     0
  0
CLASS
  1
ACMESCOPE
  2
AcMeScope
  3
AcMeServices
 90
     1024
280
     0
281
     0
  0
CLASS
  1
ACMECOMMANDHISTORY
  2
AcMeCommandHistory
  3
AcMeServices
 90
     1024
280
     0
281
     0
  0
CLASS
  1
ACIMSYSVARMAN
  2
AcImSysVarManager
  3
AcMeServices
 90
     1024
280
     0
281
     0
  0
CLASS
  1
ACIMINTSYSVAR
  2
AcImIntSysVar
  3
AcMeServices
 90
     1024
280
     0
281
     0
  0
CLASS
  1
ACMESTATEMGR
  2
AcMeStateMgr
  3
AcMeServices
 90
     1024
280
     0
281
     0
  0
CLASS
  1
ACDBENTITYCACHE
  2
AcMeEntityCache
  3
AcMeServices
 90
     1024
280
     0
281
     0
  0
CLASS
  1
ACGREFMASTER
  2
AcGrefMaster
  3
AcAttribServices
 90
     1024
280
     0
281
     0
  0
CLASS
  1
ACME_DATABASE
  2
AcMeDbDatabase
  3
AcMeServices
 90
     1024
280
     0
281
     0
  0
CLASS
  1
ACRFINSADJUSTERMGR
  2
AcRfInsAdjusterMgr
  3
AcMeServices
 90
     1024
280
     0
281
     0
  0
CLASS
  1
ACGREFACADMASTER
  2
AcGrefacadMaster
  3
AcGrefServices
 90
     1024
280
     0
281
     0
  0
CLASS
  1
AMDTMENUSTATEMGR
  2
AmdtMenuStateMgr
  3
McadcomServices
 90
     1024
280
     0
281
     0
  0
CLASS
  1
AMDTMCOMMENUSTATE
  2
AmdtMcomMenuState
  3
McadcomServices
 90
     1024
280
     0
281
     0
  0
CLASS
  1
AMIMASTER
  2
AmiMaster
  3
AmiServices
 90
     1024
280
     0
281
     0
  0
CLASS
  1
AMGSETTINGSOBJ
  2
AmgSettingsObj
  3
"AcadM|Product Description: AutoCAD Mechanical|Company: Autodesk, Inc."
 90
     1024
280
     0
281
     0
  0
CLASS
  1
MAPIAMMOUDLE
  2
MApiAmModule
  3
MApiAmServices
 90
     1024
280
     0
281
     0
  0
CLASS
  1
ACIMSTRSYSVAR
  2
AcImStrSysVar
  3
AcMeServices
 90
     1024
280
     0
281
     0
  0
CLASS
  1
AMDTAMMENUSTATE
  2
AmdtAmMenuState
  3
DesignerAssemblies
 90
     1024
280
     0
281
     0
  0
CLASS
  1
ACAMPROJECT
  2
AcAmProject
  3
DesignerAssemblies
 90
     1024
280
     0
281
     0
  0
CLASS
  1
ACAMGRCOMPDEF
  2
AcAmGrCompDef
  3
DesignerAssemblies
 90
     1024
280
     0
281
     0
  0
CLASS
  1
ACAMCOMPDEF
  2
AcAmCompDef
  3
DesignerAssemblies
 90
     1024
280
     0
281
     0
  0
CLASS
  1
ACAMCOMPDEFMGR
  2
AcAmCompDefMgr
  3
DesignerAssemblies
 90
     1024
280
     0
281
     0
  0
CLASS
  1
AMCONTEXTMGR
  2
AcAmContextMgr
  3
DesignerAssemblies
 90
     1024
280
     0
281
     0
  0
CLASS
  1
ACAMCONTEXTMODELER
  2
AcAmContextModeler
  3
DesignerAssemblies
 90
     1024
280
     0
281
     0
  0
CLASS
  1
ACMDATADICTIONARY
  2
AcmDataDictionary
  3
"AcmSymBB|Product Description: AutoCAD Mechanical|Company: Autodesk, Inc."
 90
     1024
280
     0
281
     0
  0
CLASS
  1
ACMSTANDARDDIN
  2
AcmStandardDIN
  3
"Amdt_StdImp|Product Description: AutoCAD Mechanical|Company: Autodesk, Inc."
 90
     1024
280
     0
281
     0
  0
CLASS
  1
AMDTEDGESTANDARDDIN13715
  2
AmdtEdgeStdDIN13715
  3
"Amdt_StdImp|Product Description: AutoCAD Mechanical|Company: Autodesk, Inc."
 90
     1024
280
     0
281
     0
  0
CLASS
  1
ACMSURFSTANDARDDIN2002
  2
AcmSurfTextStdDIN2002
  3
"Amdt_StdImp|Product Description: AutoCAD Mechanical|Company: Autodesk, Inc."
 90
     1024
280
     0
281
     0
  0
CLASS
  1
ACMFCFSTANDARDDIN2008
  2
AcmFCFStdDIN2008
  3
"Amdt_StdImp|Product Description: AutoCAD Mechanical|Company: Autodesk, Inc."
 90
     1024
280
     0
281
     0
  0
CLASS
  1
ACMWELDSTANDARDDIN
  2
AcmWeldingStdDIN
  3
"Amdt_StdImp|Product Description: AutoCAD Mechanical|Company: Autodesk, Inc."
 90
     1024
280
     0
281
     0
  0
CLASS
  1
ACMIDSTANDARDDIN2008
  2
AcmIdStdDIN2008
  3
"Amdt_StdImp|Product Description: AutoCAD Mechanical|Company: Autodesk, Inc."
 90
     1024
280
     0
281
     0
  0
CLASS
  1
ACMDATUMSTANDARDDIN
  2
AcmDatumStdDIN
  3
"Amdt_StdImp|Product Description: AutoCAD Mechanical|Company: Autodesk, Inc."
 90
     1024
280
     0
281
     0
  0
CLASS
  1
ACMBOMSTANDARDDIN
  2
AcmBOMStdDIN
  3
"Amdt_StdImp|Product Description: AutoCAD Mechanical|Company: Autodesk, Inc."
 90
     1024
280
     0
281
     0
  0
CLASS
  1
ACMDETAILSTANDARDDIN
  2
AmdtDetailSymStdDIN
  3
"Amdt_StdImp|Product Description: AutoCAD Mechanical|Company: Autodesk, Inc."
 90
     1024
280
     0
281
     0
  0
CLASS
  1
ACMSECTIONSTANDARDDIN
  2
AmdtSectionSymStdDIN
  3
"Amdt_StdImp|Product Description: AutoCAD Mechanical|Company: Autodesk, Inc."
 90
     1024
280
     0
281
     0
  0
CLASS
  1
ACMCENTERLINESTANDARDDIN
  2
AmdtCenterLineStdDIN
  3
"Amdt_StdImp|Product Description: AutoCAD Mechanical|Company: Autodesk, Inc."
 90
     1024
280
     0
281
     0
  0
CLASS
  1
ACMTHREADLINESTANDARDDIN
  2
AmdtThreadLineStdDIN
  3
"Amdt_StdImp|Product Description: AutoCAD Mechanical|Company: Autodesk, Inc."
 90
     1024
280
     0
281
     0
  0
CLASS
  1
ACMNOTESTANDARDDIN
  2
AmdtNoteStdDIN
  3
"Amdt_StdImp|Product Description: AutoCAD Mechanical|Company: Autodesk, Inc."
 90
     1024
280
     0
281
     0
  0
CLASS
  1
ACMTAPERSTANDARDDIN
  2
AcmTaperStdDIN
  3
"Amdt_StdImp|Product Description: AutoCAD Mechanical|Company: Autodesk, Inc."
 90
     1024
280
     0
281
     0
  0
CLASS
  1
ACMANOOTATIONVIEWSTANDARDDIN
  2
AmdtAnViewStdDIN
  3
"Amdt_StdImp|Product Description: AutoCAD Mechanical|Company: Autodesk, Inc."
 90
     1024
280
     0
281
     0
  0
CLASS
  1
ACAMGLAYSTD
  2
AcAmgLayStd
  3
"AmgLay|Product Description: AutoCAD Mechanical|Company: Autodesk, Inc."
 90
     1024
280
     0
281
     0
  0
CLASS
  1
ACAMGDIMSTD
  2
AcAmgDimStd
  3
"AmgDim|Product Description: AutoCAD Mechanical|Company: Autodesk, Inc."
 90
     1024
280
     0
281
     0
  0
CLASS
  1
AMGOBJPROPCFG
  2
AmgObjPropCfg
  3
"AmgLay|Product Description: AutoCAD Mechanical|Company: Autodesk, Inc."
 90
     1025
280
     0
281
     0
  0
CLASS
  1
ACAMGHOLECHARTSTDDIN
  2
AcAmgHoleChartStdDIN
  3
AmgDim|Product Description: AutoCAD Mechanical|Company: Autodesk, Inc.
 90
     1024
280
     0
281
     0
  0
CLASS
  1
ACAMGTITLESTD
  2
AcAmgTitleStd
  3
"AmgTitle|Product Description: AutoCAD Mechanical|Company: Autodesk, Inc."
 90
     4095
280
     0
281
     0
  0
CLASS
  1
AMDTNOTETEMPLATEDB
  2
AmdtNoteTemplateDB
  3
AcmSymBB|Product Description: AutoCAD Mechanical|Company: Autodesk, Inc.
 90
     1024
280
     0
281
     0
  0
CLASS
  1
ACAMGRCOMPDEFSET
  2
AcAmGrCompDefSet
  3
DesignerAssemblies
 90
     1024
280
     0
281
     0
  0
CLASS
  1
AMDTBROWSERDBTAB
  2
AmdtBrowserDbTab
  3
McadcomServices
 90
     1024
280
     0
281
     0
  0
CLASS
  1
CBROWSERAPPOBJECT
  2
CBrowserAppObject
  3
McadcomServices
 90
     1024
280
     0
281
     0
  0
CLASS
  1
DM_PLACEHOLDER
  2
AcDmSelsetPlaceholder
  3
McadcomServices
 90
     1024
280
     0
281
     0
  0
CLASS
  1
ACAMGFILTERDAT
  2
AcAmgFilterDat
  3
"AcadM|Product Description: AutoCAD Mechanical|Company: Autodesk, Inc."
 90
     1024
280
     0
281
     0
  0
CLASS
  1
CAMSSTRUCTBTNSTATE
  2
StructBtnState
  3
DesignerAssemblies
 90
     1024
280
     0
281
     0
  0
CLASS
  1
DIMASSOC
  2
AcDbDimAssoc
  3
"AcDbDimAssoc|Product Desc:     AcDim ARX App For Dimension|Company:          Autodesk, Inc.|WEB Address:      www.autodesk.com"
 90
        0
280
     0
281
     0
  0
CLASS
  1
SORTENTSTABLE
  2
AcDbSortentsTable
  3
ObjectDBX Classes
 90
        0
280
     0
281
     0
  0
ENDSEC
  0
SECTION
  2
TABLES
  0
TABLE
  2
VPORT
  5
8
330
0
100
AcDbSymbolTable
 70
     1
  0
VPORT
  5
EA
330
8
100
AcDbSymbolTableRecord
100
AcDbViewportTableRecord
  2
*Active
 70
     0
 10
0.0
 20
0.0
 11
1.0
 21
1.0
 12
4262.421382789726
 22
2114.315118725458
 13
0.0
 23
0.0
 14
2.5
 24
2.5
 15
10.0
 25
10.0
 16
0.0
 26
0.0
 36
1.0
 17
0.0
 27
0.0
 37
0.0
 40
2796.074322442099
 41
1.874620829120323
 42
50.0
 43
0.0
 44
0.0
 50
0.0
 51
0.0
 71
     0
 72
  1000
 73
     1
 74
     3
 75
     0
 76
     1
 77
     0
 78
     0
281
     0
 65
     0
110
0.0
120
0.0
130
0.0
111
1.0
121
0.0
131
0.0
112
0.0
122
1.0
132
0.0
 79
     0
146
0.0
1001
ACAD_NAV_VCDISPLAY
1070
     3
  0
ENDTAB
  0
TABLE
  2
LTYPE
  5
5
330
0
100
AcDbSymbolTable
 70
    19
  0
LTYPE
  5
14
330
5
100
AcDbSymbolTableRecord
100
AcDbLinetypeTableRecord
  2
ByBlock
 70
     0
  3

 72
    65
 73
     0
 40
0.0
  0
LTYPE
  5
15
330
5
100
AcDbSymbolTableRecord
100
AcDbLinetypeTableRecord
  2
ByLayer
 70
     0
  3

 72
    65
 73
     0
 40
0.0
  0
LTYPE
  5
16
330
5
100
AcDbSymbolTableRecord
100
AcDbLinetypeTableRecord
  2
Continuous
 70
     0
  3
Solid line
 72
    65
 73
     0
 40
0.0
  0
LTYPE
  5
228
330
5
100
AcDbSymbolTableRecord
100
AcDbLinetypeTableRecord
  2
HIDDEN
 70
     0
  3
Hidden __ __ __ __ __ __ __ __ __ __ __ __ __ __
 72
    65
 73
     2
 40
9.525
 49
6.349999999999999
 74
     0
 49
-3.174999999999999
 74
     0
  0
LTYPE
  5
229
330
5
100
AcDbSymbolTableRecord
100
AcDbLinetypeTableRecord
  2
PHANTOM2
 70
     0
  3
Phantom (.5x) ___ _ _ ___ _ _ ___ _ _ ___ _ _
 72
    65
 73
     6
 40
31.75
 49
15.875
 74
     0
 49
-3.174999999999999
 74
     0
 49
3.174999999999999
 74
     0
 49
-3.174999999999999
 74
     0
 49
3.174999999999999
 74
     0
 49
-3.174999999999999
 74
     0
  0
LTYPE
  5
22A
330
5
100
AcDbSymbolTableRecord
100
AcDbLinetypeTableRecord
  2
CENTER
 70
     0
  3
Center ____ _ ____ _ ____ _ ____ _ ____ _ ____
 72
    65
 73
     4
 40
50.8
 49
31.75
 74
     0
 49
-6.349999999999999
 74
     0
 49
6.349999999999999
 74
     0
 49
-6.349999999999999
 74
     0
  0
LTYPE
  5
263
330
5
100
AcDbSymbolTableRecord
100
AcDbLinetypeTableRecord
  2
AM_ISO02W050
 70
     0
  3
__ __ __ __ __ __ __ __ __ __ __ __ __ __ __
 72
    65
 73
     2
 40
7.5
 49
6.0
 74
     0
 49
-1.5
 74
     0
  0
LTYPE
  5
264
330
5
100
AcDbSymbolTableRecord
100
AcDbLinetypeTableRecord
  2
AM_ISO08W050
 70
     0
  3
____ . ____ . ____ . ____ . ____ . ____ . ____
 72
    65
 73
     4
 40
18.0
 49
12.0
 74
     0
 49
-1.5
 74
     0
 49
3.0
 74
     0
 49
-1.5
 74
     0
  0
LTYPE
  5
265
330
5
100
AcDbSymbolTableRecord
100
AcDbLinetypeTableRecord
  2
AM_ISO09W050
 70
     0
  3
_____ . . _____ . . _____ . . ____ .. ____
 72
    65
 73
     6
 40
22.5
 49
12.0
 74
     0
 49
-1.5
 74
     0
 49
3.0
 74
     0
 49
-1.5
 74
     0
 49
3.0
 74
     0
 49
-1.5
 74
     0
  0
LTYPE
  5
266
330
5
100
AcDbSymbolTableRecord
100
AcDbLinetypeTableRecord
  2
Amconstr
 70
     0
  3
_______________________
 72
    65
 73
     2
 40
9999.0
 49
9999.0
 74
     0
 49
0.0
 74
     0
  0
LTYPE
  5
267
330
5
100
AcDbSymbolTableRecord
100
AcDbLinetypeTableRecord
  2
AM_ISO08W050x2
 70
     0
  3
__ . __ . __ . __ . __ . __
 72
    65
 73
     4
 40
9.0
 49
6.0
 74
     0
 49
-0.75
 74
     0
 49
1.5
 74
     0
 49
-0.75
 74
     0
  0
LTYPE
  5
268
330
5
100
AcDbSymbolTableRecord
100
AcDbLinetypeTableRecord
  2
AM_ISO02W050x2
 70
     0
  3
 _ _ _ _ _ _ _ _ _ _ _ _
 72
    65
 73
     2
 40
3.75
 49
3.0
 74
     0
 49
-0.75
 74
     0
  0
LTYPE
  5
26B
330
5
100
AcDbSymbolTableRecord
100
AcDbLinetypeTableRecord
  2
Amzigzag
 70
     0
  3
/\/-/\/-/\/-/\/-/\/-/\/
 72
    65
 73
     2
 40
11.0001
 49
0.0001
 74
     4
 75
   136
340
26A
 46
0.04
 50
0.0
 44
0.0
 45
0.0
 49
-11.0
 74
     0
  0
LTYPE
  5
26C
330
5
100
AcDbSymbolTableRecord
100
AcDbLinetypeTableRecord
  2
AM_DIN_F_W050
 70
     0
  3
__ __ __ __ __ __ __ __ __ __ __ __ __ __ __
 72
    65
 73
     2
 40
6.25
 49
4.75
 74
     0
 49
-1.5
 74
     0
  0
LTYPE
  5
26D
330
5
100
AcDbSymbolTableRecord
100
AcDbLinetypeTableRecord
  2
AM_DIN_G_W050
 70
     0
  3
____ . ____ . ____ . ____ . ____ . ____ . ____
 72
    65
 73
     4
 40
13.75
 49
9.75
 74
     0
 49
-1.5
 74
     0
 49
1.0
 74
     0
 49
-1.5
 74
     0
  0
LTYPE
  5
26E
330
5
100
AcDbSymbolTableRecord
100
AcDbLinetypeTableRecord
  2
AM_DIN_K_W050
 70
     0
  3
_____ . . _____ . . _____ . . ____ .. ____
 72
    65
 73
     6
 40
16.25
 49
9.75
 74
     0
 49
-1.5
 74
     0
 49
1.0
 74
     0
 49
-1.5
 74
     0
 49
1.0
 74
     0
 49
-1.5
 74
     0
  0
LTYPE
  5
26F
330
5
100
AcDbSymbolTableRecord
100
AcDbLinetypeTableRecord
  2
AM_DIN_G_W050x2
 70
     0
  3
__ . __ . __ . __ . __ . __
 72
    65
 73
     4
 40
6.875
 49
4.75
 74
     0
 49
-0.875
 74
     0
 49
0.375
 74
     0
 49
-0.875
 74
     0
  0
LTYPE
  5
270
330
5
100
AcDbSymbolTableRecord
100
AcDbLinetypeTableRecord
  2
AM_DIN_F_W050x2
 70
     0
  3
 _ _ _ _ _ _ _ _ _ _ _ _
 72
    65
 73
     2
 40
3.125
 49
2.25
 74
     0
 49
-0.875
 74
     0
  0
LTYPE
  5
27F
330
5
100
AcDbSymbolTableRecord
100
AcDbLinetypeTableRecord
  2
ACDINWELD
 70
     0
  3
_ _ _ _ _
 72
    65
 73
     2
 40
2.0
 49
2.0
 74
     0
 49
-1.0
 74
     0
  0
LTYPE
  5
280
330
5
100
AcDbSymbolTableRecord
100
AcDbLinetypeTableRecord
  2
ACDINTGL
 70
     0
  3
_ _ _ _ _
 72
    65
 73
     2
 40
3.0
 49
2.0
 74
     0
 49
-1.0
 74
     0
  0
LTYPE
  5
281
330
5
100
AcDbSymbolTableRecord
100
AcDbLinetypeTableRecord
  2
ACDINTGB
 70
     0
  3
__ . . __ . .
 72
    65
 73
     6
 40
9.0
 49
4.0
 74
     0
 49
-1.0
 74
     0
 49
1.0
 74
     0
 49
-1.0
 74
     0
 49
1.0
 74
     0
 49
-1.0
 74
     0
  0
ENDTAB
  0
TABLE
  2
LAYER
  5
2
102
{ACAD_XDICTIONARY
360
1FF
102
}
330
0
100
AcDbSymbolTable
 70
    10
  0
LAYER
  5
10
102
{ACAD_XDICTIONARY
360
13C
102
}
330
2
100
AcDbSymbolTableRecord
100
AcDbLayerTableRecord
  2
0
 70
     0
 62
     7
  6
Continuous
370
    -3
390
F
  0
LAYER
  5
303
330
2
100
AcDbSymbolTableRecord
100
AcDbLayerTableRecord
  2
Defpoints
 70
     0
 62
     7
  6
Continuous
290
     0
370
    -3
390
F
  0
LAYER
  5
304
102
{ACAD_XDICTIONARY
360
305
102
}
330
2
100
AcDbSymbolTableRecord
100
AcDbLayerTableRecord
  2
Mittellinie
 70
     0
 62
     2
  6
CENTER
370
    25
390
F
  0
LAYER
  5
306
102
{ACAD_XDICTIONARY
360
307
102
}
330
2
100
AcDbSymbolTableRecord
100
AcDbLayerTableRecord
  2
Verdeckte Kante
 70
     0
 62
     3
  6
HIDDEN
370
    25
390
F
  0
LAYER
  5
308
102
{ACAD_XDICTIONARY
360
309
102
}
330
2
100
AcDbSymbolTableRecord
100
AcDbLayerTableRecord
  2
Bemassung
 70
     0
 62
     1
  6
Continuous
370
    25
390
F
  0
LAYER
  5
30A
102
{ACAD_XDICTIONARY
360
30B
102
}
330
2
100
AcDbSymbolTableRecord
100
AcDbLayerTableRecord
  2
AM_5
 70
     0
 62
     3
  6
Continuous
370
    25
390
F
  0
LAYER
  5
30C
330
2
100
AcDbSymbolTableRecord
100
AcDbLayerTableRecord
  2
VEKA_PVC_SASH
 70
     0
 62
     7
  6
Continuous
370
    50
390
F
  0
LAYER
  5
30D
102
{ACAD_XDICTIONARY
360
30E
102
}
330
2
100
AcDbSymbolTableRecord
100
AcDbLayerTableRecord
  2
Sichtbare Kanten(DIN)
 70
     0
 62
     7
  6
Continuous
370
    50
390
F
  0
LAYER
  5
30F
102
{ACAD_XDICTIONARY
360
310
102
}
330
2
100
AcDbSymbolTableRecord
100
AcDbLayerTableRecord
  2
PAPER
 70
     0
 62
     5
  6
Continuous
370
    -3
390
F
  0
LAYER
  5
884
102
{ACAD_XDICTIONARY
360
885
102
}
330
2
100
AcDbSymbolTableRecord
100
AcDbLayerTableRecord
  2
VEKA_HATCH
 70
     0
 62
     6
  6
Continuous
370
    -3
390
F
  0
ENDTAB
  0
TABLE
  2
STYLE
  5
3
330
0
100
AcDbSymbolTable
 70
    11
  0
STYLE
  5
11
330
3
100
AcDbSymbolTableRecord
100
AcDbTextStyleTableRecord
  2
STANDARD
 70
     0
 40
0.0
 41
1.0
 50
0.0
 71
     0
 42
2.5
  3
ISOCP.SHX
  4

  0
STYLE
  5
132
330
3
100
AcDbSymbolTableRecord
100
AcDbTextStyleTableRecord
  2
Annotative
 70
     0
 40
0.0
 41
1.0
 50
0.0
 71
     0
 42
2.5
  3
ARIAL.TTF
  4

1001
AcadAnnotative
1000
AnnotativeData
1002
{
1070
     1
1070
     1
1002
}
1001
ACAD
1000
Arial
1071
       34
  0
STYLE
  5
26A
330
3
100
AcDbSymbolTableRecord
100
AcDbTextStyleTableRecord
  2

 70
     1
 40
0.0
 41
1.0
 50
0.0
 71
     0
 42
2.5
  3
genltshp.shx
  4

  0
STYLE
  5
27D
330
3
100
AcDbSymbolTableRecord
100
AcDbTextStyleTableRecord
  2
ACDINTS
 70
     0
 40
1.0
 41
1.0
 50
0.0
 71
     0
 42
2.5
  3
isocp.shx
  4

  0
STYLE
  5
27E
330
3
100
AcDbSymbolTableRecord
100
AcDbTextStyleTableRecord
  2
ACDINGDT
 70
     0
 40
0.0
 41
1.0
 50
0.0
 71
     0
 42
2.5
  3
amgdt.shx
  4

  0
STYLE
  5
28D
330
3
100
AcDbSymbolTableRecord
100
AcDbTextStyleTableRecord
  2
USER1
 70
     0
 40
0.0
 41
1.0
 50
0.0
 71
     0
 42
2.5
  3
TXT.SHX
  4

  0
STYLE
  5
28E
330
3
100
AcDbSymbolTableRecord
100
AcDbTextStyleTableRecord
  2
USER2
 70
     0
 40
0.0
 41
1.0
 50
0.0
 71
     0
 42
2.5
  3
SIMPLEX.SHX
  4

  0
STYLE
  5
28F
330
3
100
AcDbSymbolTableRecord
100
AcDbTextStyleTableRecord
  2
USER3
 70
     0
 40
0.0
 41
1.0
 50
0.0
 71
     0
 42
2.5
  3
ITALIC.SHX
  4

  0
STYLE
  5
311
330
3
100
AcDbSymbolTableRecord
100
AcDbTextStyleTableRecord
  2
ARIAL
 70
     0
 40
0.0
 41
1.0
 50
0.0
 71
     0
 42
2.5
  3
txt
  4

  0
ENDTAB
  0
TABLE
  2
VIEW
  5
6
330
0
100
AcDbSymbolTable
 70
     0
  0
ENDTAB
  0
TABLE
  2
UCS
  5
7
330
0
100
AcDbSymbolTable
 70
     0
  0
ENDTAB
  0
TABLE
  2
APPID
  5
9
330
0
100
AcDbSymbolTable
 70
    25
  0
APPID
  5
12
330
9
100
AcDbSymbolTableRecord
100
AcDbRegAppTableRecord
  2
ACAD
 70
     0
  0
APPID
  5
9E
330
9
100
AcDbSymbolTableRecord
100
AcDbRegAppTableRecord
  2
ACAD_PSEXT
 70
     0
  0
APPID
  5
133
330
9
100
AcDbSymbolTableRecord
100
AcDbRegAppTableRecord
  2
AcadAnnoPO
 70
     0
  0
APPID
  5
134
330
9
100
AcDbSymbolTableRecord
100
AcDbRegAppTableRecord
  2
AcadAnnotative
 70
     0
  0
APPID
  5
135
330
9
100
AcDbSymbolTableRecord
100
AcDbRegAppTableRecord
  2
ACAD_DSTYLE_DIMJAG
 70
     0
  0
APPID
  5
136
330
9
100
AcDbSymbolTableRecord
100
AcDbRegAppTableRecord
  2
ACAD_DSTYLE_DIMTALN
 70
     0
  0
APPID
  5
165
330
9
100
AcDbSymbolTableRecord
100
AcDbRegAppTableRecord
  2
ACAD_MLEADERVER
 70
     0
  0
APPID
  5
217
330
9
100
AcDbSymbolTableRecord
100
AcDbRegAppTableRecord
  2
ACAD_NAV_VCDISPLAY
 70
     0
  0
APPID
  5
221
330
9
100
AcDbSymbolTableRecord
100
AcDbRegAppTableRecord
  2
MCAD_NO_VIS
 70
     0
  0
APPID
  5
222
330
9
100
AcDbSymbolTableRecord
100
AcDbRegAppTableRecord
  2
ACAD_TEMP_GRAPHIC
 70
     0
  0
APPID
  5
22F
330
9
100
AcDbSymbolTableRecord
100
AcDbRegAppTableRecord
  2
ACATTRIBSERVICES
 70
     0
  0
APPID
  5
24B
330
9
100
AcDbSymbolTableRecord
100
AcDbRegAppTableRecord
  2
DESIGNERASSEMBLIES
 70
     0
  0
APPID
  5
261
330
9
100
AcDbSymbolTableRecord
100
AcDbRegAppTableRecord
  2
ACAD_DSTYLE_DIMBREAK
 70
     0
  0
APPID
  5
316
330
9
100
AcDbSymbolTableRecord
100
AcDbRegAppTableRecord
  2
GENIUS_GENDTOL_13
 70
     0
  0
APPID
  5
317
330
9
100
AcDbSymbolTableRecord
100
AcDbRegAppTableRecord
  2
GENIUS_GENODEF_13
 70
     0
  0
APPID
  5
318
330
9
100
AcDbSymbolTableRecord
100
AcDbRegAppTableRecord
  2
ACAD_DSTYLE_DIMINSPECT
 70
     0
  0
APPID
  5
319
330
9
100
AcDbSymbolTableRecord
100
AcDbRegAppTableRecord
  2
GENIUS_GENREC_14
 70
     0
  0
APPID
  5
31A
330
9
100
AcDbSymbolTableRecord
100
AcDbRegAppTableRecord
  2
GENIUS_GENOBJ-N-REC_13
 70
     0
  0
APPID
  5
31B
330
9
100
AcDbSymbolTableRecord
100
AcDbRegAppTableRecord
  2
AD_DRAW
 70
     0
  0
APPID
  5
31C
330
9
100
AcDbSymbolTableRecord
100
AcDbRegAppTableRecord
  2
ACADM_DIM_EDIT
 70
     0
  0
APPID
  5
31D
330
9
100
AcDbSymbolTableRecord
100
AcDbRegAppTableRecord
  2
AMDT_DM_ADJ
 70
     0
  0
APPID
  5
AF0
330
9
100
AcDbSymbolTableRecord
100
AcDbRegAppTableRecord
  2
ACAD_DSTYLE_DIMJOGGED_JOGANGLE_SYMBOL
 70
     0
  0
APPID
  5
AF1
330
9
100
AcDbSymbolTableRecord
100
AcDbRegAppTableRecord
  2
ACAD_DSTYLE_DIM_LINETYPE
 70
     0
  0
APPID
  5
AF2
330
9
100
AcDbSymbolTableRecord
100
AcDbRegAppTableRecord
  2
ACAD_DSTYLE_DIM_EXT1_LINETYPE
 70
     0
  0
APPID
  5
AF3
330
9
100
AcDbSymbolTableRecord
100
AcDbRegAppTableRecord
  2
ACAD_DSTYLE_DIM_EXT2_LINETYPE
 70
     0
  0
ENDTAB
  0
TABLE
  2
DIMSTYLE
  5
A
330
0
100
AcDbSymbolTable
 70
    16
100
AcDbDimStyleTable
 71
     3
340
260
340
27
340
137
  0
DIMSTYLE
105
1B0
330
A
100
AcDbSymbolTableRecord
100
AcDbDimStyleTableRecord
  2
Standard
 70
     0
340
11
  0
DIMSTYLE
105
137
330
A
100
AcDbSymbolTableRecord
100
AcDbDimStyleTableRecord
  2
Annotative
 70
     0
 40
0.0
 41
2.5
 42
0.625
 43
3.75
 44
1.25
 73
     0
 74
     0
 77
     1
 78
     8
140
2.5
141
2.5
143
0.03937007874016
147
0.625
171
     3
172
     1
271
     2
272
     2
274
     3
278
    44
283
     0
284
     8
340
11
1001
AcadAnnotative
1000
AnnotativeData
1002
{
1070
     1
1070
     1
1002
}
1001
ACAD_DSTYLE_DIMJAG
1070
   388
1040
1.5
1001
ACAD_DSTYLE_DIMTALN
1070
   392
1070
     0
  0
DIMSTYLE
105
27
102
{ACAD_REACTORS
330
9D4
330
9D7
330
9DA
330
969
330
96C
330
96F
330
9AC
330
9AF
102
}
330
A
100
AcDbSymbolTableRecord
100
AcDbDimStyleTableRecord
  2
ISO-25
 70
     0
 41
2.5
 42
0.625
 43
3.75
 44
1.25
 73
     0
 74
     0
 77
     1
 78
     8
140
2.5
141
2.5
143
0.03937007874016
147
0.625
171
     3
172
     1
271
     2
272
     2
274
     3
278
    44
283
     0
284
     8
340
11
  0
DIMSTYLE
105
260
102
{ACAD_REACTORS
330
24F
102
}
330
A
100
AcDbSymbolTableRecord
100
AcDbDimStyleTableRecord
  2
AM_DIN
 70
     0
  4
"
 41
3.5
 42
1.0
 43
10.0
 44
1.0
 47
0.1
 48
0.1
 73
     0
 74
     0
 77
     1
 78
     8
 79
     2
140
3.5
141
0.0
143
0.0393701
146
0.71
147
1.5
172
     1
176
   256
177
   256
178
     2
271
     2
272
     3
274
     4
283
     0
284
     8
340
11
371
    -1
372
    -1
1001
ACAD_DSTYLE_DIMJAG
1070
   388
1040
1.5
1001
ACAD_DSTYLE_DIMBREAK
1070
   391
1040
3.75
1001
ACAD_DSTYLE_DIMJOGGED_JOGANGLE_SYMBOL
1070
   384
1040
1.570796326794896
1001
ACAD_DSTYLE_DIM_LINETYPE
1070
   380
1005
14
1001
ACAD_DSTYLE_DIM_EXT1_LINETYPE
1070
   381
1005
14
1001
ACAD_DSTYLE_DIM_EXT2_LINETYPE
1070
   382
1005
14
  0
DIMSTYLE
105
271
330
A
100
AcDbSymbolTableRecord
100
AcDbDimStyleTableRecord
  2
AM_DIN$3
 70
     0
  4
"
 41
3.5
 42
1.0
 43
10.0
 44
1.0
 47
0.1
 48
0.1
 73
     0
 77
     1
 78
     8
 79
     2
140
3.5
141
0.0
143
0.0393701
146
0.71
147
1.5
176
   256
177
   256
178
     2
271
     2
272
     3
274
     4
283
     0
284
     8
288
     1
289
     0
340
11
371
    -1
372
    -1
1001
ACAD_DSTYLE_DIMBREAK
1070
   391
1040
3.75
1001
ACAD_DSTYLE_DIMJAG
1070
   388
1040
1.5
1001
ACAD_DSTYLE_DIMJOGGED_JOGANGLE_SYMBOL
1070
   384
1040
1.570796326794896
1001
ACAD_DSTYLE_DIM_LINETYPE
1070
   380
1005
14
1001
ACAD_DSTYLE_DIM_EXT1_LINETYPE
1070
   381
1005
14
1001
ACAD_DSTYLE_DIM_EXT2_LINETYPE
1070
   382
1005
14
  0
DIMSTYLE
105
272
330
A
100
AcDbSymbolTableRecord
100
AcDbDimStyleTableRecord
  2
AM_DIN$4
 70
     0
  4
"
 41
3.5
 42
1.0
 43
10.0
 44
1.0
 47
0.1
 48
0.1
 73
     0
 77
     1
 78
     8
 79
     2
140
3.5
141
0.0
143
0.0393701
146
0.71
147
1.5
176
   256
177
   256
178
     2
271
     2
272
     3
274
     4
283
     0
284
     8
288
     1
289
     0
340
11
371
    -1
372
    -1
1001
ACAD_DSTYLE_DIMBREAK
1070
   391
1040
3.75
1001
ACAD_DSTYLE_DIMJAG
1070
   388
1040
1.5
1001
ACAD_DSTYLE_DIMJOGGED_JOGANGLE_SYMBOL
1070
   384
1040
1.570796326794896
1001
ACAD_DSTYLE_DIM_LINETYPE
1070
   380
1005
14
1001
ACAD_DSTYLE_DIM_EXT1_LINETYPE
1070
   381
1005
14
1001
ACAD_DSTYLE_DIM_EXT2_LINETYPE
1070
   382
1005
14
  0
DIMSTYLE
105
273
330
A
100
AcDbSymbolTableRecord
100
AcDbDimStyleTableRecord
  2
AM_DIN$6
 70
     0
  4
"
 41
3.5
 42
1.0
 43
10.0
 44
1.0
 47
0.1
 48
0.1
 73
     0
 74
     0
 78
     8
 79
     2
140
3.5
141
0.0
143
0.0393701
146
0.71
147
1.5
172
     1
176
   256
177
   256
178
     2
271
     2
272
     3
274
     4
283
     0
284
     8
340
11
371
    -1
372
    -1
1001
ACAD_DSTYLE_DIMBREAK
1070
   391
1040
3.75
1001
ACAD_DSTYLE_DIMJAG
1070
   388
1040
1.5
1001
ACAD_DSTYLE_DIMJOGGED_JOGANGLE_SYMBOL
1070
   384
1040
1.570796326794896
1001
ACAD_DSTYLE_DIM_LINETYPE
1070
   380
1005
14
1001
ACAD_DSTYLE_DIM_EXT1_LINETYPE
1070
   381
1005
14
1001
ACAD_DSTYLE_DIM_EXT2_LINETYPE
1070
   382
1005
14
  0
DIMSTYLE
105
274
330
A
100
AcDbSymbolTableRecord
100
AcDbDimStyleTableRecord
  2
AM_DIN$7
 70
     0
  4
"
 41
3.5
 42
1.0
 43
10.0
 44
1.0
 47
0.1
 48
0.1
 73
     0
 74
     0
 77
     1
 78
     8
 79
     2
140
3.5
141
0.0
143
0.0393701
146
0.71
147
1.5
172
     1
176
   256
177
   256
178
     2
271
     2
272
     3
274
     4
283
     0
284
     8
340
11
371
    -1
372
    -1
1001
ACAD_DSTYLE_DIMBREAK
1070
   391
1040
3.75
1001
ACAD_DSTYLE_DIMJAG
1070
   388
1040
1.5
1001
ACAD_DSTYLE_DIMJOGGED_JOGANGLE_SYMBOL
1070
   384
1040
1.570796326794896
1001
ACAD_DSTYLE_DIM_LINETYPE
1070
   380
1005
14
1001
ACAD_DSTYLE_DIM_EXT1_LINETYPE
1070
   381
1005
14
1001
ACAD_DSTYLE_DIM_EXT2_LINETYPE
1070
   382
1005
14
  0
DIMSTYLE
105
275
330
A
100
AcDbSymbolTableRecord
100
AcDbDimStyleTableRecord
  2
AM_DIN$SF
 70
     0
  4
"
 41
3.5
 42
1.0
 43
10.0
 44
1.0
 47
0.1
 48
0.1
 73
     0
 74
     0
 75
     1
 76
     1
 77
     1
 78
     8
 79
     2
140
3.5
141
0.0
143
0.0393701
146
0.71
147
1.5
172
     1
176
   256
177
   256
178
     2
271
     2
272
     3
274
     4
283
     0
284
     8
340
11
371
    -1
372
    -1
1001
ACAD_DSTYLE_DIMBREAK
1070
   391
1040
3.75
1001
ACAD_DSTYLE_DIMJAG
1070
   388
1040
1.5
1001
ACAD_DSTYLE_DIMJOGGED_JOGANGLE_SYMBOL
1070
   384
1040
1.570796326794896
1001
ACAD_DSTYLE_DIM_LINETYPE
1070
   380
1005
14
1001
ACAD_DSTYLE_DIM_EXT1_LINETYPE
1070
   381
1005
14
1001
ACAD_DSTYLE_DIM_EXT2_LINETYPE
1070
   382
1005
14
  0
DIMSTYLE
105
27A
330
A
100
AcDbSymbolTableRecord
100
AcDbDimStyleTableRecord
  2
AM_DIN$SH
 70
     0
  4
"
 41
3.5
 42
1.0
 43
10.0
 44
1.0
 47
0.1
 48
0.1
 73
     0
 74
     0
 75
     1
 76
     1
 77
     1
 78
     8
 79
     2
140
3.5
141
0.0
143
0.0393701
144
2.0
146
0.71
147
1.5
172
     1
173
     1
176
   256
177
   256
178
     2
271
     2
272
     3
274
     4
283
     0
284
     8
340
11
343
276
371
    -1
372
    -1
1001
ACAD_DSTYLE_DIMBREAK
1070
   391
1040
3.75
1001
ACAD_DSTYLE_DIMJAG
1070
   388
1040
1.5
1001
ACAD_DSTYLE_DIMJOGGED_JOGANGLE_SYMBOL
1070
   384
1040
1.570796326794896
1001
ACAD_DSTYLE_DIM_LINETYPE
1070
   380
1005
14
1001
ACAD_DSTYLE_DIM_EXT1_LINETYPE
1070
   381
1005
14
1001
ACAD_DSTYLE_DIM_EXT2_LINETYPE
1070
   382
1005
14
  0
DIMSTYLE
105
312
330
A
100
AcDbSymbolTableRecord
100
AcDbDimStyleTableRecord
  2
MEA
 70
     0
 40
0.0
 41
4.0
 42
0.625
 43
3.75
 44
1.25
 73
     0
 74
     0
 77
     1
 78
     8
 79
     2
140
3.5
141
4.0
143
0.0394
145
1.0
147
0.625
172
     1
271
     2
272
     2
273
     8
278
    44
340
11
  0
DIMSTYLE
105
313
330
A
100
AcDbSymbolTableRecord
100
AcDbDimStyleTableRecord
  2
Durchmesser
 70
     0
  3
%%c<>
 40
0.0
 41
4.0
 42
0.625
 43
3.75
 44
1.25
 73
     0
 74
     0
 77
     1
 78
     8
140
3.5
141
4.0
143
0.0394
145
1.0
147
0.625
172
     1
271
     2
272
     2
273
     8
278
    44
340
11
  0
DIMSTYLE
105
314
330
A
100
AcDbSymbolTableRecord
100
AcDbDimStyleTableRecord
  2
Toleranzen
 70
     0
 40
0.0
 41
4.0
 42
0.625
 43
3.75
 44
1.25
 47
1.0
 71
     1
 73
     0
 74
     0
 77
     1
 78
     8
 79
     2
140
3.5
141
4.0
143
0.0394
145
1.0
147
0.625
172
     1
271
     2
272
     2
273
     8
278
    44
283
     2
284
     8
340
11
  0
DIMSTYLE
105
315
330
A
100
AcDbSymbolTableRecord
100
AcDbDimStyleTableRecord
  2
MEA$0
 70
     0
 40
0.0
 41
4.0
 42
0.625
 43
3.75
 44
1.25
 73
     0
 74
     0
 77
     1
 78
     8
 79
     2
140
3.5
141
4.0
143
0.0394
145
1.0
147
0.625
172
     1
271
     2
272
     2
273
     8
278
    44
340
11
  0
ENDTAB
  0
TABLE
  2
BLOCK_RECORD
  5
1
330
0
100
AcDbSymbolTable
 70
    56
  0
BLOCK_RECORD
  5
1F
102
{ACAD_XDICTIONARY
360
1CE
102
}
330
1
100
AcDbSymbolTableRecord
100
AcDbBlockTableRecord
  2
*Model_Space
340
22
  0
BLOCK_RECORD
  5
D2
330
1
100
AcDbSymbolTableRecord
100
AcDbBlockTableRecord
  2
*Paper_Space
340
D3
  0
BLOCK_RECORD
  5
D6
330
1
100
AcDbSymbolTableRecord
100
AcDbBlockTableRecord
  2
*Paper_Space0
340
D7
  0
BLOCK_RECORD
  5
276
330
1
100
AcDbSymbolTableRecord
100
AcDbBlockTableRecord
  2
GENAXEH
340
0
  0
BLOCK_RECORD
  5
2A1
330
1
100
AcDbSymbolTableRecord
100
AcDbBlockTableRecord
  2
*D3
340
0
  0
BLOCK_RECORD
  5
2AD
330
1
100
AcDbSymbolTableRecord
100
AcDbBlockTableRecord
  2
*D4
340
0
  0
BLOCK_RECORD
  5
2B9
330
1
100
AcDbSymbolTableRecord
100
AcDbBlockTableRecord
  2
*D5
340
0
  0
BLOCK_RECORD
  5
2C5
330
1
100
AcDbSymbolTableRecord
100
AcDbBlockTableRecord
  2
*D6
340
0
  0
BLOCK_RECORD
  5
2D1
330
1
100
AcDbSymbolTableRecord
100
AcDbBlockTableRecord
  2
*D7
340
0
  0
BLOCK_RECORD
  5
2DF
330
1
100
AcDbSymbolTableRecord
100
AcDbBlockTableRecord
  2
*D8
340
0
  0
BLOCK_RECORD
  5
2EB
330
1
100
AcDbSymbolTableRecord
100
AcDbBlockTableRecord
  2
*D9
340
0
  0
BLOCK_RECORD
  5
2F7
330
1
100
AcDbSymbolTableRecord
100
AcDbBlockTableRecord
  2
*D10
340
0
  0
BLOCK_RECORD
  5
455
330
1
100
AcDbSymbolTableRecord
100
AcDbBlockTableRecord
  2
*D12
340
0
  0
BLOCK_RECORD
  5
461
330
1
100
AcDbSymbolTableRecord
100
AcDbBlockTableRecord
  2
*D13
340
0
  0
BLOCK_RECORD
  5
46D
330
1
100
AcDbSymbolTableRecord
100
AcDbBlockTableRecord
  2
*D14
340
0
  0
BLOCK_RECORD
  5
479
330
1
100
AcDbSymbolTableRecord
100
AcDbBlockTableRecord
  2
*D15
340
0
  0
BLOCK_RECORD
  5
485
330
1
100
AcDbSymbolTableRecord
100
AcDbBlockTableRecord
  2
*D16
340
0
  0
BLOCK_RECORD
  5
493
330
1
100
AcDbSymbolTableRecord
100
AcDbBlockTableRecord
  2
*D17
340
0
  0
BLOCK_RECORD
  5
49F
330
1
100
AcDbSymbolTableRecord
100
AcDbBlockTableRecord
  2
*D18
340
0
  0
BLOCK_RECORD
  5
4AB
330
1
100
AcDbSymbolTableRecord
100
AcDbBlockTableRecord
  2
*D19
340
0
  0
BLOCK_RECORD
  5
57C
330
1
100
AcDbSymbolTableRecord
100
AcDbBlockTableRecord
  2
*D21
340
0
  0
BLOCK_RECORD
  5
588
330
1
100
AcDbSymbolTableRecord
100
AcDbBlockTableRecord
  2
*D22
340
0
  0
BLOCK_RECORD
  5
594
330
1
100
AcDbSymbolTableRecord
100
AcDbBlockTableRecord
  2
*D23
340
0
  0
BLOCK_RECORD
  5
5A0
330
1
100
AcDbSymbolTableRecord
100
AcDbBlockTableRecord
  2
*D24
340
0
  0
BLOCK_RECORD
  5
5AC
330
1
100
AcDbSymbolTableRecord
100
AcDbBlockTableRecord
  2
*D25
340
0
  0
BLOCK_RECORD
  5
5B8
330
1
100
AcDbSymbolTableRecord
100
AcDbBlockTableRecord
  2
*D26
340
0
  0
BLOCK_RECORD
  5
5C6
330
1
100
AcDbSymbolTableRecord
100
AcDbBlockTableRecord
  2
*D27
340
0
  0
BLOCK_RECORD
  5
5D2
330
1
100
AcDbSymbolTableRecord
100
AcDbBlockTableRecord
  2
*D28
340
0
  0
BLOCK_RECORD
  5
704
330
1
100
AcDbSymbolTableRecord
100
AcDbBlockTableRecord
  2
*D30
340
0
  0
BLOCK_RECORD
  5
710
330
1
100
AcDbSymbolTableRecord
100
AcDbBlockTableRecord
  2
*D31
340
0
  0
BLOCK_RECORD
  5
725
330
1
100
AcDbSymbolTableRecord
100
AcDbBlockTableRecord
  2
*D32
340
0
  0
BLOCK_RECORD
  5
731
330
1
100
AcDbSymbolTableRecord
100
AcDbBlockTableRecord
  2
*D33
340
0
  0
BLOCK_RECORD
  5
73D
330
1
100
AcDbSymbolTableRecord
100
AcDbBlockTableRecord
  2
*D34
340
0
  0
BLOCK_RECORD
  5
749
330
1
100
AcDbSymbolTableRecord
100
AcDbBlockTableRecord
  2
*D35
340
0
  0
BLOCK_RECORD
  5
757
330
1
100
AcDbSymbolTableRecord
100
AcDbBlockTableRecord
  2
*D36
340
0
  0
BLOCK_RECORD
  5
763
330
1
100
AcDbSymbolTableRecord
100
AcDbBlockTableRecord
  2
*D37
340
0
  0
BLOCK_RECORD
  5
822
330
1
100
AcDbSymbolTableRecord
100
AcDbBlockTableRecord
  2
*D39
340
0
  0
BLOCK_RECORD
  5
82E
330
1
100
AcDbSymbolTableRecord
100
AcDbBlockTableRecord
  2
*D40
340
0
  0
BLOCK_RECORD
  5
83A
330
1
100
AcDbSymbolTableRecord
100
AcDbBlockTableRecord
  2
*D41
340
0
  0
BLOCK_RECORD
  5
846
330
1
100
AcDbSymbolTableRecord
100
AcDbBlockTableRecord
  2
*D42
340
0
  0
BLOCK_RECORD
  5
852
330
1
100
AcDbSymbolTableRecord
100
AcDbBlockTableRecord
  2
*D43
340
0
  0
BLOCK_RECORD
  5
85E
330
1
100
AcDbSymbolTableRecord
100
AcDbBlockTableRecord
  2
*D44
340
0
  0
BLOCK_RECORD
  5
86C
330
1
100
AcDbSymbolTableRecord
100
AcDbBlockTableRecord
  2
*D45
340
0
  0
BLOCK_RECORD
  5
878
330
1
100
AcDbSymbolTableRecord
100
AcDbBlockTableRecord
  2
*D46
340
0
  0
BLOCK_RECORD
  5
9E8
330
1
100
AcDbSymbolTableRecord
100
AcDbBlockTableRecord
  2
*D48
340
0
  0
BLOCK_RECORD
  5
9F6
330
1
100
AcDbSymbolTableRecord
100
AcDbBlockTableRecord
  2
*D49
340
0
  0
BLOCK_RECORD
  5
A02
330
1
100
AcDbSymbolTableRecord
100
AcDbBlockTableRecord
  2
*D50
340
0
  0
BLOCK_RECORD
  5
A0E
330
1
100
AcDbSymbolTableRecord
100
AcDbBlockTableRecord
  2
*D51
340
0
  0
BLOCK_RECORD
  5
A1A
330
1
100
AcDbSymbolTableRecord
100
AcDbBlockTableRecord
  2
*D52
340
0
  0
BLOCK_RECORD
  5
A26
330
1
100
AcDbSymbolTableRecord
100
AcDbBlockTableRecord
  2
*D53
340
0
  0
BLOCK_RECORD
  5
A32
330
1
100
AcDbSymbolTableRecord
100
AcDbBlockTableRecord
  2
*D54
340
0
  0
BLOCK_RECORD
  5
A3E
330
1
100
AcDbSymbolTableRecord
100
AcDbBlockTableRecord
  2
*D55
340
0
  0
ENDTAB
  0
ENDSEC
  0
SECTION
  2
BLOCKS
  0
BLOCK
  5
20
330
1F
100
AcDbEntity
  8
0
100
AcDbBlockBegin
  2
*Model_Space
 70
     0
 10
0.0
 20
0.0
 30
0.0
  3
*Model_Space
  1

  0
ENDBLK
  5
21
330
1F
100
AcDbEntity
  8
0
100
AcDbBlockEnd
  0
BLOCK
  5
D4
330
D2
100
AcDbEntity
 67
     1
  8
0
100
AcDbBlockBegin
  2
*Paper_Space
 70
     0
 10
0.0
 20
0.0
 30
0.0
  3
*Paper_Space
  1

  0
ENDBLK
  5
D5
330
D2
100
AcDbEntity
 67
     1
  8
0
100
AcDbBlockEnd
  0
BLOCK
  5
D8
330
D6
100
AcDbEntity
 67
     1
  8
0
100
AcDbBlockBegin
  2
*Paper_Space0
 70
     0
 10
0.0
 20
0.0
 30
0.0
  3
*Paper_Space0
  1

  0
ENDBLK
  5
D9
330
D6
100
AcDbEntity
 67
     1
  8
0
100
AcDbBlockEnd
  0
BLOCK
  5
278
330
276
100
AcDbEntity
  8
0
100
AcDbBlockBegin
  2
GENAXEH
 70
     0
 10
0.0
 20
0.0
 30
0.0
  3
GENAXEH
  1

  0
LINE
  5
277
330
276
100
AcDbEntity
  8
0
100
AcDbLine
 10
-1.0
 20
0.0
 30
0.0
 11
1.0
 21
0.0
 31
0.0
  0
ENDBLK
  5
279
330
276
100
AcDbEntity
  8
0
100
AcDbBlockEnd
  0
BLOCK
  5
2A2
330
2A1
100
AcDbEntity
  8
0
 48
0.3
370
    25
100
AcDbBlockBegin
  2
*D3
 70
     1
 10
0.0
 20
0.0
 30
0.0
  3
*D3
  1

  0
LINE
  5
2A3
330
2A1
100
AcDbEntity
  8
Bemassung
 62
     0
370
    -2
100
AcDbLine
 10
-45198.48314729057
 20
20130.57783626854
 30
0.0
 11
-45148.4472411131
 21
20130.57783626854
 31
0.0
  0
LINE
  5
2A4
330
2A1
100
AcDbEntity
  8
Bemassung
 62
     0
370
    -2
100
AcDbLine
 10
-45198.48314729057
 20
20327.57783626854
 30
0.0
 11
-45148.4472411131
 21
20327.57783626854
 31
0.0
  0
LINE
  5
2A5
330
2A1
100
AcDbEntity
  8
Bemassung
 62
     0
370
    -2
100
AcDbLine
 10
-45149.69724111311
 20
20133.07783626854
 30
0.0
 11
-45149.69724111311
 21
20325.07783626854
 31
0.0
  0
SOLID
  5
2A6
330
2A1
100
AcDbEntity
  8
Bemassung
 62
     0
370
    25
100
AcDbTrace
 10
-45150.11390777977
 20
20133.07783626854
 30
0.0
 11
-45149.28057444644
 21
20133.07783626854
 31
0.0
 12
-45149.69724111311
 22
20130.57783626854
 32
0.0
 13
-45149.69724111311
 23
20130.57783626854
 33
0.0
  0
SOLID
  5
2A7
330
2A1
100
AcDbEntity
  8
Bemassung
 62
     0
370
    25
100
AcDbTrace
 10
-45150.11390777977
 20
20325.07783626854
 30
0.0
 11
-45149.28057444644
 21
20325.07783626854
 31
0.0
 12
-45149.69724111311
 22
20327.57783626854
 32
0.0
 13
-45149.69724111311
 23
20327.57783626854
 33
0.0
  0
MTEXT
  5
2A8
330
2A1
100
AcDbEntity
  8
Bemassung
 62
     0
100
AcDbMText
 10
-45157.61371189888
 20
20229.07783626853
 30
0.0
 40
2.5
 41
0.0
 71
     5
 72
     1
  1
{\fVerdana|b0|i0|c0|p34;\H5.6x;200}
 11
0.0000000000000001
 21
1.0
 31
0.0
 73
     1
 44
1.0
1001
ACAD
1000
MTEXTBEGIN
1070
    73
1070
     1
1070
    44
1040
1.0
1070
    74
1070
     0
1000
MTEXTEND
  0
POINT
  5
2A9
330
2A1
100
AcDbEntity
  8
Defpoints
 62
     0
370
    25
100
AcDbPoint
 10
-45199.10814729056
 20
20130.57783626854
 30
0.0
  0
POINT
  5
2AA
330
2A1
100
AcDbEntity
  8
Defpoints
 62
     0
370
    25
100
AcDbPoint
 10
-45199.10814729056
 20
20327.57783626854
 30
0.0
  0
POINT
  5
2AB
330
2A1
100
AcDbEntity
  8
Defpoints
 62
     0
370
    25
100
AcDbPoint
 10
-45149.69724111311
 20
20327.57783626854
 30
0.0
  0
ENDBLK
  5
2AC
330
2A1
100
AcDbEntity
  8
0
 48
0.3
370
    25
100
AcDbBlockEnd
  0
BLOCK
  5
2AE
330
2AD
100
AcDbEntity
  8
0
 48
0.3
370
    25
100
AcDbBlockBegin
  2
*D4
 70
     1
 10
0.0
 20
0.0
 30
0.0
  3
*D4
  1

  0
LINE
  5
2AF
330
2AD
100
AcDbEntity
  8
Bemassung
 62
     0
370
    -2
100
AcDbLine
 10
-45185.48314729057
 20
20327.57783626854
 30
0.0
 11
-45148.4694651958
 21
20327.57783626854
 31
0.0
  0
LINE
  5
2B0
330
2AD
100
AcDbEntity
  8
Bemassung
 62
     0
370
    -2
100
AcDbLine
 10
-45198.48314729057
 20
20797.57783626853
 30
0.0
 11
-45148.4694651958
 21
20797.57783626853
 31
0.0
  0
LINE
  5
2B1
330
2AD
100
AcDbEntity
  8
Bemassung
 62
     0
370
    -2
100
AcDbLine
 10
-45149.7194651958
 20
20330.07783626854
 30
0.0
 11
-45149.7194651958
 21
20795.07783626853
 31
0.0
  0
SOLID
  5
2B2
330
2AD
100
AcDbEntity
  8
Bemassung
 62
     0
370
    25
100
AcDbTrace
 10
-45150.13613186246
 20
20330.07783626854
 30
0.0
 11
-45149.30279852913
 21
20330.07783626854
 31
0.0
 12
-45149.7194651958
 22
20327.57783626854
 32
0.0
 13
-45149.7194651958
 23
20327.57783626854
 33
0.0
  0
SOLID
  5
2B3
330
2AD
100
AcDbEntity
  8
Bemassung
 62
     0
370
    25
100
AcDbTrace
 10
-45150.13613186246
 20
20795.07783626853
 30
0.0
 11
-45149.30279852913
 21
20795.07783626853
 31
0.0
 12
-45149.7194651958
 22
20797.57783626853
 32
0.0
 13
-45149.7194651958
 23
20797.57783626853
 33
0.0
  0
MTEXT
  5
2B4
330
2AD
100
AcDbEntity
  8
Bemassung
 62
     0
100
AcDbMText
 10
-45157.63123483986
 20
20562.57783626853
 30
0.0
 40
2.5
 41
0.0
 71
     5
 72
     1
  1
{\fVerdana|b0|i0|c0|p34;\H5.6x;470}
 11
0.0000000000000001
 21
1.0
 31
0.0
 73
     1
 44
1.0
1001
ACAD
1000
MTEXTBEGIN
1070
    73
1070
     1
1070
    44
1040
1.0
1070
    74
1070
     0
1000
MTEXTEND
  0
POINT
  5
2B5
330
2AD
100
AcDbEntity
  8
Defpoints
 62
     0
370
    25
100
AcDbPoint
 10
-45186.10814729057
 20
20327.57783626854
 30
0.0
  0
POINT
  5
2B6
330
2AD
100
AcDbEntity
  8
Defpoints
 62
     0
370
    25
100
AcDbPoint
 10
-45199.10814729056
 20
20797.57783626853
 30
0.0
  0
POINT
  5
2B7
330
2AD
100
AcDbEntity
  8
Defpoints
 62
     0
370
    25
100
AcDbPoint
 10
-45149.7194651958
 20
20797.57783626853
 30
0.0
  0
ENDBLK
  5
2B8
330
2AD
100
AcDbEntity
  8
0
 48
0.3
370
    25
100
AcDbBlockEnd
  0
BLOCK
  5
2BA
330
2B9
100
AcDbEntity
  8
0
 48
0.3
370
    25
100
AcDbBlockBegin
  2
*D5
 70
     1
 10
0.0
 20
0.0
 30
0.0
  3
*D5
  1

  0
LINE
  5
2BB
330
2B9
100
AcDbEntity
  8
Bemassung
 62
     0
370
    -2
100
AcDbLine
 10
-44893.97338316067
 20
20129.95283626854
 30
0.0
 11
-44893.97338316067
 21
20104.4823893469
 31
0.0
  0
LINE
  5
2BC
330
2B9
100
AcDbEntity
  8
Bemassung
 62
     0
370
    -2
100
AcDbLine
 10
-44793.97338316066
 20
20129.95283626854
 30
0.0
 11
-44793.97338316066
 21
20104.4823893469
 31
0.0
  0
LINE
  5
2BD
330
2B9
100
AcDbEntity
  8
Bemassung
 62
     0
370
    -2
100
AcDbLine
 10
-44891.47338316066
 20
20105.73238934689
 30
0.0
 11
-44796.47338316066
 21
20105.73238934689
 31
0.0
  0
SOLID
  5
2BE
330
2B9
100
AcDbEntity
  8
Bemassung
 62
     0
370
    25
100
AcDbTrace
 10
-44891.47338316066
 20
20106.14905601356
 30
0.0
 11
-44891.47338316066
 21
20105.31572268023
 31
0.0
 12
-44893.97338316067
 22
20105.73238934689
 32
0.0
 13
-44893.97338316067
 23
20105.73238934689
 33
0.0
  0
SOLID
  5
2BF
330
2B9
100
AcDbEntity
  8
Bemassung
 62
     0
370
    25
100
AcDbTrace
 10
-44796.47338316066
 20
20106.14905601356
 30
0.0
 11
-44796.47338316066
 21
20105.31572268023
 31
0.0
 12
-44793.97338316066
 22
20105.73238934689
 32
0.0
 13
-44793.97338316066
 23
20105.73238934689
 33
0.0
  0
MTEXT
  5
2C0
330
2B9
100
AcDbEntity
  8
Bemassung
 62
     0
100
AcDbMText
 10
-44843.97338316066
 20
20113.64415899095
 30
0.0
 40
2.5
 41
0.0
 71
     5
 72
     1
  1
{\fVerdana|b0|i0|c0|p34;\H5.6x;100}
 73
     1
 44
1.0
1001
ACAD
1000
MTEXTBEGIN
1070
    73
1070
     1
1070
    44
1040
1.0
1070
    74
1070
     0
1000
MTEXTEND
  0
POINT
  5
2C1
330
2B9
100
AcDbEntity
  8
Defpoints
 62
     0
370
    25
100
AcDbPoint
 10
-44893.97338316067
 20
20130.57783626853
 30
0.0
  0
POINT
  5
2C2
330
2B9
100
AcDbEntity
  8
Defpoints
 62
     0
370
    25
100
AcDbPoint
 10
-44793.97338316066
 20
20130.57783626853
 30
0.0
  0
POINT
  5
2C3
330
2B9
100
AcDbEntity
  8
Defpoints
 62
     0
370
    25
100
AcDbPoint
 10
-44793.97338316066
 20
20105.73238934689
 30
0.0
  0
ENDBLK
  5
2C4
330
2B9
100
AcDbEntity
  8
0
 48
0.3
370
    25
100
AcDbBlockEnd
  0
BLOCK
  5
2C6
330
2C5
100
AcDbEntity
  8
0
 48
0.3
370
    25
100
AcDbBlockBegin
  2
*D6
 70
     1
 10
0.0
 20
0.0
 30
0.0
  3
*D6
  1

  0
LINE
  5
2C7
330
2C5
100
AcDbEntity
  8
Bemassung
 62
     0
370
    -2
100
AcDbLine
 10
-45198.48314729057
 20
21177.57783626853
 30
0.0
 11
-45150.0463578667
 21
21177.57783626853
 31
0.0
  0
LINE
  5
2C8
330
2C5
100
AcDbEntity
  8
Bemassung
 62
     0
370
    -2
100
AcDbLine
 10
-45198.48314729057
 20
20797.57783626853
 30
0.0
 11
-45150.0463578667
 21
20797.57783626853
 31
0.0
  0
LINE
  5
2C9
330
2C5
100
AcDbEntity
  8
Bemassung
 62
     0
370
    -2
100
AcDbLine
 10
-45151.2963578667
 20
21175.07783626853
 30
0.0
 11
-45151.2963578667
 21
20800.07783626853
 31
0.0
  0
SOLID
  5
2CA
330
2C5
100
AcDbEntity
  8
Bemassung
 62
     0
370
    25
100
AcDbTrace
 10
-45151.71302453336
 20
21175.07783626853
 30
0.0
 11
-45150.87969120004
 21
21175.07783626853
 31
0.0
 12
-45151.2963578667
 22
21177.57783626853
 32
0.0
 13
-45151.2963578667
 23
21177.57783626853
 33
0.0
  0
SOLID
  5
2CB
330
2C5
100
AcDbEntity
  8
Bemassung
 62
     0
370
    25
100
AcDbTrace
 10
-45151.71302453336
 20
20800.07783626853
 30
0.0
 11
-45150.87969120004
 21
20800.07783626853
 31
0.0
 12
-45151.2963578667
 22
20797.57783626853
 32
0.0
 13
-45151.2963578667
 23
20797.57783626853
 33
0.0
  0
MTEXT
  5
2CC
330
2C5
100
AcDbEntity
  8
Bemassung
 62
     0
100
AcDbMText
 10
-45159.24103550271
 20
20987.57783626854
 30
0.0
 40
2.5
 41
0.0
 71
     5
 72
     1
  1
{\fVerdana|b0|i0|c0|p34;\H5.6x;380}
 11
0.0000000000000001
 21
1.0
 31
0.0
 73
     1
 44
1.0
1001
ACAD
1000
MTEXTBEGIN
1070
    73
1070
     1
1070
    44
1040
1.0
1070
    74
1070
     0
1000
MTEXTEND
  0
POINT
  5
2CD
330
2C5
100
AcDbEntity
  8
Defpoints
 62
     0
370
    25
100
AcDbPoint
 10
-45199.10814729056
 20
21177.57783626853
 30
0.0
  0
POINT
  5
2CE
330
2C5
100
AcDbEntity
  8
Defpoints
 62
     0
370
    25
100
AcDbPoint
 10
-45199.10814729056
 20
20797.57783626853
 30
0.0
  0
POINT
  5
2CF
330
2C5
100
AcDbEntity
  8
Defpoints
 62
     0
370
    25
100
AcDbPoint
 10
-45151.2963578667
 20
20797.57783626853
 30
0.0
  0
ENDBLK
  5
2D0
330
2C5
100
AcDbEntity
  8
0
 48
0.3
370
    25
100
AcDbBlockEnd
  0
BLOCK
  5
2D2
330
2D1
100
AcDbEntity
  8
0
 48
0.3
370
    25
100
AcDbBlockBegin
  2
*D7
 70
     1
 10
0.0
 20
0.0
 30
0.0
  3
*D7
  1

  0
LINE
  5
2D3
330
2D1
100
AcDbEntity
  8
Bemassung
 62
     0
370
    -2
100
AcDbLine
 10
-44793.97338316066
 20
20129.95283626854
 30
0.0
 11
-44793.97338316066
 21
20087.309136336
 31
0.0
  0
LINE
  5
2D4
330
2D1
100
AcDbEntity
  8
Bemassung
 62
     0
370
    -2
100
AcDbLine
 10
-44789.97338316066
 20
20129.95283626854
 30
0.0
 11
-44789.97338316066
 21
20087.309136336
 31
0.0
  0
LINE
  5
2D5
330
2D1
100
AcDbEntity
  8
Bemassung
 62
     0
370
    -2
100
AcDbLine
 10
-44796.47338316066
 20
20088.559136336
 30
0.0
 11
-44798.97338316066
 21
20088.559136336
 31
0.0
  0
LINE
  5
2D6
330
2D1
100
AcDbEntity
  8
Bemassung
 62
     0
370
    -2
100
AcDbLine
 10
-44787.47338316066
 20
20088.559136336
 30
0.0
 11
-44773.1364120391
 21
20088.559136336
 31
0.0
  0
LINE
  5
2D7
330
2D1
100
AcDbEntity
  8
Bemassung
 62
     0
370
    -2
100
AcDbLine
 10
-44793.97338316066
 20
20088.559136336
 30
0.0
 11
-44789.97338316066
 21
20088.559136336
 31
0.0
  0
SOLID
  5
2D8
330
2D1
100
AcDbEntity
  8
Bemassung
 62
     0
370
    25
100
AcDbTrace
 10
-44796.47338316066
 20
20088.97580300267
 30
0.0
 11
-44796.47338316066
 21
20088.14246966933
 31
0.0
 12
-44793.97338316066
 22
20088.559136336
 32
0.0
 13
-44793.97338316066
 23
20088.559136336
 33
0.0
  0
SOLID
  5
2D9
330
2D1
100
AcDbEntity
  8
Bemassung
 62
     0
370
    25
100
AcDbTrace
 10
-44787.47338316066
 20
20088.97580300267
 30
0.0
 11
-44787.47338316066
 21
20088.14246966933
 31
0.0
 12
-44789.97338316066
 22
20088.559136336
 32
0.0
 13
-44789.97338316066
 23
20088.559136336
 33
0.0
  0
MTEXT
  5
2DA
330
2D1
100
AcDbEntity
  8
Bemassung
 62
     0
100
AcDbMText
 10
-44779.05489759988
 20
20096.184136336
 30
0.0
 40
2.5
 41
0.0
 71
     5
 72
     1
  1
{\fVerdana|b0|i0|c0|p34;\H5.6x;4}
 73
     1
 44
1.0
1001
ACAD
1000
MTEXTBEGIN
1070
    73
1070
     1
1070
    44
1040
1.0
1070
    74
1070
     0
1000
MTEXTEND
  0
POINT
  5
2DB
330
2D1
100
AcDbEntity
  8
Defpoints
 62
     0
370
    25
100
AcDbPoint
 10
-44793.97338316066
 20
20130.57783626853
 30
0.0
  0
POINT
  5
2DC
330
2D1
100
AcDbEntity
  8
Defpoints
 62
     0
370
    25
100
AcDbPoint
 10
-44789.97338316066
 20
20130.57783626853
 30
0.0
  0
POINT
  5
2DD
330
2D1
100
AcDbEntity
  8
Defpoints
 62
     0
370
    25
100
AcDbPoint
 10
-44789.97338316066
 20
20088.559136336
 30
0.0
  0
ENDBLK
  5
2DE
330
2D1
100
AcDbEntity
  8
0
 48
0.3
370
    25
100
AcDbBlockEnd
  0
BLOCK
  5
2E0
330
2DF
100
AcDbEntity
  8
0
 48
0.3
370
    25
100
AcDbBlockBegin
  2
*D8
 70
     1
 10
0.0
 20
0.0
 30
0.0
  3
*D8
  1

  0
LINE
  5
2E1
330
2DF
100
AcDbEntity
  8
Bemassung
 62
     0
370
    -2
100
AcDbLine
 10
-45384.10814729057
 20
20129.95283626854
 30
0.0
 11
-45384.10814729057
 21
20090.711521996
 31
0.0
  0
LINE
  5
2E2
330
2DF
100
AcDbEntity
  8
Bemassung
 62
     0
370
    -2
100
AcDbLine
 10
-45199.10814729056
 20
20129.95283626854
 30
0.0
 11
-45199.10814729056
 21
20090.711521996
 31
0.0
  0
LINE
  5
2E3
330
2DF
100
AcDbEntity
  8
Bemassung
 62
     0
370
    -2
100
AcDbLine
 10
-45381.60814729057
 20
20091.961521996
 30
0.0
 11
-45201.60814729057
 21
20091.961521996
 31
0.0
  0
SOLID
  5
2E4
330
2DF
100
AcDbEntity
  8
Bemassung
 62
     0
370
    25
100
AcDbTrace
 10
-45381.60814729057
 20
20092.37818866266
 30
0.0
 11
-45381.60814729057
 21
20091.54485532933
 31
0.0
 12
-45384.10814729057
 22
20091.961521996
 32
0.0
 13
-45384.10814729057
 23
20091.961521996
 33
0.0
  0
SOLID
  5
2E5
330
2DF
100
AcDbEntity
  8
Bemassung
 62
     0
370
    25
100
AcDbTrace
 10
-45201.60814729057
 20
20092.37818866266
 30
0.0
 11
-45201.60814729057
 21
20091.54485532933
 31
0.0
 12
-45199.10814729056
 22
20091.961521996
 32
0.0
 13
-45199.10814729056
 23
20091.961521996
 33
0.0
  0
MTEXT
  5
2E6
330
2DF
100
AcDbEntity
  8
Bemassung
 62
     0
100
AcDbMText
 10
-45291.60814729057
 20
20099.906199632
 30
0.0
 40
2.5
 41
0.0
 71
     5
 72
     1
  1
{\fVerdana|b0|i0|c0|p34;\H5.6x;185}
 73
     1
 44
1.0
1001
ACAD
1000
MTEXTBEGIN
1070
    73
1070
     1
1070
    44
1040
1.0
1070
    74
1070
     0
1000
MTEXTEND
  0
POINT
  5
2E7
330
2DF
100
AcDbEntity
  8
Defpoints
 62
     0
370
    25
100
AcDbPoint
 10
-45384.10814729057
 20
20130.57783626854
 30
0.0
  0
POINT
  5
2E8
330
2DF
100
AcDbEntity
  8
Defpoints
 62
     0
370
    25
100
AcDbPoint
 10
-45199.10814729056
 20
20130.57783626854
 30
0.0
  0
POINT
  5
2E9
330
2DF
100
AcDbEntity
  8
Defpoints
 62
     0
370
    25
100
AcDbPoint
 10
-45199.10814729056
 20
20091.961521996
 30
0.0
  0
ENDBLK
  5
2EA
330
2DF
100
AcDbEntity
  8
0
 48
0.3
370
    25
100
AcDbBlockEnd
  0
BLOCK
  5
2EC
330
2EB
100
AcDbEntity
  8
0
 48
0.3
370
    25
100
AcDbBlockBegin
  2
*D9
 70
     1
 10
0.0
 20
0.0
 30
0.0
  3
*D9
  1

  0
LINE
  5
2ED
330
2EB
100
AcDbEntity
  8
Bemassung
 62
     0
370
    -2
100
AcDbLine
 10
-46329.10814729057
 20
20129.95283626854
 30
0.0
 11
-46329.10814729057
 21
20092.6660601958
 31
0.0
  0
LINE
  5
2EE
330
2EB
100
AcDbEntity
  8
Bemassung
 62
     0
370
    -2
100
AcDbLine
 10
-46144.10814729057
 20
20129.95283626854
 30
0.0
 11
-46144.10814729057
 21
20092.6660601958
 31
0.0
  0
LINE
  5
2EF
330
2EB
100
AcDbEntity
  8
Bemassung
 62
     0
370
    -2
100
AcDbLine
 10
-46326.60814729057
 20
20093.9160601958
 30
0.0
 11
-46146.60814729057
 21
20093.9160601958
 31
0.0
  0
SOLID
  5
2F0
330
2EB
100
AcDbEntity
  8
Bemassung
 62
     0
370
    25
100
AcDbTrace
 10
-46326.60814729057
 20
20094.33272686246
 30
0.0
 11
-46326.60814729057
 21
20093.49939352913
 31
0.0
 12
-46329.10814729057
 22
20093.9160601958
 32
0.0
 13
-46329.10814729057
 23
20093.9160601958
 33
0.0
  0
SOLID
  5
2F1
330
2EB
100
AcDbEntity
  8
Bemassung
 62
     0
370
    25
100
AcDbTrace
 10
-46146.60814729057
 20
20094.33272686246
 30
0.0
 11
-46146.60814729057
 21
20093.49939352913
 31
0.0
 12
-46144.10814729057
 22
20093.9160601958
 32
0.0
 13
-46144.10814729057
 23
20093.9160601958
 33
0.0
  0
MTEXT
  5
2F2
330
2EB
100
AcDbEntity
  8
Bemassung
 62
     0
100
AcDbMText
 10
-46236.60814729057
 20
20101.8607378318
 30
0.0
 40
2.5
 41
0.0
 71
     5
 72
     1
  1
{\fVerdana|b0|i0|c0|p34;\H5.6x;185}
 73
     1
 44
1.0
1001
ACAD
1000
MTEXTBEGIN
1070
    73
1070
     1
1070
    44
1040
1.0
1070
    74
1070
     0
1000
MTEXTEND
  0
POINT
  5
2F3
330
2EB
100
AcDbEntity
  8
Defpoints
 62
     0
370
    25
100
AcDbPoint
 10
-46329.10814729057
 20
20130.57783626854
 30
0.0
  0
POINT
  5
2F4
330
2EB
100
AcDbEntity
  8
Defpoints
 62
     0
370
    25
100
AcDbPoint
 10
-46144.10814729057
 20
20130.57783626854
 30
0.0
  0
POINT
  5
2F5
330
2EB
100
AcDbEntity
  8
Defpoints
 62
     0
370
    25
100
AcDbPoint
 10
-46144.10814729057
 20
20093.9160601958
 30
0.0
  0
ENDBLK
  5
2F6
330
2EB
100
AcDbEntity
  8
0
 48
0.3
370
    25
100
AcDbBlockEnd
  0
BLOCK
  5
2F8
330
2F7
100
AcDbEntity
  8
0
 48
0.3
370
    25
100
AcDbBlockBegin
  2
*D10
 70
     1
 10
0.0
 20
0.0
 30
0.0
  3
*D10
  1

  0
LINE
  5
2F9
330
2F7
100
AcDbEntity
  8
Bemassung
 62
     0
370
    -2
100
AcDbLine
 10
-46144.10814729057
 20
20326.95283626853
 30
0.0
 11
-46144.10814729057
 21
20260.05307078574
 31
0.0
  0
LINE
  5
2FA
330
2F7
100
AcDbEntity
  8
Bemassung
 62
     0
370
    -2
100
AcDbLine
 10
-45384.10814729057
 20
20326.95283626853
 30
0.0
 11
-45384.10814729057
 21
20260.05307078574
 31
0.0
  0
LINE
  5
2FB
330
2F7
100
AcDbEntity
  8
Bemassung
 62
     0
370
    -2
100
AcDbLine
 10
-46141.60814729057
 20
20261.30307078574
 30
0.0
 11
-45386.60814729057
 21
20261.30307078574
 31
0.0
  0
SOLID
  5
2FC
330
2F7
100
AcDbEntity
  8
Bemassung
 62
     0
370
    25
100
AcDbTrace
 10
-46141.60814729057
 20
20261.71973745241
 30
0.0
 11
-46141.60814729057
 21
20260.88640411907
 31
0.0
 12
-46144.10814729057
 22
20261.30307078574
 32
0.0
 13
-46144.10814729057
 23
20261.30307078574
 33
0.0
  0
SOLID
  5
2FD
330
2F7
100
AcDbEntity
  8
Bemassung
 62
     0
370
    25
100
AcDbTrace
 10
-45386.60814729057
 20
20261.71973745241
 30
0.0
 11
-45386.60814729057
 21
20260.88640411907
 31
0.0
 12
-45384.10814729057
 22
20261.30307078574
 32
0.0
 13
-45384.10814729057
 23
20261.30307078574
 33
0.0
  0
MTEXT
  5
2FE
330
2F7
100
AcDbEntity
  8
Bemassung
 62
     0
100
AcDbMText
 10
-45764.10814729057
 20
20269.21484042979
 30
0.0
 40
2.5
 41
0.0
 71
     5
 72
     1
  1
{\fVerdana|b0|i0|c0|p34;\H5.6x;760}
 73
     1
 44
1.0
1001
ACAD
1000
MTEXTBEGIN
1070
    73
1070
     1
1070
    44
1040
1.0
1070
    74
1070
     0
1000
MTEXTEND
  0
POINT
  5
2FF
330
2F7
100
AcDbEntity
  8
Defpoints
 62
     0
370
    25
100
AcDbPoint
 10
-46144.10814729057
 20
20327.57783626853
 30
0.0
  0
POINT
  5
300
330
2F7
100
AcDbEntity
  8
Defpoints
 62
     0
370
    25
100
AcDbPoint
 10
-45384.10814729057
 20
20327.57783626853
 30
0.0
  0
POINT
  5
301
330
2F7
100
AcDbEntity
  8
Defpoints
 62
     0
370
    25
100
AcDbPoint
 10
-45384.10814729057
 20
20261.30307078574
 30
0.0
  0
ENDBLK
  5
302
330
2F7
100
AcDbEntity
  8
0
 48
0.3
370
    25
100
AcDbBlockEnd
  0
BLOCK
  5
456
330
455
100
AcDbEntity
  8
0
100
AcDbBlockBegin
  2
*D12
 70
     1
 10
0.0
 20
0.0
 30
0.0
  3
*D12
  1

  0
LINE
  5
4B7
330
455
100
AcDbEntity
  8
Bemassung
 62
     0
370
    -2
100
AcDbLine
 10
4473.904113291719
 20
1990.295124962275
 30
0.0
 11
4510.917795386492
 21
1990.295124962275
 31
0.0
  0
LINE
  5
4B8
330
455
100
AcDbEntity
  8
Bemassung
 62
     0
370
    -2
100
AcDbLine
 10
4460.904113291719
 20
2460.295124962267
 30
0.0
 11
4510.917795386492
 21
2460.295124962267
 31
0.0
  0
LINE
  5
4B9
330
455
100
AcDbEntity
  8
Bemassung
 62
     0
370
    -2
100
AcDbLine
 10
4509.667795386492
 20
1992.795124962275
 30
0.0
 11
4509.667795386492
 21
2457.795124962268
 31
0.0
  0
SOLID
  5
4BA
330
455
100
AcDbEntity
  8
Bemassung
 62
     0
100
AcDbTrace
 10
4509.251128719824
 20
1992.795124962275
 30
0.0
 11
4510.084462053159
 21
1992.795124962275
 31
0.0
 12
4509.667795386492
 22
1990.295124962275
 32
0.0
 13
4509.667795386492
 23
1990.295124962275
 33
0.0
  0
SOLID
  5
4BB
330
455
100
AcDbEntity
  8
Bemassung
 62
     0
100
AcDbTrace
 10
4509.251128719825
 20
2457.795124962268
 30
0.0
 11
4510.08446205316
 21
2457.795124962268
 31
0.0
 12
4509.667795386492
 22
2460.295124962267
 32
0.0
 13
4509.667795386492
 23
2460.295124962267
 33
0.0
  0
MTEXT
  5
4BC
330
455
100
AcDbEntity
  8
Bemassung
 62
     0
100
AcDbMText
 10
4501.756025742436
 20
2225.295124962272
 30
0.0
 40
2.5
 41
0.0
 71
     5
 72
     1
  1
{\fVerdana|b0|i0|c0|p34;\H5.6x;470}
 11
0.0000000000000001
 21
1.0
 31
0.0
 73
     1
 44
1.0
1001
ACAD
1000
MTEXTBEGIN
1070
    73
1070
     1
1070
    44
1040
1.0
1070
    74
1070
     0
1000
MTEXTEND
  0
POINT
  5
4BD
330
455
100
AcDbEntity
  8
Defpoints
 62
     0
100
AcDbPoint
 10
4473.279113291719
 20
1990.295124962275
 30
0.0
  0
POINT
  5
4BE
330
455
100
AcDbEntity
  8
Defpoints
 62
     0
100
AcDbPoint
 10
4460.279113291718
 20
2460.295124962267
 30
0.0
  0
POINT
  5
4BF
330
455
100
AcDbEntity
  8
Defpoints
 62
     0
100
AcDbPoint
 10
4509.667795386492
 20
2460.295124962267
 30
0.0
  0
ENDBLK
  5
457
330
455
100
AcDbEntity
  8
0
100
AcDbBlockEnd
  0
BLOCK
  5
462
330
461
100
AcDbEntity
  8
0
100
AcDbBlockBegin
  2
*D13
 70
     1
 10
0.0
 20
0.0
 30
0.0
  3
*D13
  1

  0
LINE
  5
4C0
330
461
100
AcDbEntity
  8
Bemassung
 62
     0
370
    -2
100
AcDbLine
 10
3515.27911329172
 20
1989.670124962271
 30
0.0
 11
3515.27911329172
 21
1922.770359479473
 31
0.0
  0
LINE
  5
4C1
330
461
100
AcDbEntity
  8
Bemassung
 62
     0
370
    -2
100
AcDbLine
 10
4275.279113291719
 20
1989.670124962271
 30
0.0
 11
4275.279113291719
 21
1922.770359479473
 31
0.0
  0
LINE
  5
4C2
330
461
100
AcDbEntity
  8
Bemassung
 62
     0
370
    -2
100
AcDbLine
 10
3517.779113291719
 20
1924.020359479473
 30
0.0
 11
4272.779113291718
 21
1924.020359479473
 31
0.0
  0
SOLID
  5
4C3
330
461
100
AcDbEntity
  8
Bemassung
 62
     0
100
AcDbTrace
 10
3517.779113291719
 20
1924.43702614614
 30
0.0
 11
3517.779113291719
 21
1923.603692812806
 31
0.0
 12
3515.27911329172
 22
1924.020359479473
 32
0.0
 13
3515.27911329172
 23
1924.020359479473
 33
0.0
  0
SOLID
  5
4C4
330
461
100
AcDbEntity
  8
Bemassung
 62
     0
100
AcDbTrace
 10
4272.779113291718
 20
1924.43702614614
 30
0.0
 11
4272.779113291718
 21
1923.603692812806
 31
0.0
 12
4275.279113291719
 22
1924.020359479473
 32
0.0
 13
4275.279113291719
 23
1924.020359479473
 33
0.0
  0
MTEXT
  5
4C5
330
461
100
AcDbEntity
  8
Bemassung
 62
     0
100
AcDbMText
 10
3895.279113291719
 20
1931.932129123529
 30
0.0
 40
2.5
 41
0.0
 71
     5
 72
     1
  1
{\fVerdana|b0|i0|c0|p34;\H5.6x;760}
 73
     1
 44
1.0
1001
ACAD
1000
MTEXTBEGIN
1070
    73
1070
     1
1070
    44
1040
1.0
1070
    74
1070
     0
1000
MTEXTEND
  0
POINT
  5
4C6
330
461
100
AcDbEntity
  8
Defpoints
 62
     0
100
AcDbPoint
 10
3515.27911329172
 20
1990.295124962271
 30
0.0
  0
POINT
  5
4C7
330
461
100
AcDbEntity
  8
Defpoints
 62
     0
100
AcDbPoint
 10
4275.279113291719
 20
1990.295124962271
 30
0.0
  0
POINT
  5
4C8
330
461
100
AcDbEntity
  8
Defpoints
 62
     0
100
AcDbPoint
 10
4275.279113291719
 20
1924.020359479473
 30
0.0
  0
ENDBLK
  5
463
330
461
100
AcDbEntity
  8
0
100
AcDbBlockEnd
  0
BLOCK
  5
46E
330
46D
100
AcDbEntity
  8
0
100
AcDbBlockBegin
  2
*D14
 70
     1
 10
0.0
 20
0.0
 30
0.0
  3
*D14
  1

  0
LINE
  5
470
330
46D
100
AcDbEntity
  8
Bemassung
 62
     0
370
    -2
100
AcDbLine
 10
4765.413877421626
 20
1792.670124962271
 30
0.0
 11
4765.413877421626
 21
1767.19967804063
 31
0.0
  0
LINE
  5
471
330
46D
100
AcDbEntity
  8
Bemassung
 62
     0
370
    -2
100
AcDbLine
 10
4865.413877421627
 20
1792.670124962271
 30
0.0
 11
4865.413877421627
 21
1767.19967804063
 31
0.0
  0
LINE
  5
472
330
46D
100
AcDbEntity
  8
Bemassung
 62
     0
370
    -2
100
AcDbLine
 10
4767.913877421626
 20
1768.44967804063
 30
0.0
 11
4862.913877421626
 21
1768.44967804063
 31
0.0
  0
SOLID
  5
473
330
46D
100
AcDbEntity
  8
Bemassung
 62
     0
100
AcDbTrace
 10
4767.913877421626
 20
1768.866344707296
 30
0.0
 11
4767.913877421626
 21
1768.033011373963
 31
0.0
 12
4765.413877421626
 22
1768.44967804063
 32
0.0
 13
4765.413877421626
 23
1768.44967804063
 33
0.0
  0
SOLID
  5
474
330
46D
100
AcDbEntity
  8
Bemassung
 62
     0
100
AcDbTrace
 10
4862.913877421626
 20
1768.866344707296
 30
0.0
 11
4862.913877421626
 21
1768.033011373963
 31
0.0
 12
4865.413877421627
 22
1768.44967804063
 32
0.0
 13
4865.413877421627
 23
1768.44967804063
 33
0.0
  0
MTEXT
  5
475
330
46D
100
AcDbEntity
  8
Bemassung
 62
     0
100
AcDbMText
 10
4815.413877421626
 20
1776.361447684686
 30
0.0
 40
2.5
 41
0.0
 71
     5
 72
     1
  1
{\fVerdana|b0|i0|c0|p34;\H5.6x;100}
 73
     1
 44
1.0
1001
ACAD
1000
MTEXTBEGIN
1070
    73
1070
     1
1070
    44
1040
1.0
1070
    74
1070
     0
1000
MTEXTEND
  0
POINT
  5
476
330
46D
100
AcDbEntity
  8
Defpoints
 62
     0
100
AcDbPoint
 10
4765.413877421626
 20
1793.295124962271
 30
0.0
  0
POINT
  5
477
330
46D
100
AcDbEntity
  8
Defpoints
 62
     0
100
AcDbPoint
 10
4865.413877421627
 20
1793.295124962271
 30
0.0
  0
POINT
  5
478
330
46D
100
AcDbEntity
  8
Defpoints
 62
     0
100
AcDbPoint
 10
4865.413877421627
 20
1768.44967804063
 30
0.0
  0
ENDBLK
  5
46F
330
46D
100
AcDbEntity
  8
0
100
AcDbBlockEnd
  0
BLOCK
  5
47A
330
479
100
AcDbEntity
  8
0
100
AcDbBlockBegin
  2
*D15
 70
     1
 10
0.0
 20
0.0
 30
0.0
  3
*D15
  1

  0
LINE
  5
47C
330
479
100
AcDbEntity
  8
Bemassung
 62
     0
370
    -2
100
AcDbLine
 10
4460.904113291719
 20
2840.295124962267
 30
0.0
 11
4509.340902715581
 21
2840.295124962267
 31
0.0
  0
LINE
  5
47D
330
479
100
AcDbEntity
  8
Bemassung
 62
     0
370
    -2
100
AcDbLine
 10
4460.904113291719
 20
2460.295124962267
 30
0.0
 11
4509.340902715581
 21
2460.295124962267
 31
0.0
  0
LINE
  5
47E
330
479
100
AcDbEntity
  8
Bemassung
 62
     0
370
    -2
100
AcDbLine
 10
4508.09090271558
 20
2837.795124962268
 30
0.0
 11
4508.09090271558
 21
2462.795124962268
 31
0.0
  0
SOLID
  5
47F
330
479
100
AcDbEntity
  8
Bemassung
 62
     0
100
AcDbTrace
 10
4507.674236048913
 20
2837.795124962268
 30
0.0
 11
4508.507569382247
 21
2837.795124962268
 31
0.0
 12
4508.09090271558
 22
2840.295124962267
 32
0.0
 13
4508.09090271558
 23
2840.295124962267
 33
0.0
  0
SOLID
  5
480
330
479
100
AcDbEntity
  8
Bemassung
 62
     0
100
AcDbTrace
 10
4507.674236048913
 20
2462.795124962268
 30
0.0
 11
4508.507569382247
 21
2462.795124962268
 31
0.0
 12
4508.09090271558
 22
2460.295124962267
 32
0.0
 13
4508.09090271558
 23
2460.295124962267
 33
0.0
  0
MTEXT
  5
481
330
479
100
AcDbEntity
  8
Bemassung
 62
     0
100
AcDbMText
 10
4500.146225079582
 20
2650.295124962279
 30
0.0
 40
2.5
 41
0.0
 71
     5
 72
     1
  1
{\fVerdana|b0|i0|c0|p34;\H5.6x;380}
 11
0.0000000000000001
 21
1.0
 31
0.0
 73
     1
 44
1.0
1001
ACAD
1000
MTEXTBEGIN
1070
    73
1070
     1
1070
    44
1040
1.0
1070
    74
1070
     0
1000
MTEXTEND
  0
POINT
  5
482
330
479
100
AcDbEntity
  8
Defpoints
 62
     0
100
AcDbPoint
 10
4460.279113291718
 20
2840.295124962267
 30
0.0
  0
POINT
  5
483
330
479
100
AcDbEntity
  8
Defpoints
 62
     0
100
AcDbPoint
 10
4460.279113291718
 20
2460.295124962267
 30
0.0
  0
POINT
  5
484
330
479
100
AcDbEntity
  8
Defpoints
 62
     0
100
AcDbPoint
 10
4508.09090271558
 20
2460.295124962267
 30
0.0
  0
ENDBLK
  5
47B
330
479
100
AcDbEntity
  8
0
100
AcDbBlockEnd
  0
BLOCK
  5
486
330
485
100
AcDbEntity
  8
0
100
AcDbBlockBegin
  2
*D16
 70
     1
 10
0.0
 20
0.0
 30
0.0
  3
*D16
  1

  0
LINE
  5
488
330
485
100
AcDbEntity
  8
Bemassung
 62
     0
370
    -2
100
AcDbLine
 10
4865.413877421627
 20
1792.670124962271
 30
0.0
 11
4865.413877421627
 21
1750.026425029733
 31
0.0
  0
LINE
  5
489
330
485
100
AcDbEntity
  8
Bemassung
 62
     0
370
    -2
100
AcDbLine
 10
4869.413877421626
 20
1792.670124962271
 30
0.0
 11
4869.413877421626
 21
1750.026425029733
 31
0.0
  0
LINE
  5
48A
330
485
100
AcDbEntity
  8
Bemassung
 62
     0
370
    -2
100
AcDbLine
 10
4862.913877421626
 20
1751.276425029733
 30
0.0
 11
4860.413877421627
 21
1751.276425029733
 31
0.0
  0
LINE
  5
48B
330
485
100
AcDbEntity
  8
Bemassung
 62
     0
370
    -2
100
AcDbLine
 10
4871.913877421626
 20
1751.276425029733
 30
0.0
 11
4886.250848543184
 21
1751.276425029733
 31
0.0
  0
LINE
  5
48C
330
485
100
AcDbEntity
  8
Bemassung
 62
     0
370
    -2
100
AcDbLine
 10
4865.413877421627
 20
1751.276425029733
 30
0.0
 11
4869.413877421626
 21
1751.276425029733
 31
0.0
  0
SOLID
  5
48D
330
485
100
AcDbEntity
  8
Bemassung
 62
     0
100
AcDbTrace
 10
4862.913877421626
 20
1751.6930916964
 30
0.0
 11
4862.913877421626
 21
1750.859758363066
 31
0.0
 12
4865.413877421627
 22
1751.276425029733
 32
0.0
 13
4865.413877421627
 23
1751.276425029733
 33
0.0
  0
SOLID
  5
48E
330
485
100
AcDbEntity
  8
Bemassung
 62
     0
100
AcDbTrace
 10
4871.913877421626
 20
1751.6930916964
 30
0.0
 11
4871.913877421626
 21
1750.859758363066
 31
0.0
 12
4869.413877421626
 22
1751.276425029733
 32
0.0
 13
4869.413877421626
 23
1751.276425029733
 33
0.0
  0
MTEXT
  5
48F
330
485
100
AcDbEntity
  8
Bemassung
 62
     0
100
AcDbMText
 10
4880.332362982406
 20
1758.901425029733
 30
0.0
 40
2.5
 41
0.0
 71
     5
 72
     1
  1
{\fVerdana|b0|i0|c0|p34;\H5.6x;4}
 73
     1
 44
1.0
1001
ACAD
1000
MTEXTBEGIN
1070
    73
1070
     1
1070
    44
1040
1.0
1070
    74
1070
     0
1000
MTEXTEND
  0
POINT
  5
490
330
485
100
AcDbEntity
  8
Defpoints
 62
     0
100
AcDbPoint
 10
4865.413877421627
 20
1793.295124962271
 30
0.0
  0
POINT
  5
491
330
485
100
AcDbEntity
  8
Defpoints
 62
     0
100
AcDbPoint
 10
4869.413877421626
 20
1793.295124962271
 30
0.0
  0
POINT
  5
492
330
485
100
AcDbEntity
  8
Defpoints
 62
     0
100
AcDbPoint
 10
4869.413877421626
 20
1751.276425029733
 30
0.0
  0
ENDBLK
  5
487
330
485
100
AcDbEntity
  8
0
100
AcDbBlockEnd
  0
BLOCK
  5
494
330
493
100
AcDbEntity
  8
0
100
AcDbBlockBegin
  2
*D17
 70
     1
 10
0.0
 20
0.0
 30
0.0
  3
*D17
  1

  0
LINE
  5
496
330
493
100
AcDbEntity
  8
Bemassung
 62
     0
370
    -2
100
AcDbLine
 10
4275.279113291719
 20
1792.670124962275
 30
0.0
 11
4275.279113291719
 21
1753.428810689733
 31
0.0
  0
LINE
  5
497
330
493
100
AcDbEntity
  8
Bemassung
 62
     0
370
    -2
100
AcDbLine
 10
4460.279113291718
 20
1792.670124962275
 30
0.0
 11
4460.279113291718
 21
1753.428810689733
 31
0.0
  0
LINE
  5
498
330
493
100
AcDbEntity
  8
Bemassung
 62
     0
370
    -2
100
AcDbLine
 10
4277.779113291719
 20
1754.678810689733
 30
0.0
 11
4457.779113291719
 21
1754.678810689733
 31
0.0
  0
SOLID
  5
499
330
493
100
AcDbEntity
  8
Bemassung
 62
     0
100
AcDbTrace
 10
4277.779113291719
 20
1755.0954773564
 30
0.0
 11
4277.779113291719
 21
1754.262144023066
 31
0.0
 12
4275.279113291719
 22
1754.678810689733
 32
0.0
 13
4275.279113291719
 23
1754.678810689733
 33
0.0
  0
SOLID
  5
49A
330
493
100
AcDbEntity
  8
Bemassung
 62
     0
100
AcDbTrace
 10
4457.779113291719
 20
1755.0954773564
 30
0.0
 11
4457.779113291719
 21
1754.262144023066
 31
0.0
 12
4460.279113291718
 22
1754.678810689733
 32
0.0
 13
4460.279113291718
 23
1754.678810689733
 33
0.0
  0
MTEXT
  5
49B
330
493
100
AcDbEntity
  8
Bemassung
 62
     0
100
AcDbMText
 10
4367.779113291719
 20
1762.62348832573
 30
0.0
 40
2.5
 41
0.0
 71
     5
 72
     1
  1
{\fVerdana|b0|i0|c0|p34;\H5.6x;185}
 73
     1
 44
1.0
1001
ACAD
1000
MTEXTBEGIN
1070
    73
1070
     1
1070
    44
1040
1.0
1070
    74
1070
     0
1000
MTEXTEND
  0
POINT
  5
49C
330
493
100
AcDbEntity
  8
Defpoints
 62
     0
100
AcDbPoint
 10
4275.279113291719
 20
1793.295124962275
 30
0.0
  0
POINT
  5
49D
330
493
100
AcDbEntity
  8
Defpoints
 62
     0
100
AcDbPoint
 10
4460.279113291718
 20
1793.295124962275
 30
0.0
  0
POINT
  5
49E
330
493
100
AcDbEntity
  8
Defpoints
 62
     0
100
AcDbPoint
 10
4460.279113291718
 20
1754.678810689733
 30
0.0
  0
ENDBLK
  5
495
330
493
100
AcDbEntity
  8
0
100
AcDbBlockEnd
  0
BLOCK
  5
4A0
330
49F
100
AcDbEntity
  8
0
100
AcDbBlockBegin
  2
*D18
 70
     1
 10
0.0
 20
0.0
 30
0.0
  3
*D18
  1

  0
LINE
  5
4A2
330
49F
100
AcDbEntity
  8
Bemassung
 62
     0
370
    -2
100
AcDbLine
 10
3330.279113291719
 20
1792.670124962275
 30
0.0
 11
3330.279113291719
 21
1755.383348889532
 31
0.0
  0
LINE
  5
4A3
330
49F
100
AcDbEntity
  8
Bemassung
 62
     0
370
    -2
100
AcDbLine
 10
3515.27911329172
 20
1792.670124962275
 30
0.0
 11
3515.27911329172
 21
1755.383348889532
 31
0.0
  0
LINE
  5
4A4
330
49F
100
AcDbEntity
  8
Bemassung
 62
     0
370
    -2
100
AcDbLine
 10
3332.779113291719
 20
1756.633348889532
 30
0.0
 11
3512.779113291719
 21
1756.633348889532
 31
0.0
  0
SOLID
  5
4A5
330
49F
100
AcDbEntity
  8
Bemassung
 62
     0
100
AcDbTrace
 10
3332.779113291719
 20
1757.050015556199
 30
0.0
 11
3332.779113291719
 21
1756.216682222866
 31
0.0
 12
3330.279113291719
 22
1756.633348889532
 32
0.0
 13
3330.279113291719
 23
1756.633348889532
 33
0.0
  0
SOLID
  5
4A6
330
49F
100
AcDbEntity
  8
Bemassung
 62
     0
100
AcDbTrace
 10
3512.779113291719
 20
1757.050015556199
 30
0.0
 11
3512.779113291719
 21
1756.216682222866
 31
0.0
 12
3515.27911329172
 22
1756.633348889532
 32
0.0
 13
3515.27911329172
 23
1756.633348889532
 33
0.0
  0
MTEXT
  5
4A7
330
49F
100
AcDbEntity
  8
Bemassung
 62
     0
100
AcDbMText
 10
3422.779113291719
 20
1764.578026525529
 30
0.0
 40
2.5
 41
0.0
 71
     5
 72
     1
  1
{\fVerdana|b0|i0|c0|p34;\H5.6x;185}
 73
     1
 44
1.0
1001
ACAD
1000
MTEXTBEGIN
1070
    73
1070
     1
1070
    44
1040
1.0
1070
    74
1070
     0
1000
MTEXTEND
  0
POINT
  5
4A8
330
49F
100
AcDbEntity
  8
Defpoints
 62
     0
100
AcDbPoint
 10
3330.279113291719
 20
1793.295124962275
 30
0.0
  0
POINT
  5
4A9
330
49F
100
AcDbEntity
  8
Defpoints
 62
     0
100
AcDbPoint
 10
3515.27911329172
 20
1793.295124962275
 30
0.0
  0
POINT
  5
4AA
330
49F
100
AcDbEntity
  8
Defpoints
 62
     0
100
AcDbPoint
 10
3515.27911329172
 20
1756.633348889532
 30
0.0
  0
ENDBLK
  5
4A1
330
49F
100
AcDbEntity
  8
0
100
AcDbBlockEnd
  0
BLOCK
  5
4AC
330
4AB
100
AcDbEntity
  8
0
100
AcDbBlockBegin
  2
*D19
 70
     1
 10
0.0
 20
0.0
 30
0.0
  3
*D19
  1

  0
LINE
  5
4AE
330
4AB
100
AcDbEntity
  8
Bemassung
 62
     0
370
    -2
100
AcDbLine
 10
4460.904113291719
 20
1793.295124962275
 30
0.0
 11
4510.940019469184
 21
1793.295124962275
 31
0.0
  0
LINE
  5
4AF
330
4AB
100
AcDbEntity
  8
Bemassung
 62
     0
370
    -2
100
AcDbLine
 10
4460.904113291719
 20
1990.295124962275
 30
0.0
 11
4510.940019469184
 21
1990.295124962275
 31
0.0
  0
LINE
  5
4B0
330
4AB
100
AcDbEntity
  8
Bemassung
 62
     0
370
    -2
100
AcDbLine
 10
4509.690019469184
 20
1795.795124962275
 30
0.0
 11
4509.690019469184
 21
1987.795124962275
 31
0.0
  0
SOLID
  5
4B1
330
4AB
100
AcDbEntity
  8
Bemassung
 62
     0
100
AcDbTrace
 10
4509.273352802517
 20
1795.795124962275
 30
0.0
 11
4510.106686135851
 21
1795.795124962275
 31
0.0
 12
4509.690019469184
 22
1793.295124962275
 32
0.0
 13
4509.690019469184
 23
1793.295124962275
 33
0.0
  0
SOLID
  5
4B2
330
4AB
100
AcDbEntity
  8
Bemassung
 62
     0
100
AcDbTrace
 10
4509.273352802517
 20
1987.795124962275
 30
0.0
 11
4510.106686135851
 21
1987.795124962275
 31
0.0
 12
4509.690019469184
 22
1990.295124962275
 32
0.0
 13
4509.690019469184
 23
1990.295124962275
 33
0.0
  0
MTEXT
  5
4B3
330
4AB
100
AcDbEntity
  8
Bemassung
 62
     0
100
AcDbMText
 10
4501.773548683422
 20
1891.795124962275
 30
0.0
 40
2.5
 41
0.0
 71
     5
 72
     1
  1
{\fVerdana|b0|i0|c0|p34;\H5.6x;200}
 11
0.0000000000000001
 21
1.0
 31
0.0
 73
     1
 44
1.0
1001
ACAD
1000
MTEXTBEGIN
1070
    73
1070
     1
1070
    44
1040
1.0
1070
    74
1070
     0
1000
MTEXTEND
  0
POINT
  5
4B4
330
4AB
100
AcDbEntity
  8
Defpoints
 62
     0
100
AcDbPoint
 10
4460.279113291718
 20
1793.295124962275
 30
0.0
  0
POINT
  5
4B5
330
4AB
100
AcDbEntity
  8
Defpoints
 62
     0
100
AcDbPoint
 10
4460.279113291718
 20
1990.295124962275
 30
0.0
  0
POINT
  5
4B6
330
4AB
100
AcDbEntity
  8
Defpoints
 62
     0
100
AcDbPoint
 10
4509.690019469184
 20
1990.295124962275
 30
0.0
  0
ENDBLK
  5
4AD
330
4AB
100
AcDbEntity
  8
0
100
AcDbBlockEnd
  0
BLOCK
  5
57D
330
57C
100
AcDbEntity
  8
0
 48
0.3
370
    25
100
AcDbBlockBegin
  2
*D21
 70
     1
 10
0.0
 20
0.0
 30
0.0
  3
*D21
  1

  0
LINE
  5
57E
330
57C
100
AcDbEntity
  8
Bemassung
 62
     0
370
    -2
100
AcDbLine
 10
-41870.16368413382
 20
20080.71770662152
 30
0.0
 11
-41820.12777795635
 21
20080.71770662152
 31
0.0
  0
LINE
  5
57F
330
57C
100
AcDbEntity
  8
Bemassung
 62
     0
370
    -2
100
AcDbLine
 10
-41870.16368413382
 20
20277.71770662152
 30
0.0
 11
-41820.12777795635
 21
20277.71770662152
 31
0.0
  0
LINE
  5
580
330
57C
100
AcDbEntity
  8
Bemassung
 62
     0
370
    -2
100
AcDbLine
 10
-41821.37777795635
 20
20083.21770662152
 30
0.0
 11
-41821.37777795635
 21
20275.21770662152
 31
0.0
  0
SOLID
  5
581
330
57C
100
AcDbEntity
  8
Bemassung
 62
     0
370
    25
100
AcDbTrace
 10
-41821.79444462302
 20
20083.21770662152
 30
0.0
 11
-41820.96111128968
 21
20083.21770662152
 31
0.0
 12
-41821.37777795635
 22
20080.71770662152
 32
0.0
 13
-41821.37777795635
 23
20080.71770662152
 33
0.0
  0
SOLID
  5
582
330
57C
100
AcDbEntity
  8
Bemassung
 62
     0
370
    25
100
AcDbTrace
 10
-41821.79444462302
 20
20275.21770662152
 30
0.0
 11
-41820.96111128968
 21
20275.21770662152
 31
0.0
 12
-41821.37777795635
 22
20277.71770662152
 32
0.0
 13
-41821.37777795635
 23
20277.71770662152
 33
0.0
  0
MTEXT
  5
583
330
57C
100
AcDbEntity
  8
Bemassung
 62
     0
100
AcDbMText
 10
-41829.29424874212
 20
20179.21770662151
 30
0.0
 40
2.5
 41
0.0
 71
     5
 72
     1
  1
{\fVerdana|b0|i0|c0|p34;\H5.6x;200}
 11
0.0000000000000001
 21
1.0
 31
0.0
 73
     1
 44
1.0
1001
ACAD
1000
MTEXTBEGIN
1070
    73
1070
     1
1070
    44
1040
1.0
1070
    74
1070
     0
1000
MTEXTEND
  0
POINT
  5
584
330
57C
100
AcDbEntity
  8
Defpoints
 62
     0
370
    25
100
AcDbPoint
 10
-41870.78868413381
 20
20080.71770662152
 30
0.0
  0
POINT
  5
585
330
57C
100
AcDbEntity
  8
Defpoints
 62
     0
370
    25
100
AcDbPoint
 10
-41870.78868413381
 20
20277.71770662152
 30
0.0
  0
POINT
  5
586
330
57C
100
AcDbEntity
  8
Defpoints
 62
     0
370
    25
100
AcDbPoint
 10
-41821.37777795635
 20
20277.71770662152
 30
0.0
  0
ENDBLK
  5
587
330
57C
100
AcDbEntity
  8
0
 48
0.3
370
    25
100
AcDbBlockEnd
  0
BLOCK
  5
589
330
588
100
AcDbEntity
  8
0
 48
0.3
370
    25
100
AcDbBlockBegin
  2
*D22
 70
     1
 10
0.0
 20
0.0
 30
0.0
  3
*D22
  1

  0
LINE
  5
58A
330
588
100
AcDbEntity
  8
Bemassung
 62
     0
370
    -2
100
AcDbLine
 10
-41857.16368413381
 20
20277.71770662152
 30
0.0
 11
-41820.20808946806
 21
20277.71770662152
 31
0.0
  0
LINE
  5
58B
330
588
100
AcDbEntity
  8
Bemassung
 62
     0
370
    -2
100
AcDbLine
 10
-41870.16368413382
 20
20847.71770662152
 30
0.0
 11
-41820.20808946806
 21
20847.71770662152
 31
0.0
  0
LINE
  5
58C
330
588
100
AcDbEntity
  8
Bemassung
 62
     0
370
    -2
100
AcDbLine
 10
-41821.45808946805
 20
20280.21770662152
 30
0.0
 11
-41821.45808946805
 21
20845.21770662152
 31
0.0
  0
SOLID
  5
58D
330
588
100
AcDbEntity
  8
Bemassung
 62
     0
370
    25
100
AcDbTrace
 10
-41821.87475613472
 20
20280.21770662152
 30
0.0
 11
-41821.04142280139
 21
20280.21770662152
 31
0.0
 12
-41821.45808946805
 22
20277.71770662152
 32
0.0
 13
-41821.45808946805
 23
20277.71770662152
 33
0.0
  0
SOLID
  5
58E
330
588
100
AcDbEntity
  8
Bemassung
 62
     0
370
    25
100
AcDbTrace
 10
-41821.87475613472
 20
20845.21770662152
 30
0.0
 11
-41821.04142280139
 21
20845.21770662152
 31
0.0
 12
-41821.45808946805
 22
20847.71770662152
 32
0.0
 13
-41821.45808946805
 23
20847.71770662152
 33
0.0
  0
MTEXT
  5
58F
330
588
100
AcDbEntity
  8
Bemassung
 62
     0
100
AcDbMText
 10
-41829.36985911211
 20
20562.71770662151
 30
0.0
 40
2.5
 41
0.0
 71
     5
 72
     1
  1
{\fVerdana|b0|i0|c0|p34;\H5.6x;570}
 11
0.0000000000000001
 21
1.0
 31
0.0
 73
     1
 44
1.0
1001
ACAD
1000
MTEXTBEGIN
1070
    73
1070
     1
1070
    44
1040
1.0
1070
    74
1070
     0
1000
MTEXTEND
  0
POINT
  5
590
330
588
100
AcDbEntity
  8
Defpoints
 62
     0
370
    25
100
AcDbPoint
 10
-41857.78868413382
 20
20277.71770662152
 30
0.0
  0
POINT
  5
591
330
588
100
AcDbEntity
  8
Defpoints
 62
     0
370
    25
100
AcDbPoint
 10
-41870.78868413381
 20
20847.71770662152
 30
0.0
  0
POINT
  5
592
330
588
100
AcDbEntity
  8
Defpoints
 62
     0
370
    25
100
AcDbPoint
 10
-41821.45808946805
 20
20847.71770662152
 30
0.0
  0
ENDBLK
  5
593
330
588
100
AcDbEntity
  8
0
 48
0.3
370
    25
100
AcDbBlockEnd
  0
BLOCK
  5
595
330
594
100
AcDbEntity
  8
0
 48
0.3
370
    25
100
AcDbBlockBegin
  2
*D23
 70
     1
 10
0.0
 20
0.0
 30
0.0
  3
*D23
  1

  0
LINE
  5
596
330
594
100
AcDbEntity
  8
Bemassung
 62
     0
370
    -2
100
AcDbLine
 10
-41870.16368413382
 20
20847.71770662152
 30
0.0
 11
-41820.17223603025
 21
20847.71770662152
 31
0.0
  0
LINE
  5
597
330
594
100
AcDbEntity
  8
Bemassung
 62
     0
370
    -2
100
AcDbLine
 10
-41870.16368413382
 20
21145.71770662152
 30
0.0
 11
-41820.17223603025
 21
21145.71770662152
 31
0.0
  0
LINE
  5
598
330
594
100
AcDbEntity
  8
Bemassung
 62
     0
370
    -2
100
AcDbLine
 10
-41821.42223603025
 20
20850.21770662152
 30
0.0
 11
-41821.42223603025
 21
21143.21770662152
 31
0.0
  0
SOLID
  5
599
330
594
100
AcDbEntity
  8
Bemassung
 62
     0
370
    25
100
AcDbTrace
 10
-41821.83890269691
 20
20850.21770662152
 30
0.0
 11
-41821.00556936359
 21
20850.21770662152
 31
0.0
 12
-41821.42223603025
 22
20847.71770662152
 32
0.0
 13
-41821.42223603025
 23
20847.71770662152
 33
0.0
  0
SOLID
  5
59A
330
594
100
AcDbEntity
  8
Bemassung
 62
     0
370
    25
100
AcDbTrace
 10
-41821.83890269691
 20
21143.21770662152
 30
0.0
 11
-41821.00556936359
 21
21143.21770662152
 31
0.0
 12
-41821.42223603025
 22
21145.71770662152
 32
0.0
 13
-41821.42223603025
 23
21145.71770662152
 33
0.0
  0
MTEXT
  5
59B
330
594
100
AcDbEntity
  8
Bemassung
 62
     0
100
AcDbMText
 10
-41829.33870681602
 20
20996.71770662151
 30
0.0
 40
2.5
 41
0.0
 71
     5
 72
     1
  1
{\fVerdana|b0|i0|c0|p34;\H5.6x;300}
 11
0.0000000000000001
 21
1.0
 31
0.0
 73
     1
 44
1.0
1001
ACAD
1000
MTEXTBEGIN
1070
    73
1070
     1
1070
    44
1040
1.0
1070
    74
1070
     0
1000
MTEXTEND
  0
POINT
  5
59C
330
594
100
AcDbEntity
  8
Defpoints
 62
     0
370
    25
100
AcDbPoint
 10
-41870.78868413381
 20
20847.71770662152
 30
0.0
  0
POINT
  5
59D
330
594
100
AcDbEntity
  8
Defpoints
 62
     0
370
    25
100
AcDbPoint
 10
-41870.78868413381
 20
21145.71770662152
 30
0.0
  0
POINT
  5
59E
330
594
100
AcDbEntity
  8
Defpoints
 62
     0
370
    25
100
AcDbPoint
 10
-41821.42223603025
 20
21145.71770662152
 30
0.0
  0
ENDBLK
  5
59F
330
594
100
AcDbEntity
  8
0
 48
0.3
370
    25
100
AcDbBlockEnd
  0
BLOCK
  5
5A1
330
5A0
100
AcDbEntity
  8
0
 48
0.3
370
    25
100
AcDbBlockBegin
  2
*D24
 70
     1
 10
0.0
 20
0.0
 30
0.0
  3
*D24
  1

  0
LINE
  5
5A2
330
5A0
100
AcDbEntity
  8
Bemassung
 62
     0
370
    -2
100
AcDbLine
 10
-42815.78868413381
 20
20277.09270662152
 30
0.0
 11
-42815.78868413381
 21
20210.19294113872
 31
0.0
  0
LINE
  5
5A3
330
5A0
100
AcDbEntity
  8
Bemassung
 62
     0
370
    -2
100
AcDbLine
 10
-42055.78868413382
 20
20277.09270662152
 30
0.0
 11
-42055.78868413382
 21
20210.19294113872
 31
0.0
  0
LINE
  5
5A4
330
5A0
100
AcDbEntity
  8
Bemassung
 62
     0
370
    -2
100
AcDbLine
 10
-42813.28868413382
 20
20211.44294113872
 30
0.0
 11
-42058.28868413382
 21
20211.44294113872
 31
0.0
  0
SOLID
  5
5A5
330
5A0
100
AcDbEntity
  8
Bemassung
 62
     0
370
    25
100
AcDbTrace
 10
-42813.28868413382
 20
20211.85960780539
 30
0.0
 11
-42813.28868413382
 21
20211.02627447205
 31
0.0
 12
-42815.78868413381
 22
20211.44294113872
 32
0.0
 13
-42815.78868413381
 23
20211.44294113872
 33
0.0
  0
SOLID
  5
5A6
330
5A0
100
AcDbEntity
  8
Bemassung
 62
     0
370
    25
100
AcDbTrace
 10
-42058.28868413382
 20
20211.85960780539
 30
0.0
 11
-42058.28868413382
 21
20211.02627447205
 31
0.0
 12
-42055.78868413382
 22
20211.44294113872
 32
0.0
 13
-42055.78868413382
 23
20211.44294113872
 33
0.0
  0
MTEXT
  5
5A7
330
5A0
100
AcDbEntity
  8
Bemassung
 62
     0
100
AcDbMText
 10
-42435.78868413382
 20
20219.35471078278
 30
0.0
 40
2.5
 41
0.0
 71
     5
 72
     1
  1
{\fVerdana|b0|i0|c0|p34;\H5.6x;760}
 73
     1
 44
1.0
1001
ACAD
1000
MTEXTBEGIN
1070
    73
1070
     1
1070
    44
1040
1.0
1070
    74
1070
     0
1000
MTEXTEND
  0
POINT
  5
5A8
330
5A0
100
AcDbEntity
  8
Defpoints
 62
     0
370
    25
100
AcDbPoint
 10
-42815.78868413381
 20
20277.71770662152
 30
0.0
  0
POINT
  5
5A9
330
5A0
100
AcDbEntity
  8
Defpoints
 62
     0
370
    25
100
AcDbPoint
 10
-42055.78868413382
 20
20277.71770662152
 30
0.0
  0
POINT
  5
5AA
330
5A0
100
AcDbEntity
  8
Defpoints
 62
     0
370
    25
100
AcDbPoint
 10
-42055.78868413382
 20
20211.44294113872
 30
0.0
  0
ENDBLK
  5
5AB
330
5A0
100
AcDbEntity
  8
0
 48
0.3
370
    25
100
AcDbBlockEnd
  0
BLOCK
  5
5AD
330
5AC
100
AcDbEntity
  8
0
 48
0.3
370
    25
100
AcDbBlockBegin
  2
*D25
 70
     1
 10
0.0
 20
0.0
 30
0.0
  3
*D25
  1

  0
LINE
  5
5AE
330
5AC
100
AcDbEntity
  8
Bemassung
 62
     0
370
    -2
100
AcDbLine
 10
-41565.65392000391
 20
20080.09270662152
 30
0.0
 11
-41565.65392000391
 21
20057.02383772278
 31
0.0
  0
LINE
  5
5AF
330
5AC
100
AcDbEntity
  8
Bemassung
 62
     0
370
    -2
100
AcDbLine
 10
-41465.65392000391
 20
20080.09270662152
 30
0.0
 11
-41465.65392000391
 21
20057.02383772278
 31
0.0
  0
LINE
  5
5B0
330
5AC
100
AcDbEntity
  8
Bemassung
 62
     0
370
    -2
100
AcDbLine
 10
-41563.15392000391
 20
20058.27383772278
 30
0.0
 11
-41468.15392000391
 21
20058.27383772278
 31
0.0
  0
SOLID
  5
5B1
330
5AC
100
AcDbEntity
  8
Bemassung
 62
     0
370
    25
100
AcDbTrace
 10
-41563.15392000391
 20
20058.69050438945
 30
0.0
 11
-41563.15392000391
 21
20057.85717105611
 31
0.0
 12
-41565.65392000391
 22
20058.27383772278
 32
0.0
 13
-41565.65392000391
 23
20058.27383772278
 33
0.0
  0
SOLID
  5
5B2
330
5AC
100
AcDbEntity
  8
Bemassung
 62
     0
370
    25
100
AcDbTrace
 10
-41468.15392000391
 20
20058.69050438945
 30
0.0
 11
-41468.15392000391
 21
20057.85717105611
 31
0.0
 12
-41465.65392000391
 22
20058.27383772278
 32
0.0
 13
-41465.65392000391
 23
20058.27383772278
 33
0.0
  0
MTEXT
  5
5B3
330
5AC
100
AcDbEntity
  8
Bemassung
 62
     0
100
AcDbMText
 10
-41515.6539200039
 20
20066.18560736684
 30
0.0
 40
2.5
 41
0.0
 71
     5
 72
     1
  1
{\fVerdana|b0|i0|c0|p34;\H5.6x;100}
 73
     1
 44
1.0
1001
ACAD
1000
MTEXTBEGIN
1070
    73
1070
     1
1070
    44
1040
1.0
1070
    74
1070
     0
1000
MTEXTEND
  0
POINT
  5
5B4
330
5AC
100
AcDbEntity
  8
Defpoints
 62
     0
370
    25
100
AcDbPoint
 10
-41565.65392000391
 20
20080.71770662152
 30
0.0
  0
POINT
  5
5B5
330
5AC
100
AcDbEntity
  8
Defpoints
 62
     0
370
    25
100
AcDbPoint
 10
-41465.65392000391
 20
20080.71770662152
 30
0.0
  0
POINT
  5
5B6
330
5AC
100
AcDbEntity
  8
Defpoints
 62
     0
370
    25
100
AcDbPoint
 10
-41465.65392000391
 20
20058.27383772278
 30
0.0
  0
ENDBLK
  5
5B7
330
5AC
100
AcDbEntity
  8
0
 48
0.3
370
    25
100
AcDbBlockEnd
  0
BLOCK
  5
5B9
330
5B8
100
AcDbEntity
  8
0
 48
0.3
370
    25
100
AcDbBlockBegin
  2
*D26
 70
     1
 10
0.0
 20
0.0
 30
0.0
  3
*D26
  1

  0
LINE
  5
5BA
330
5B8
100
AcDbEntity
  8
Bemassung
 62
     0
370
    -2
100
AcDbLine
 10
-41465.65392000391
 20
20080.09270662152
 30
0.0
 11
-41465.65392000391
 21
20036.51578012114
 31
0.0
  0
LINE
  5
5BB
330
5B8
100
AcDbEntity
  8
Bemassung
 62
     0
370
    -2
100
AcDbLine
 10
-41461.65392000391
 20
20080.09270662152
 30
0.0
 11
-41461.65392000391
 21
20036.51578012114
 31
0.0
  0
LINE
  5
5BC
330
5B8
100
AcDbEntity
  8
Bemassung
 62
     0
370
    -2
100
AcDbLine
 10
-41468.15392000391
 20
20037.76578012114
 30
0.0
 11
-41470.65392000391
 21
20037.76578012114
 31
0.0
  0
LINE
  5
5BD
330
5B8
100
AcDbEntity
  8
Bemassung
 62
     0
370
    -2
100
AcDbLine
 10
-41459.15392000391
 20
20037.76578012114
 30
0.0
 11
-41431.58031776004
 21
20037.76578012114
 31
0.0
  0
LINE
  5
5BE
330
5B8
100
AcDbEntity
  8
Bemassung
 62
     0
370
    -2
100
AcDbLine
 10
-41465.65392000391
 20
20037.76578012114
 30
0.0
 11
-41461.65392000391
 21
20037.76578012114
 31
0.0
  0
SOLID
  5
5BF
330
5B8
100
AcDbEntity
  8
Bemassung
 62
     0
370
    25
100
AcDbTrace
 10
-41468.15392000391
 20
20038.18244678781
 30
0.0
 11
-41468.15392000391
 21
20037.34911345447
 31
0.0
 12
-41465.65392000391
 22
20037.76578012114
 32
0.0
 13
-41465.65392000391
 23
20037.76578012114
 33
0.0
  0
SOLID
  5
5C0
330
5B8
100
AcDbEntity
  8
Bemassung
 62
     0
370
    25
100
AcDbTrace
 10
-41459.15392000391
 20
20038.18244678781
 30
0.0
 11
-41459.15392000391
 21
20037.34911345447
 31
0.0
 12
-41461.65392000391
 22
20037.76578012114
 32
0.0
 13
-41461.65392000391
 23
20037.76578012114
 33
0.0
  0
MTEXT
  5
5C1
330
5B8
100
AcDbEntity
  8
Bemassung
 62
     0
100
AcDbMText
 10
-41437.49880332082
 20
20045.39078012114
 30
0.0
 40
2.5
 41
0.0
 71
     5
 72
     1
  1
{\fVerdana|b0|i0|c0|p34;\H5.6x;4}
 73
     1
 44
1.0
1001
ACAD
1000
MTEXTBEGIN
1070
    73
1070
     1
1070
    44
1040
1.0
1070
    74
1070
     0
1000
MTEXTEND
  0
POINT
  5
5C2
330
5B8
100
AcDbEntity
  8
Defpoints
 62
     0
370
    25
100
AcDbPoint
 10
-41465.65392000391
 20
20080.71770662152
 30
0.0
  0
POINT
  5
5C3
330
5B8
100
AcDbEntity
  8
Defpoints
 62
     0
370
    25
100
AcDbPoint
 10
-41461.65392000391
 20
20080.71770662152
 30
0.0
  0
POINT
  5
5C4
330
5B8
100
AcDbEntity
  8
Defpoints
 62
     0
370
    25
100
AcDbPoint
 10
-41461.65392000391
 20
20037.76578012114
 30
0.0
  0
ENDBLK
  5
5C5
330
5B8
100
AcDbEntity
  8
0
 48
0.3
370
    25
100
AcDbBlockEnd
  0
BLOCK
  5
5C7
330
5C6
100
AcDbEntity
  8
0
 48
0.3
370
    25
100
AcDbBlockBegin
  2
*D27
 70
     1
 10
0.0
 20
0.0
 30
0.0
  3
*D27
  1

  0
LINE
  5
5C8
330
5C6
100
AcDbEntity
  8
Bemassung
 62
     0
370
    -2
100
AcDbLine
 10
-42055.78868413382
 20
20080.09270662152
 30
0.0
 11
-42055.78868413382
 21
20035.61310446284
 31
0.0
  0
LINE
  5
5C9
330
5C6
100
AcDbEntity
  8
Bemassung
 62
     0
370
    -2
100
AcDbLine
 10
-41870.78868413381
 20
20080.09270662152
 30
0.0
 11
-41870.78868413381
 21
20035.61310446284
 31
0.0
  0
LINE
  5
5CA
330
5C6
100
AcDbEntity
  8
Bemassung
 62
     0
370
    -2
100
AcDbLine
 10
-42053.28868413381
 20
20036.86310446284
 30
0.0
 11
-41873.28868413382
 21
20036.86310446284
 31
0.0
  0
SOLID
  5
5CB
330
5C6
100
AcDbEntity
  8
Bemassung
 62
     0
370
    25
100
AcDbTrace
 10
-42053.28868413381
 20
20037.27977112951
 30
0.0
 11
-42053.28868413381
 21
20036.44643779617
 31
0.0
 12
-42055.78868413382
 22
20036.86310446284
 32
0.0
 13
-42055.78868413382
 23
20036.86310446284
 33
0.0
  0
SOLID
  5
5CC
330
5C6
100
AcDbEntity
  8
Bemassung
 62
     0
370
    25
100
AcDbTrace
 10
-41873.28868413382
 20
20037.27977112951
 30
0.0
 11
-41873.28868413382
 21
20036.44643779617
 31
0.0
 12
-41870.78868413381
 22
20036.86310446284
 32
0.0
 13
-41870.78868413381
 23
20036.86310446284
 33
0.0
  0
MTEXT
  5
5CD
330
5C6
100
AcDbEntity
  8
Bemassung
 62
     0
100
AcDbMText
 10
-41963.28868413382
 20
20044.80778209884
 30
0.0
 40
2.5
 41
0.0
 71
     5
 72
     1
  1
{\fVerdana|b0|i0|c0|p34;\H5.6x;185}
 73
     1
 44
1.0
1001
ACAD
1000
MTEXTBEGIN
1070
    73
1070
     1
1070
    44
1040
1.0
1070
    74
1070
     0
1000
MTEXTEND
  0
POINT
  5
5CE
330
5C6
100
AcDbEntity
  8
Defpoints
 62
     0
370
    25
100
AcDbPoint
 10
-42055.78868413382
 20
20080.71770662152
 30
0.0
  0
POINT
  5
5CF
330
5C6
100
AcDbEntity
  8
Defpoints
 62
     0
370
    25
100
AcDbPoint
 10
-41870.78868413381
 20
20080.71770662152
 30
0.0
  0
POINT
  5
5D0
330
5C6
100
AcDbEntity
  8
Defpoints
 62
     0
370
    25
100
AcDbPoint
 10
-41870.78868413381
 20
20036.86310446284
 30
0.0
  0
ENDBLK
  5
5D1
330
5C6
100
AcDbEntity
  8
0
 48
0.3
370
    25
100
AcDbBlockEnd
  0
BLOCK
  5
5D3
330
5D2
100
AcDbEntity
  8
0
 48
0.3
370
    25
100
AcDbBlockBegin
  2
*D28
 70
     1
 10
0.0
 20
0.0
 30
0.0
  3
*D28
  1

  0
LINE
  5
5D4
330
5D2
100
AcDbEntity
  8
Bemassung
 62
     0
370
    -2
100
AcDbLine
 10
-43000.78868413382
 20
20080.09270662152
 30
0.0
 11
-43000.78868413382
 21
20033.84133625382
 31
0.0
  0
LINE
  5
5D5
330
5D2
100
AcDbEntity
  8
Bemassung
 62
     0
370
    -2
100
AcDbLine
 10
-42815.78868413381
 20
20080.09270662152
 30
0.0
 11
-42815.78868413381
 21
20033.84133625382
 31
0.0
  0
LINE
  5
5D6
330
5D2
100
AcDbEntity
  8
Bemassung
 62
     0
370
    -2
100
AcDbLine
 10
-42998.28868413381
 20
20035.09133625382
 30
0.0
 11
-42818.28868413382
 21
20035.09133625382
 31
0.0
  0
SOLID
  5
5D7
330
5D2
100
AcDbEntity
  8
Bemassung
 62
     0
370
    25
100
AcDbTrace
 10
-42998.28868413381
 20
20035.50800292049
 30
0.0
 11
-42998.28868413381
 21
20034.67466958716
 31
0.0
 12
-43000.78868413382
 22
20035.09133625382
 32
0.0
 13
-43000.78868413382
 23
20035.09133625382
 33
0.0
  0
SOLID
  5
5D8
330
5D2
100
AcDbEntity
  8
Bemassung
 62
     0
370
    25
100
AcDbTrace
 10
-42818.28868413382
 20
20035.50800292049
 30
0.0
 11
-42818.28868413382
 21
20034.67466958716
 31
0.0
 12
-42815.78868413381
 22
20035.09133625382
 32
0.0
 13
-42815.78868413381
 23
20035.09133625382
 33
0.0
  0
MTEXT
  5
5D9
330
5D2
100
AcDbEntity
  8
Bemassung
 62
     0
100
AcDbMText
 10
-42908.28868413382
 20
20043.03601388982
 30
0.0
 40
2.5
 41
0.0
 71
     5
 72
     1
  1
{\fVerdana|b0|i0|c0|p34;\H5.6x;185}
 73
     1
 44
1.0
1001
ACAD
1000
MTEXTBEGIN
1070
    73
1070
     1
1070
    44
1040
1.0
1070
    74
1070
     0
1000
MTEXTEND
  0
POINT
  5
5DA
330
5D2
100
AcDbEntity
  8
Defpoints
 62
     0
370
    25
100
AcDbPoint
 10
-43000.78868413382
 20
20080.71770662152
 30
0.0
  0
POINT
  5
5DB
330
5D2
100
AcDbEntity
  8
Defpoints
 62
     0
370
    25
100
AcDbPoint
 10
-42815.78868413381
 20
20080.71770662152
 30
0.0
  0
POINT
  5
5DC
330
5D2
100
AcDbEntity
  8
Defpoints
 62
     0
370
    25
100
AcDbPoint
 10
-42815.78868413381
 20
20035.09133625382
 30
0.0
  0
ENDBLK
  5
5DD
330
5D2
100
AcDbEntity
  8
0
 48
0.3
370
    25
100
AcDbBlockEnd
  0
BLOCK
  5
705
330
704
100
AcDbEntity
  8
0
100
AcDbBlockBegin
  2
*D30
 70
     1
 10
0.0
 20
0.0
 30
0.0
  3
*D30
  1

  0
LINE
  5
71C
330
704
100
AcDbEntity
  8
Bemassung
 62
     0
370
    -2
100
AcDbLine
 10
4627.575430802097
 20
1979.975441911025
 30
0.0
 11
4664.53102546786
 21
1979.975441911025
 31
0.0
  0
LINE
  5
71D
330
704
100
AcDbEntity
  8
Bemassung
 62
     0
370
    -2
100
AcDbLine
 10
4614.575430802097
 20
2549.975441911025
 30
0.0
 11
4664.53102546786
 21
2549.975441911025
 31
0.0
  0
LINE
  5
71E
330
704
100
AcDbEntity
  8
Bemassung
 62
     0
370
    -2
100
AcDbLine
 10
4663.281025467859
 20
1982.475441911025
 30
0.0
 11
4663.281025467861
 21
2547.475441911025
 31
0.0
  0
SOLID
  5
71F
330
704
100
AcDbEntity
  8
Bemassung
 62
     0
100
AcDbTrace
 10
4662.864358801193
 20
1982.475441911025
 30
0.0
 11
4663.697692134526
 21
1982.475441911025
 31
0.0
 12
4663.281025467859
 22
1979.975441911025
 32
0.0
 13
4663.281025467859
 23
1979.975441911025
 33
0.0
  0
SOLID
  5
720
330
704
100
AcDbEntity
  8
Bemassung
 62
     0
100
AcDbTrace
 10
4662.864358801193
 20
2547.475441911025
 30
0.0
 11
4663.697692134528
 21
2547.475441911025
 31
0.0
 12
4663.281025467861
 22
2549.975441911025
 32
0.0
 13
4663.281025467861
 23
2549.975441911025
 33
0.0
  0
MTEXT
  5
721
330
704
100
AcDbEntity
  8
Bemassung
 62
     0
100
AcDbMText
 10
4655.369255823803
 20
2264.975441911026
 30
0.0
 40
2.5
 41
0.0
 71
     5
 72
     1
  1
{\fVerdana|b0|i0|c0|p34;\H5.6x;570}
 11
0.0000000000000001
 21
1.0
 31
0.0
 73
     1
 44
1.0
1001
ACAD
1000
MTEXTBEGIN
1070
    73
1070
     1
1070
    44
1040
1.0
1070
    74
1070
     0
1000
MTEXTEND
  0
POINT
  5
722
330
704
100
AcDbEntity
  8
Defpoints
 62
     0
100
AcDbPoint
 10
4626.950430802097
 20
1979.975441911025
 30
0.0
  0
POINT
  5
723
330
704
100
AcDbEntity
  8
Defpoints
 62
     0
100
AcDbPoint
 10
4613.950430802097
 20
2549.975441911025
 30
0.0
  0
POINT
  5
724
330
704
100
AcDbEntity
  8
Defpoints
 62
     0
100
AcDbPoint
 10
4663.281025467861
 20
2549.975441911025
 30
0.0
  0
ENDBLK
  5
706
330
704
100
AcDbEntity
  8
0
100
AcDbBlockEnd
  0
BLOCK
  5
711
330
710
100
AcDbEntity
  8
0
100
AcDbBlockBegin
  2
*D31
 70
     1
 10
0.0
 20
0.0
 30
0.0
  3
*D31
  1

  0
LINE
  5
713
330
710
100
AcDbEntity
  8
Bemassung
 62
     0
370
    -2
100
AcDbLine
 10
4614.575430802097
 20
1782.975441911025
 30
0.0
 11
4664.611336979562
 21
1782.975441911025
 31
0.0
  0
LINE
  5
714
330
710
100
AcDbEntity
  8
Bemassung
 62
     0
370
    -2
100
AcDbLine
 10
4614.575430802097
 20
1979.975441911025
 30
0.0
 11
4664.611336979562
 21
1979.975441911025
 31
0.0
  0
LINE
  5
715
330
710
100
AcDbEntity
  8
Bemassung
 62
     0
370
    -2
100
AcDbLine
 10
4663.361336979561
 20
1785.475441911025
 30
0.0
 11
4663.361336979561
 21
1977.475441911025
 31
0.0
  0
SOLID
  5
716
330
710
100
AcDbEntity
  8
Bemassung
 62
     0
100
AcDbTrace
 10
4662.944670312895
 20
1785.475441911025
 30
0.0
 11
4663.778003646228
 21
1785.475441911025
 31
0.0
 12
4663.361336979561
 22
1782.975441911025
 32
0.0
 13
4663.361336979561
 23
1782.975441911025
 33
0.0
  0
SOLID
  5
717
330
710
100
AcDbEntity
  8
Bemassung
 62
     0
100
AcDbTrace
 10
4662.944670312895
 20
1977.475441911025
 30
0.0
 11
4663.778003646228
 21
1977.475441911025
 31
0.0
 12
4663.361336979561
 22
1979.975441911025
 32
0.0
 13
4663.361336979561
 23
1979.975441911025
 33
0.0
  0
MTEXT
  5
718
330
710
100
AcDbEntity
  8
Bemassung
 62
     0
100
AcDbMText
 10
4655.444866193799
 20
1881.475441911026
 30
0.0
 40
2.5
 41
0.0
 71
     5
 72
     1
  1
{\fVerdana|b0|i0|c0|p34;\H5.6x;200}
 11
0.0000000000000001
 21
1.0
 31
0.0
 73
     1
 44
1.0
1001
ACAD
1000
MTEXTBEGIN
1070
    73
1070
     1
1070
    44
1040
1.0
1070
    74
1070
     0
1000
MTEXTEND
  0
POINT
  5
719
330
710
100
AcDbEntity
  8
Defpoints
 62
     0
100
AcDbPoint
 10
4613.950430802097
 20
1782.975441911025
 30
0.0
  0
POINT
  5
71A
330
710
100
AcDbEntity
  8
Defpoints
 62
     0
100
AcDbPoint
 10
4613.950430802097
 20
1979.975441911025
 30
0.0
  0
POINT
  5
71B
330
710
100
AcDbEntity
  8
Defpoints
 62
     0
100
AcDbPoint
 10
4663.361336979561
 20
1979.975441911025
 30
0.0
  0
ENDBLK
  5
712
330
710
100
AcDbEntity
  8
0
100
AcDbBlockEnd
  0
BLOCK
  5
726
330
725
100
AcDbEntity
  8
0
100
AcDbBlockBegin
  2
*D32
 70
     1
 10
0.0
 20
0.0
 30
0.0
  3
*D32
  1

  0
LINE
  5
728
330
725
100
AcDbEntity
  8
Bemassung
 62
     0
370
    -2
100
AcDbLine
 10
4614.575430802097
 20
2549.975441911025
 30
0.0
 11
4664.566878905663
 21
2549.975441911025
 31
0.0
  0
LINE
  5
729
330
725
100
AcDbEntity
  8
Bemassung
 62
     0
370
    -2
100
AcDbLine
 10
4614.575430802097
 20
2847.975441911025
 30
0.0
 11
4664.566878905663
 21
2847.975441911025
 31
0.0
  0
LINE
  5
72A
330
725
100
AcDbEntity
  8
Bemassung
 62
     0
370
    -2
100
AcDbLine
 10
4663.316878905663
 20
2552.475441911025
 30
0.0
 11
4663.316878905663
 21
2845.475441911025
 31
0.0
  0
SOLID
  5
72B
330
725
100
AcDbEntity
  8
Bemassung
 62
     0
100
AcDbTrace
 10
4662.900212238997
 20
2552.475441911025
 30
0.0
 11
4663.73354557233
 21
2552.475441911025
 31
0.0
 12
4663.316878905663
 22
2549.975441911025
 32
0.0
 13
4663.316878905663
 23
2549.975441911025
 33
0.0
  0
SOLID
  5
72C
330
725
100
AcDbEntity
  8
Bemassung
 62
     0
100
AcDbTrace
 10
4662.900212238997
 20
2845.475441911025
 30
0.0
 11
4663.73354557233
 21
2845.475441911025
 31
0.0
 12
4663.316878905663
 22
2847.975441911025
 32
0.0
 13
4663.316878905663
 23
2847.975441911025
 33
0.0
  0
MTEXT
  5
72D
330
725
100
AcDbEntity
  8
Bemassung
 62
     0
100
AcDbMText
 10
4655.4004081199
 20
2698.975441911026
 30
0.0
 40
2.5
 41
0.0
 71
     5
 72
     1
  1
{\fVerdana|b0|i0|c0|p34;\H5.6x;300}
 11
0.0000000000000001
 21
1.0
 31
0.0
 73
     1
 44
1.0
1001
ACAD
1000
MTEXTBEGIN
1070
    73
1070
     1
1070
    44
1040
1.0
1070
    74
1070
     0
1000
MTEXTEND
  0
POINT
  5
72E
330
725
100
AcDbEntity
  8
Defpoints
 62
     0
100
AcDbPoint
 10
4613.950430802097
 20
2549.975441911025
 30
0.0
  0
POINT
  5
72F
330
725
100
AcDbEntity
  8
Defpoints
 62
     0
100
AcDbPoint
 10
4613.950430802097
 20
2847.975441911025
 30
0.0
  0
POINT
  5
730
330
725
100
AcDbEntity
  8
Defpoints
 62
     0
100
AcDbPoint
 10
4663.316878905663
 20
2847.975441911025
 30
0.0
  0
ENDBLK
  5
727
330
725
100
AcDbEntity
  8
0
100
AcDbBlockEnd
  0
BLOCK
  5
732
330
731
100
AcDbEntity
  8
0
100
AcDbBlockBegin
  2
*D33
 70
     1
 10
0.0
 20
0.0
 30
0.0
  3
*D33
  1

  0
LINE
  5
734
330
731
100
AcDbEntity
  8
Bemassung
 62
     0
370
    -2
100
AcDbLine
 10
3668.950430802097
 20
1979.350441911025
 30
0.0
 11
3668.950430802097
 21
1912.450676428227
 31
0.0
  0
LINE
  5
735
330
731
100
AcDbEntity
  8
Bemassung
 62
     0
370
    -2
100
AcDbLine
 10
4428.950430802097
 20
1979.350441911025
 30
0.0
 11
4428.950430802097
 21
1912.450676428227
 31
0.0
  0
LINE
  5
736
330
731
100
AcDbEntity
  8
Bemassung
 62
     0
370
    -2
100
AcDbLine
 10
3671.450430802097
 20
1913.700676428227
 30
0.0
 11
4426.450430802097
 21
1913.700676428227
 31
0.0
  0
SOLID
  5
737
330
731
100
AcDbEntity
  8
Bemassung
 62
     0
100
AcDbTrace
 10
3671.450430802097
 20
1914.117343094893
 30
0.0
 11
3671.450430802097
 21
1913.28400976156
 31
0.0
 12
3668.950430802097
 22
1913.700676428227
 32
0.0
 13
3668.950430802097
 23
1913.700676428227
 33
0.0
  0
SOLID
  5
738
330
731
100
AcDbEntity
  8
Bemassung
 62
     0
100
AcDbTrace
 10
4426.450430802097
 20
1914.117343094893
 30
0.0
 11
4426.450430802097
 21
1913.28400976156
 31
0.0
 12
4428.950430802097
 22
1913.700676428227
 32
0.0
 13
4428.950430802097
 23
1913.700676428227
 33
0.0
  0
MTEXT
  5
739
330
731
100
AcDbEntity
  8
Bemassung
 62
     0
100
AcDbMText
 10
4048.950430802096
 20
1921.612446072283
 30
0.0
 40
2.5
 41
0.0
 71
     5
 72
     1
  1
{\fVerdana|b0|i0|c0|p34;\H5.6x;760}
 73
     1
 44
1.0
1001
ACAD
1000
MTEXTBEGIN
1070
    73
1070
     1
1070
    44
1040
1.0
1070
    74
1070
     0
1000
MTEXTEND
  0
POINT
  5
73A
330
731
100
AcDbEntity
  8
Defpoints
 62
     0
100
AcDbPoint
 10
3668.950430802097
 20
1979.975441911025
 30
0.0
  0
POINT
  5
73B
330
731
100
AcDbEntity
  8
Defpoints
 62
     0
100
AcDbPoint
 10
4428.950430802097
 20
1979.975441911025
 30
0.0
  0
POINT
  5
73C
330
731
100
AcDbEntity
  8
Defpoints
 62
     0
100
AcDbPoint
 10
4428.950430802097
 20
1913.700676428227
 30
0.0
  0
ENDBLK
  5
733
330
731
100
AcDbEntity
  8
0
100
AcDbBlockEnd
  0
BLOCK
  5
73E
330
73D
100
AcDbEntity
  8
0
100
AcDbBlockBegin
  2
*D34
 70
     1
 10
0.0
 20
0.0
 30
0.0
  3
*D34
  1

  0
LINE
  5
740
330
73D
100
AcDbEntity
  8
Bemassung
 62
     0
370
    -2
100
AcDbLine
 10
4919.085194932004
 20
1782.350441911025
 30
0.0
 11
4919.085194932004
 21
1759.281573012286
 31
0.0
  0
LINE
  5
741
330
73D
100
AcDbEntity
  8
Bemassung
 62
     0
370
    -2
100
AcDbLine
 10
5019.085194932004
 20
1782.350441911025
 30
0.0
 11
5019.085194932004
 21
1759.281573012286
 31
0.0
  0
LINE
  5
742
330
73D
100
AcDbEntity
  8
Bemassung
 62
     0
370
    -2
100
AcDbLine
 10
4921.585194932004
 20
1760.531573012286
 30
0.0
 11
5016.585194932004
 21
1760.531573012286
 31
0.0
  0
SOLID
  5
743
330
73D
100
AcDbEntity
  8
Bemassung
 62
     0
100
AcDbTrace
 10
4921.585194932004
 20
1760.948239678952
 30
0.0
 11
4921.585194932004
 21
1760.114906345619
 31
0.0
 12
4919.085194932004
 22
1760.531573012286
 32
0.0
 13
4919.085194932004
 23
1760.531573012286
 33
0.0
  0
SOLID
  5
744
330
73D
100
AcDbEntity
  8
Bemassung
 62
     0
100
AcDbTrace
 10
5016.585194932004
 20
1760.948239678952
 30
0.0
 11
5016.585194932004
 21
1760.114906345619
 31
0.0
 12
5019.085194932004
 22
1760.531573012286
 32
0.0
 13
5019.085194932004
 23
1760.531573012286
 33
0.0
  0
MTEXT
  5
745
330
73D
100
AcDbEntity
  8
Bemassung
 62
     0
100
AcDbMText
 10
4969.085194932004
 20
1768.443342656342
 30
0.0
 40
2.5
 41
0.0
 71
     5
 72
     1
  1
{\fVerdana|b0|i0|c0|p34;\H5.6x;100}
 73
     1
 44
1.0
1001
ACAD
1000
MTEXTBEGIN
1070
    73
1070
     1
1070
    44
1040
1.0
1070
    74
1070
     0
1000
MTEXTEND
  0
POINT
  5
746
330
73D
100
AcDbEntity
  8
Defpoints
 62
     0
100
AcDbPoint
 10
4919.085194932004
 20
1782.975441911025
 30
0.0
  0
POINT
  5
747
330
73D
100
AcDbEntity
  8
Defpoints
 62
     0
100
AcDbPoint
 10
5019.085194932004
 20
1782.975441911025
 30
0.0
  0
POINT
  5
748
330
73D
100
AcDbEntity
  8
Defpoints
 62
     0
100
AcDbPoint
 10
5019.085194932004
 20
1760.531573012286
 30
0.0
  0
ENDBLK
  5
73F
330
73D
100
AcDbEntity
  8
0
100
AcDbBlockEnd
  0
BLOCK
  5
74A
330
749
100
AcDbEntity
  8
0
100
AcDbBlockBegin
  2
*D35
 70
     1
 10
0.0
 20
0.0
 30
0.0
  3
*D35
  1

  0
LINE
  5
74C
330
749
100
AcDbEntity
  8
Bemassung
 62
     0
370
    -2
100
AcDbLine
 10
5019.085194932004
 20
1782.350441911025
 30
0.0
 11
5019.085194932004
 21
1738.773515410645
 31
0.0
  0
LINE
  5
74D
330
749
100
AcDbEntity
  8
Bemassung
 62
     0
370
    -2
100
AcDbLine
 10
5023.085194932004
 20
1782.350441911025
 30
0.0
 11
5023.085194932004
 21
1738.773515410645
 31
0.0
  0
LINE
  5
74E
330
749
100
AcDbEntity
  8
Bemassung
 62
     0
370
    -2
100
AcDbLine
 10
5016.585194932004
 20
1740.023515410645
 30
0.0
 11
5014.085194932004
 21
1740.023515410645
 31
0.0
  0
LINE
  5
74F
330
749
100
AcDbEntity
  8
Bemassung
 62
     0
370
    -2
100
AcDbLine
 10
5025.585194932004
 20
1740.023515410645
 30
0.0
 11
5053.158797175874
 21
1740.023515410645
 31
0.0
  0
LINE
  5
750
330
749
100
AcDbEntity
  8
Bemassung
 62
     0
370
    -2
100
AcDbLine
 10
5019.085194932004
 20
1740.023515410645
 30
0.0
 11
5023.085194932004
 21
1740.023515410645
 31
0.0
  0
SOLID
  5
751
330
749
100
AcDbEntity
  8
Bemassung
 62
     0
100
AcDbTrace
 10
5016.585194932004
 20
1740.440182077312
 30
0.0
 11
5016.585194932004
 21
1739.606848743978
 31
0.0
 12
5019.085194932004
 22
1740.023515410645
 32
0.0
 13
5019.085194932004
 23
1740.023515410645
 33
0.0
  0
SOLID
  5
752
330
749
100
AcDbEntity
  8
Bemassung
 62
     0
100
AcDbTrace
 10
5025.585194932004
 20
1740.440182077312
 30
0.0
 11
5025.585194932004
 21
1739.606848743978
 31
0.0
 12
5023.085194932004
 22
1740.023515410645
 32
0.0
 13
5023.085194932004
 23
1740.023515410645
 33
0.0
  0
MTEXT
  5
753
330
749
100
AcDbEntity
  8
Bemassung
 62
     0
100
AcDbMText
 10
5047.240311615095
 20
1747.648515410645
 30
0.0
 40
2.5
 41
0.0
 71
     5
 72
     1
  1
{\fVerdana|b0|i0|c0|p34;\H5.6x;4}
 73
     1
 44
1.0
1001
ACAD
1000
MTEXTBEGIN
1070
    73
1070
     1
1070
    44
1040
1.0
1070
    74
1070
     0
1000
MTEXTEND
  0
POINT
  5
754
330
749
100
AcDbEntity
  8
Defpoints
 62
     0
100
AcDbPoint
 10
5019.085194932004
 20
1782.975441911025
 30
0.0
  0
POINT
  5
755
330
749
100
AcDbEntity
  8
Defpoints
 62
     0
100
AcDbPoint
 10
5023.085194932004
 20
1782.975441911025
 30
0.0
  0
POINT
  5
756
330
749
100
AcDbEntity
  8
Defpoints
 62
     0
100
AcDbPoint
 10
5023.085194932004
 20
1740.023515410645
 30
0.0
  0
ENDBLK
  5
74B
330
749
100
AcDbEntity
  8
0
100
AcDbBlockEnd
  0
BLOCK
  5
758
330
757
100
AcDbEntity
  8
0
100
AcDbBlockBegin
  2
*D36
 70
     1
 10
0.0
 20
0.0
 30
0.0
  3
*D36
  1

  0
LINE
  5
75A
330
757
100
AcDbEntity
  8
Bemassung
 62
     0
370
    -2
100
AcDbLine
 10
4428.950430802097
 20
1782.350441911025
 30
0.0
 11
4428.950430802097
 21
1737.870839752344
 31
0.0
  0
LINE
  5
75B
330
757
100
AcDbEntity
  8
Bemassung
 62
     0
370
    -2
100
AcDbLine
 10
4613.950430802097
 20
1782.350441911025
 30
0.0
 11
4613.950430802097
 21
1737.870839752344
 31
0.0
  0
LINE
  5
75C
330
757
100
AcDbEntity
  8
Bemassung
 62
     0
370
    -2
100
AcDbLine
 10
4431.450430802096
 20
1739.120839752344
 30
0.0
 11
4611.450430802096
 21
1739.120839752344
 31
0.0
  0
SOLID
  5
75D
330
757
100
AcDbEntity
  8
Bemassung
 62
     0
100
AcDbTrace
 10
4431.450430802096
 20
1739.537506419011
 30
0.0
 11
4431.450430802096
 21
1738.704173085677
 31
0.0
 12
4428.950430802097
 22
1739.120839752344
 32
0.0
 13
4428.950430802097
 23
1739.120839752344
 33
0.0
  0
SOLID
  5
75E
330
757
100
AcDbEntity
  8
Bemassung
 62
     0
100
AcDbTrace
 10
4611.450430802096
 20
1739.537506419011
 30
0.0
 11
4611.450430802096
 21
1738.704173085677
 31
0.0
 12
4613.950430802097
 22
1739.120839752344
 32
0.0
 13
4613.950430802097
 23
1739.120839752344
 33
0.0
  0
MTEXT
  5
75F
330
757
100
AcDbEntity
  8
Bemassung
 62
     0
100
AcDbMText
 10
4521.450430802096
 20
1747.065517388341
 30
0.0
 40
2.5
 41
0.0
 71
     5
 72
     1
  1
{\fVerdana|b0|i0|c0|p34;\H5.6x;185}
 73
     1
 44
1.0
1001
ACAD
1000
MTEXTBEGIN
1070
    73
1070
     1
1070
    44
1040
1.0
1070
    74
1070
     0
1000
MTEXTEND
  0
POINT
  5
760
330
757
100
AcDbEntity
  8
Defpoints
 62
     0
100
AcDbPoint
 10
4428.950430802097
 20
1782.975441911025
 30
0.0
  0
POINT
  5
761
330
757
100
AcDbEntity
  8
Defpoints
 62
     0
100
AcDbPoint
 10
4613.950430802097
 20
1782.975441911025
 30
0.0
  0
POINT
  5
762
330
757
100
AcDbEntity
  8
Defpoints
 62
     0
100
AcDbPoint
 10
4613.950430802097
 20
1739.120839752344
 30
0.0
  0
ENDBLK
  5
759
330
757
100
AcDbEntity
  8
0
100
AcDbBlockEnd
  0
BLOCK
  5
764
330
763
100
AcDbEntity
  8
0
100
AcDbBlockBegin
  2
*D37
 70
     1
 10
0.0
 20
0.0
 30
0.0
  3
*D37
  1

  0
LINE
  5
766
330
763
100
AcDbEntity
  8
Bemassung
 62
     0
370
    -2
100
AcDbLine
 10
3483.950430802097
 20
1782.350441911025
 30
0.0
 11
3483.950430802097
 21
1736.099071543329
 31
0.0
  0
LINE
  5
767
330
763
100
AcDbEntity
  8
Bemassung
 62
     0
370
    -2
100
AcDbLine
 10
3668.950430802097
 20
1782.350441911025
 30
0.0
 11
3668.950430802097
 21
1736.099071543329
 31
0.0
  0
LINE
  5
768
330
763
100
AcDbEntity
  8
Bemassung
 62
     0
370
    -2
100
AcDbLine
 10
3486.450430802097
 20
1737.349071543329
 30
0.0
 11
3666.450430802097
 21
1737.349071543329
 31
0.0
  0
SOLID
  5
769
330
763
100
AcDbEntity
  8
Bemassung
 62
     0
100
AcDbTrace
 10
3486.450430802097
 20
1737.765738209995
 30
0.0
 11
3486.450430802097
 21
1736.932404876662
 31
0.0
 12
3483.950430802097
 22
1737.349071543329
 32
0.0
 13
3483.950430802097
 23
1737.349071543329
 33
0.0
  0
SOLID
  5
76A
330
763
100
AcDbEntity
  8
Bemassung
 62
     0
100
AcDbTrace
 10
3666.450430802097
 20
1737.765738209995
 30
0.0
 11
3666.450430802097
 21
1736.932404876662
 31
0.0
 12
3668.950430802097
 22
1737.349071543329
 32
0.0
 13
3668.950430802097
 23
1737.349071543329
 33
0.0
  0
MTEXT
  5
76B
330
763
100
AcDbEntity
  8
Bemassung
 62
     0
100
AcDbMText
 10
3576.450430802097
 20
1745.293749179326
 30
0.0
 40
2.5
 41
0.0
 71
     5
 72
     1
  1
{\fVerdana|b0|i0|c0|p34;\H5.6x;185}
 73
     1
 44
1.0
1001
ACAD
1000
MTEXTBEGIN
1070
    73
1070
     1
1070
    44
1040
1.0
1070
    74
1070
     0
1000
MTEXTEND
  0
POINT
  5
76C
330
763
100
AcDbEntity
  8
Defpoints
 62
     0
100
AcDbPoint
 10
3483.950430802097
 20
1782.975441911025
 30
0.0
  0
POINT
  5
76D
330
763
100
AcDbEntity
  8
Defpoints
 62
     0
100
AcDbPoint
 10
3668.950430802097
 20
1782.975441911025
 30
0.0
  0
POINT
  5
76E
330
763
100
AcDbEntity
  8
Defpoints
 62
     0
100
AcDbPoint
 10
3668.950430802097
 20
1737.349071543329
 30
0.0
  0
ENDBLK
  5
765
330
763
100
AcDbEntity
  8
0
100
AcDbBlockEnd
  0
BLOCK
  5
823
330
822
100
AcDbEntity
  8
0
 48
0.3
370
    25
100
AcDbBlockBegin
  2
*D39
 70
     1
 10
0.0
 20
0.0
 30
0.0
  3
*D39
  1

  0
LINE
  5
824
330
822
100
AcDbEntity
  8
Bemassung
 62
     0
370
    -2
100
AcDbLine
 10
-38133.50301757065
 20
20144.46544696129
 30
0.0
 11
-38083.46711139318
 21
20144.46544696129
 31
0.0
  0
LINE
  5
825
330
822
100
AcDbEntity
  8
Bemassung
 62
     0
370
    -2
100
AcDbLine
 10
-38133.50301757065
 20
20341.46544696129
 30
0.0
 11
-38083.46711139318
 21
20341.46544696129
 31
0.0
  0
LINE
  5
826
330
822
100
AcDbEntity
  8
Bemassung
 62
     0
370
    -2
100
AcDbLine
 10
-38084.71711139318
 20
20146.96544696129
 30
0.0
 11
-38084.71711139318
 21
20338.96544696129
 31
0.0
  0
SOLID
  5
827
330
822
100
AcDbEntity
  8
Bemassung
 62
     0
370
    25
100
AcDbTrace
 10
-38085.13377805985
 20
20146.96544696129
 30
0.0
 11
-38084.30044472652
 21
20146.96544696129
 31
0.0
 12
-38084.71711139318
 22
20144.46544696129
 32
0.0
 13
-38084.71711139318
 23
20144.46544696129
 33
0.0
  0
SOLID
  5
828
330
822
100
AcDbEntity
  8
Bemassung
 62
     0
370
    25
100
AcDbTrace
 10
-38085.13377805985
 20
20338.96544696129
 30
0.0
 11
-38084.30044472652
 21
20338.96544696129
 31
0.0
 12
-38084.71711139318
 22
20341.46544696129
 32
0.0
 13
-38084.71711139318
 23
20341.46544696129
 33
0.0
  0
MTEXT
  5
829
330
822
100
AcDbEntity
  8
Bemassung
 62
     0
100
AcDbMText
 10
-38092.63358217895
 20
20242.96544696129
 30
0.0
 40
2.5
 41
0.0
 71
     5
 72
     1
  1
{\fVerdana|b0|i0|c0|p34;\H5.6x;200}
 11
0.0000000000000001
 21
1.0
 31
0.0
 73
     1
 44
1.0
1001
ACAD
1000
MTEXTBEGIN
1070
    73
1070
     1
1070
    44
1040
1.0
1070
    74
1070
     0
1000
MTEXTEND
  0
POINT
  5
82A
330
822
100
AcDbEntity
  8
Defpoints
 62
     0
370
    25
100
AcDbPoint
 10
-38134.12801757065
 20
20144.46544696129
 30
0.0
  0
POINT
  5
82B
330
822
100
AcDbEntity
  8
Defpoints
 62
     0
370
    25
100
AcDbPoint
 10
-38134.12801757065
 20
20341.46544696129
 30
0.0
  0
POINT
  5
82C
330
822
100
AcDbEntity
  8
Defpoints
 62
     0
370
    25
100
AcDbPoint
 10
-38084.71711139318
 20
20341.46544696129
 30
0.0
  0
ENDBLK
  5
82D
330
822
100
AcDbEntity
  8
0
 48
0.3
370
    25
100
AcDbBlockEnd
  0
BLOCK
  5
82F
330
82E
100
AcDbEntity
  8
0
 48
0.3
370
    25
100
AcDbBlockBegin
  2
*D40
 70
     1
 10
0.0
 20
0.0
 30
0.0
  3
*D40
  1

  0
LINE
  5
830
330
82E
100
AcDbEntity
  8
Bemassung
 62
     0
370
    -2
100
AcDbLine
 10
-38133.50301757065
 20
20341.46544696129
 30
0.0
 11
-38083.42198644819
 21
20341.46544696129
 31
0.0
  0
LINE
  5
831
330
82E
100
AcDbEntity
  8
Bemassung
 62
     0
370
    -2
100
AcDbLine
 10
-38133.50301757065
 20
20811.46544696129
 30
0.0
 11
-38083.42198644819
 21
20811.46544696129
 31
0.0
  0
LINE
  5
832
330
82E
100
AcDbEntity
  8
Bemassung
 62
     0
370
    -2
100
AcDbLine
 10
-38084.67198644819
 20
20343.9654469613
 30
0.0
 11
-38084.67198644819
 21
20808.9654469613
 31
0.0
  0
SOLID
  5
833
330
82E
100
AcDbEntity
  8
Bemassung
 62
     0
370
    25
100
AcDbTrace
 10
-38085.08865311485
 20
20343.9654469613
 30
0.0
 11
-38084.25531978152
 21
20343.9654469613
 31
0.0
 12
-38084.67198644819
 22
20341.46544696129
 32
0.0
 13
-38084.67198644819
 23
20341.46544696129
 33
0.0
  0
SOLID
  5
834
330
82E
100
AcDbEntity
  8
Bemassung
 62
     0
370
    25
100
AcDbTrace
 10
-38085.08865311485
 20
20808.9654469613
 30
0.0
 11
-38084.25531978152
 21
20808.9654469613
 31
0.0
 12
-38084.67198644819
 22
20811.46544696129
 32
0.0
 13
-38084.67198644819
 23
20811.46544696129
 33
0.0
  0
MTEXT
  5
835
330
82E
100
AcDbEntity
  8
Bemassung
 62
     0
100
AcDbMText
 10
-38092.58375609225
 20
20576.46544696129
 30
0.0
 40
2.5
 41
0.0
 71
     5
 72
     1
  1
{\fVerdana|b0|i0|c0|p34;\H5.6x;470}
 11
0.0000000000000001
 21
1.0
 31
0.0
 73
     1
 44
1.0
1001
ACAD
1000
MTEXTBEGIN
1070
    73
1070
     1
1070
    44
1040
1.0
1070
    74
1070
     0
1000
MTEXTEND
  0
POINT
  5
836
330
82E
100
AcDbEntity
  8
Defpoints
 62
     0
370
    25
100
AcDbPoint
 10
-38134.12801757065
 20
20341.46544696129
 30
0.0
  0
POINT
  5
837
330
82E
100
AcDbEntity
  8
Defpoints
 62
     0
370
    25
100
AcDbPoint
 10
-38134.12801757065
 20
20811.46544696129
 30
0.0
  0
POINT
  5
838
330
82E
100
AcDbEntity
  8
Defpoints
 62
     0
370
    25
100
AcDbPoint
 10
-38084.67198644819
 20
20811.46544696129
 30
0.0
  0
ENDBLK
  5
839
330
82E
100
AcDbEntity
  8
0
 48
0.3
370
    25
100
AcDbBlockEnd
  0
BLOCK
  5
83B
330
83A
100
AcDbEntity
  8
0
 48
0.3
370
    25
100
AcDbBlockBegin
  2
*D41
 70
     1
 10
0.0
 20
0.0
 30
0.0
  3
*D41
  1

  0
LINE
  5
83C
330
83A
100
AcDbEntity
  8
Bemassung
 62
     0
370
    -2
100
AcDbLine
 10
-39279.12801757065
 20
20340.84044696129
 30
0.0
 11
-39279.12801757065
 21
20273.9406814785
 31
0.0
  0
LINE
  5
83D
330
83A
100
AcDbEntity
  8
Bemassung
 62
     0
370
    -2
100
AcDbLine
 10
-38319.12801757065
 20
20340.84044696129
 30
0.0
 11
-38319.12801757065
 21
20273.9406814785
 31
0.0
  0
LINE
  5
83E
330
83A
100
AcDbEntity
  8
Bemassung
 62
     0
370
    -2
100
AcDbLine
 10
-39276.62801757065
 20
20275.1906814785
 30
0.0
 11
-38321.62801757065
 21
20275.1906814785
 31
0.0
  0
SOLID
  5
83F
330
83A
100
AcDbEntity
  8
Bemassung
 62
     0
370
    25
100
AcDbTrace
 10
-39276.62801757065
 20
20275.60734814517
 30
0.0
 11
-39276.62801757065
 21
20274.77401481183
 31
0.0
 12
-39279.12801757065
 22
20275.1906814785
 32
0.0
 13
-39279.12801757065
 23
20275.1906814785
 33
0.0
  0
SOLID
  5
840
330
83A
100
AcDbEntity
  8
Bemassung
 62
     0
370
    25
100
AcDbTrace
 10
-38321.62801757065
 20
20275.60734814517
 30
0.0
 11
-38321.62801757065
 21
20274.77401481183
 31
0.0
 12
-38319.12801757065
 22
20275.1906814785
 32
0.0
 13
-38319.12801757065
 23
20275.1906814785
 33
0.0
  0
MTEXT
  5
841
330
83A
100
AcDbEntity
  8
Bemassung
 62
     0
100
AcDbMText
 10
-38799.12801757065
 20
20283.10245112256
 30
0.0
 40
2.5
 41
0.0
 71
     5
 72
     1
  1
{\fVerdana|b0|i0|c0|p34;\H5.6x;960}
 73
     1
 44
1.0
1001
ACAD
1000
MTEXTBEGIN
1070
    73
1070
     1
1070
    44
1040
1.0
1070
    74
1070
     0
1000
MTEXTEND
  0
POINT
  5
842
330
83A
100
AcDbEntity
  8
Defpoints
 62
     0
370
    25
100
AcDbPoint
 10
-39279.12801757065
 20
20341.46544696129
 30
0.0
  0
POINT
  5
843
330
83A
100
AcDbEntity
  8
Defpoints
 62
     0
370
    25
100
AcDbPoint
 10
-38319.12801757065
 20
20341.46544696129
 30
0.0
  0
POINT
  5
844
330
83A
100
AcDbEntity
  8
Defpoints
 62
     0
370
    25
100
AcDbPoint
 10
-38319.12801757065
 20
20275.1906814785
 30
0.0
  0
ENDBLK
  5
845
330
83A
100
AcDbEntity
  8
0
 48
0.3
370
    25
100
AcDbBlockEnd
  0
BLOCK
  5
847
330
846
100
AcDbEntity
  8
0
 48
0.3
370
    25
100
AcDbBlockBegin
  2
*D42
 70
     1
 10
0.0
 20
0.0
 30
0.0
  3
*D42
  1

  0
LINE
  5
848
330
846
100
AcDbEntity
  8
Bemassung
 62
     0
370
    -2
100
AcDbLine
 10
-37828.99325344074
 20
20142.84044696129
 30
0.0
 11
-37828.99325344074
 21
20114.39578948505
 31
0.0
  0
LINE
  5
849
330
846
100
AcDbEntity
  8
Bemassung
 62
     0
370
    -2
100
AcDbLine
 10
-37728.99325344074
 20
20142.84044696129
 30
0.0
 11
-37728.99325344074
 21
20114.39578948505
 31
0.0
  0
LINE
  5
84A
330
846
100
AcDbEntity
  8
Bemassung
 62
     0
370
    -2
100
AcDbLine
 10
-37826.49325344074
 20
20115.64578948505
 30
0.0
 11
-37731.49325344074
 21
20115.64578948505
 31
0.0
  0
SOLID
  5
84B
330
846
100
AcDbEntity
  8
Bemassung
 62
     0
370
    25
100
AcDbTrace
 10
-37826.49325344074
 20
20116.06245615171
 30
0.0
 11
-37826.49325344074
 21
20115.22912281838
 31
0.0
 12
-37828.99325344074
 22
20115.64578948505
 32
0.0
 13
-37828.99325344074
 23
20115.64578948505
 33
0.0
  0
SOLID
  5
84C
330
846
100
AcDbEntity
  8
Bemassung
 62
     0
370
    25
100
AcDbTrace
 10
-37731.49325344074
 20
20116.06245615171
 30
0.0
 11
-37731.49325344074
 21
20115.22912281838
 31
0.0
 12
-37728.99325344074
 22
20115.64578948505
 32
0.0
 13
-37728.99325344074
 23
20115.64578948505
 33
0.0
  0
MTEXT
  5
84D
330
846
100
AcDbEntity
  8
Bemassung
 62
     0
100
AcDbMText
 10
-37778.99325344074
 20
20123.5575591291
 30
0.0
 40
2.5
 41
0.0
 71
     5
 72
     1
  1
{\fVerdana|b0|i0|c0|p34;\H5.6x;100}
 73
     1
 44
1.0
1001
ACAD
1000
MTEXTBEGIN
1070
    73
1070
     1
1070
    44
1040
1.0
1070
    74
1070
     0
1000
MTEXTEND
  0
POINT
  5
84E
330
846
100
AcDbEntity
  8
Defpoints
 62
     0
370
    25
100
AcDbPoint
 10
-37828.99325344074
 20
20143.4654469613
 30
0.0
  0
POINT
  5
84F
330
846
100
AcDbEntity
  8
Defpoints
 62
     0
370
    25
100
AcDbPoint
 10
-37728.99325344074
 20
20143.4654469613
 30
0.0
  0
POINT
  5
850
330
846
100
AcDbEntity
  8
Defpoints
 62
     0
370
    25
100
AcDbPoint
 10
-37728.99325344074
 20
20115.64578948505
 30
0.0
  0
ENDBLK
  5
851
330
846
100
AcDbEntity
  8
0
 48
0.3
370
    25
100
AcDbBlockEnd
  0
BLOCK
  5
853
330
852
100
AcDbEntity
  8
0
 48
0.3
370
    25
100
AcDbBlockBegin
  2
*D43
 70
     1
 10
0.0
 20
0.0
 30
0.0
  3
*D43
  1

  0
LINE
  5
854
330
852
100
AcDbEntity
  8
Bemassung
 62
     0
370
    -2
100
AcDbLine
 10
-38133.50301757065
 20
20811.46544696129
 30
0.0
 11
-38083.26556229555
 21
20811.46544696129
 31
0.0
  0
LINE
  5
855
330
852
100
AcDbEntity
  8
Bemassung
 62
     0
370
    -2
100
AcDbLine
 10
-38133.50301757065
 20
21191.4654469613
 30
0.0
 11
-38083.26556229555
 21
21191.4654469613
 31
0.0
  0
LINE
  5
856
330
852
100
AcDbEntity
  8
Bemassung
 62
     0
370
    -2
100
AcDbLine
 10
-38084.51556229555
 20
20813.96544696129
 30
0.0
 11
-38084.51556229555
 21
21188.96544696129
 31
0.0
  0
SOLID
  5
857
330
852
100
AcDbEntity
  8
Bemassung
 62
     0
370
    25
100
AcDbTrace
 10
-38084.93222896221
 20
20813.96544696129
 30
0.0
 11
-38084.09889562889
 21
20813.96544696129
 31
0.0
 12
-38084.51556229555
 22
20811.46544696129
 32
0.0
 13
-38084.51556229555
 23
20811.46544696129
 33
0.0
  0
SOLID
  5
858
330
852
100
AcDbEntity
  8
Bemassung
 62
     0
370
    25
100
AcDbTrace
 10
-38084.93222896221
 20
21188.96544696129
 30
0.0
 11
-38084.09889562889
 21
21188.96544696129
 31
0.0
 12
-38084.51556229555
 22
21191.4654469613
 32
0.0
 13
-38084.51556229555
 23
21191.4654469613
 33
0.0
  0
MTEXT
  5
859
330
852
100
AcDbEntity
  8
Bemassung
 62
     0
100
AcDbMText
 10
-38092.46023993156
 20
21001.46544696129
 30
0.0
 40
2.5
 41
0.0
 71
     5
 72
     1
  1
{\fVerdana|b0|i0|c0|p34;\H5.6x;380}
 11
0.0000000000000001
 21
1.0
 31
0.0
 73
     1
 44
1.0
1001
ACAD
1000
MTEXTBEGIN
1070
    73
1070
     1
1070
    44
1040
1.0
1070
    74
1070
     0
1000
MTEXTEND
  0
POINT
  5
85A
330
852
100
AcDbEntity
  8
Defpoints
 62
     0
370
    25
100
AcDbPoint
 10
-38134.12801757065
 20
20811.46544696129
 30
0.0
  0
POINT
  5
85B
330
852
100
AcDbEntity
  8
Defpoints
 62
     0
370
    25
100
AcDbPoint
 10
-38134.12801757065
 20
21191.4654469613
 30
0.0
  0
POINT
  5
85C
330
852
100
AcDbEntity
  8
Defpoints
 62
     0
370
    25
100
AcDbPoint
 10
-38084.51556229555
 20
21191.4654469613
 30
0.0
  0
ENDBLK
  5
85D
330
852
100
AcDbEntity
  8
0
 48
0.3
370
    25
100
AcDbBlockEnd
  0
BLOCK
  5
85F
330
85E
100
AcDbEntity
  8
0
 48
0.3
370
    25
100
AcDbBlockBegin
  2
*D44
 70
     1
 10
0.0
 20
0.0
 30
0.0
  3
*D44
  1

  0
LINE
  5
860
330
85E
100
AcDbEntity
  8
Bemassung
 62
     0
370
    -2
100
AcDbLine
 10
-37728.99325344074
 20
20142.84044696129
 30
0.0
 11
-37728.99325344074
 21
20095.61416055526
 31
0.0
  0
LINE
  5
861
330
85E
100
AcDbEntity
  8
Bemassung
 62
     0
370
    -2
100
AcDbLine
 10
-37724.99325344074
 20
20142.84044696129
 30
0.0
 11
-37724.99325344074
 21
20095.61416055526
 31
0.0
  0
LINE
  5
862
330
85E
100
AcDbEntity
  8
Bemassung
 62
     0
370
    -2
100
AcDbLine
 10
-37731.49325344074
 20
20096.86416055526
 30
0.0
 11
-37733.99325344074
 21
20096.86416055526
 31
0.0
  0
LINE
  5
863
330
85E
100
AcDbEntity
  8
Bemassung
 62
     0
370
    -2
100
AcDbLine
 10
-37722.49325344074
 20
20096.86416055526
 30
0.0
 11
-37704.11164479981
 21
20096.86416055526
 31
0.0
  0
LINE
  5
864
330
85E
100
AcDbEntity
  8
Bemassung
 62
     0
370
    -2
100
AcDbLine
 10
-37728.99325344074
 20
20096.86416055526
 30
0.0
 11
-37724.99325344074
 21
20096.86416055526
 31
0.0
  0
SOLID
  5
865
330
85E
100
AcDbEntity
  8
Bemassung
 62
     0
370
    25
100
AcDbTrace
 10
-37731.49325344074
 20
20097.28082722193
 30
0.0
 11
-37731.49325344074
 21
20096.4474938886
 31
0.0
 12
-37728.99325344074
 22
20096.86416055526
 32
0.0
 13
-37728.99325344074
 23
20096.86416055526
 33
0.0
  0
SOLID
  5
866
330
85E
100
AcDbEntity
  8
Bemassung
 62
     0
370
    25
100
AcDbTrace
 10
-37722.49325344074
 20
20097.28082722193
 30
0.0
 11
-37722.49325344074
 21
20096.4474938886
 31
0.0
 12
-37724.99325344074
 22
20096.86416055526
 32
0.0
 13
-37724.99325344074
 23
20096.86416055526
 33
0.0
  0
MTEXT
  5
867
330
85E
100
AcDbEntity
  8
Bemassung
 62
     0
100
AcDbMText
 10
-37710.03013036058
 20
20104.48916055526
 30
0.0
 40
2.5
 41
0.0
 71
     5
 72
     1
  1
{\fVerdana|b0|i0|c0|p34;\H5.6x;4}
 73
     1
 44
1.0
1001
ACAD
1000
MTEXTBEGIN
1070
    73
1070
     1
1070
    44
1040
1.0
1070
    74
1070
     0
1000
MTEXTEND
  0
POINT
  5
868
330
85E
100
AcDbEntity
  8
Defpoints
 62
     0
370
    25
100
AcDbPoint
 10
-37728.99325344074
 20
20143.4654469613
 30
0.0
  0
POINT
  5
869
330
85E
100
AcDbEntity
  8
Defpoints
 62
     0
370
    25
100
AcDbPoint
 10
-37724.99325344074
 20
20143.4654469613
 30
0.0
  0
POINT
  5
86A
330
85E
100
AcDbEntity
  8
Defpoints
 62
     0
370
    25
100
AcDbPoint
 10
-37724.99325344074
 20
20096.86416055526
 30
0.0
  0
ENDBLK
  5
86B
330
85E
100
AcDbEntity
  8
0
 48
0.3
370
    25
100
AcDbBlockEnd
  0
BLOCK
  5
86D
330
86C
100
AcDbEntity
  8
0
 48
0.3
370
    25
100
AcDbBlockBegin
  2
*D45
 70
     1
 10
0.0
 20
0.0
 30
0.0
  3
*D45
  1

  0
LINE
  5
86E
330
86C
100
AcDbEntity
  8
Bemassung
 62
     0
370
    -2
100
AcDbLine
 10
-38319.12801757065
 20
20143.8404469613
 30
0.0
 11
-38319.12801757065
 21
20102.60713511637
 31
0.0
  0
LINE
  5
86F
330
86C
100
AcDbEntity
  8
Bemassung
 62
     0
370
    -2
100
AcDbLine
 10
-38134.12801757065
 20
20143.8404469613
 30
0.0
 11
-38134.12801757065
 21
20102.60713511637
 31
0.0
  0
LINE
  5
870
330
86C
100
AcDbEntity
  8
Bemassung
 62
     0
370
    -2
100
AcDbLine
 10
-38316.62801757065
 20
20103.85713511638
 30
0.0
 11
-38136.62801757065
 21
20103.85713511638
 31
0.0
  0
SOLID
  5
871
330
86C
100
AcDbEntity
  8
Bemassung
 62
     0
370
    25
100
AcDbTrace
 10
-38316.62801757065
 20
20104.27380178304
 30
0.0
 11
-38316.62801757065
 21
20103.4404684497
 31
0.0
 12
-38319.12801757065
 22
20103.85713511638
 32
0.0
 13
-38319.12801757065
 23
20103.85713511638
 33
0.0
  0
SOLID
  5
872
330
86C
100
AcDbEntity
  8
Bemassung
 62
     0
370
    25
100
AcDbTrace
 10
-38136.62801757065
 20
20104.27380178304
 30
0.0
 11
-38136.62801757065
 21
20103.4404684497
 31
0.0
 12
-38134.12801757065
 22
20103.85713511638
 32
0.0
 13
-38134.12801757065
 23
20103.85713511638
 33
0.0
  0
MTEXT
  5
873
330
86C
100
AcDbEntity
  8
Bemassung
 62
     0
100
AcDbMText
 10
-38226.62801757065
 20
20111.80181275237
 30
0.0
 40
2.5
 41
0.0
 71
     5
 72
     1
  1
{\fVerdana|b0|i0|c0|p34;\H5.6x;185}
 73
     1
 44
1.0
1001
ACAD
1000
MTEXTBEGIN
1070
    73
1070
     1
1070
    44
1040
1.0
1070
    74
1070
     0
1000
MTEXTEND
  0
POINT
  5
874
330
86C
100
AcDbEntity
  8
Defpoints
 62
     0
370
    25
100
AcDbPoint
 10
-38319.12801757065
 20
20144.4654469613
 30
0.0
  0
POINT
  5
875
330
86C
100
AcDbEntity
  8
Defpoints
 62
     0
370
    25
100
AcDbPoint
 10
-38134.12801757065
 20
20144.46544696129
 30
0.0
  0
POINT
  5
876
330
86C
100
AcDbEntity
  8
Defpoints
 62
     0
370
    25
100
AcDbPoint
 10
-38134.12801757065
 20
20103.85713511638
 30
0.0
  0
ENDBLK
  5
877
330
86C
100
AcDbEntity
  8
0
 48
0.3
370
    25
100
AcDbBlockEnd
  0
BLOCK
  5
879
330
878
100
AcDbEntity
  8
0
 48
0.3
370
    25
100
AcDbBlockBegin
  2
*D46
 70
     1
 10
0.0
 20
0.0
 30
0.0
  3
*D46
  1

  0
LINE
  5
87A
330
878
100
AcDbEntity
  8
Bemassung
 62
     0
370
    -2
100
AcDbLine
 10
-39464.12801757065
 20
20143.8404469613
 30
0.0
 11
-39464.12801757065
 21
20108.41402176476
 31
0.0
  0
LINE
  5
87B
330
878
100
AcDbEntity
  8
Bemassung
 62
     0
370
    -2
100
AcDbLine
 10
-39279.12801757065
 20
20143.8404469613
 30
0.0
 11
-39279.12801757065
 21
20108.41402176476
 31
0.0
  0
LINE
  5
87C
330
878
100
AcDbEntity
  8
Bemassung
 62
     0
370
    -2
100
AcDbLine
 10
-39461.62801757065
 20
20109.66402176476
 30
0.0
 11
-39281.62801757065
 21
20109.66402176476
 31
0.0
  0
SOLID
  5
87D
330
878
100
AcDbEntity
  8
Bemassung
 62
     0
370
    25
100
AcDbTrace
 10
-39461.62801757065
 20
20110.08068843143
 30
0.0
 11
-39461.62801757065
 21
20109.24735509809
 31
0.0
 12
-39464.12801757065
 22
20109.66402176476
 32
0.0
 13
-39464.12801757065
 23
20109.66402176476
 33
0.0
  0
SOLID
  5
87E
330
878
100
AcDbEntity
  8
Bemassung
 62
     0
370
    25
100
AcDbTrace
 10
-39281.62801757065
 20
20110.08068843143
 30
0.0
 11
-39281.62801757065
 21
20109.24735509809
 31
0.0
 12
-39279.12801757065
 22
20109.66402176476
 32
0.0
 13
-39279.12801757065
 23
20109.66402176476
 33
0.0
  0
MTEXT
  5
87F
330
878
100
AcDbEntity
  8
Bemassung
 62
     0
100
AcDbMText
 10
-39371.62801757065
 20
20117.60869940076
 30
0.0
 40
2.5
 41
0.0
 71
     5
 72
     1
  1
{\fVerdana|b0|i0|c0|p34;\H5.6x;185}
 73
     1
 44
1.0
1001
ACAD
1000
MTEXTBEGIN
1070
    73
1070
     1
1070
    44
1040
1.0
1070
    74
1070
     0
1000
MTEXTEND
  0
POINT
  5
880
330
878
100
AcDbEntity
  8
Defpoints
 62
     0
370
    25
100
AcDbPoint
 10
-39464.12801757065
 20
20144.46544696129
 30
0.0
  0
POINT
  5
881
330
878
100
AcDbEntity
  8
Defpoints
 62
     0
370
    25
100
AcDbPoint
 10
-39279.12801757065
 20
20144.46544696129
 30
0.0
  0
POINT
  5
882
330
878
100
AcDbEntity
  8
Defpoints
 62
     0
370
    25
100
AcDbPoint
 10
-39279.12801757065
 20
20109.66402176476
 30
0.0
  0
ENDBLK
  5
883
330
878
100
AcDbEntity
  8
0
 48
0.3
370
    25
100
AcDbBlockEnd
  0
BLOCK
  5
9E9
330
9E8
100
AcDbEntity
  8
0
100
AcDbBlockBegin
  2
*D48
 70
     1
 10
0.0
 20
0.0
 30
0.0
  3
*D48
  1

  0
LINE
  5
9EB
330
9E8
100
AcDbEntity
  8
Bemassung
 62
     0
370
    -2
100
AcDbLine
 10
4928.486485086349
 20
1932.6520207964
 30
0.0
 11
4928.486485086349
 21
1885.425734390368
 31
0.0
  0
LINE
  5
9EC
330
9E8
100
AcDbEntity
  8
Bemassung
 62
     0
370
    -2
100
AcDbLine
 10
4932.486485086349
 20
1932.6520207964
 30
0.0
 11
4932.486485086349
 21
1885.425734390368
 31
0.0
  0
LINE
  5
9ED
330
9E8
100
AcDbEntity
  8
Bemassung
 62
     0
370
    -2
100
AcDbLine
 10
4925.986485086348
 20
1886.675734390368
 30
0.0
 11
4923.486485086349
 21
1886.675734390368
 31
0.0
  0
LINE
  5
9EE
330
9E8
100
AcDbEntity
  8
Bemassung
 62
     0
370
    -2
100
AcDbLine
 10
4934.986485086349
 20
1886.675734390368
 30
0.0
 11
4953.368093727288
 21
1886.675734390368
 31
0.0
  0
LINE
  5
9EF
330
9E8
100
AcDbEntity
  8
Bemassung
 62
     0
370
    -2
100
AcDbLine
 10
4928.486485086349
 20
1886.675734390368
 30
0.0
 11
4932.486485086349
 21
1886.675734390368
 31
0.0
  0
SOLID
  5
9F0
330
9E8
100
AcDbEntity
  8
Bemassung
 62
     0
100
AcDbTrace
 10
4925.986485086348
 20
1887.092401057035
 30
0.0
 11
4925.986485086348
 21
1886.259067723701
 31
0.0
 12
4928.486485086349
 22
1886.675734390368
 32
0.0
 13
4928.486485086349
 23
1886.675734390368
 33
0.0
  0
SOLID
  5
9F1
330
9E8
100
AcDbEntity
  8
Bemassung
 62
     0
100
AcDbTrace
 10
4934.986485086349
 20
1887.092401057035
 30
0.0
 11
4934.986485086349
 21
1886.259067723701
 31
0.0
 12
4932.486485086349
 22
1886.675734390368
 32
0.0
 13
4932.486485086349
 23
1886.675734390368
 33
0.0
  0
MTEXT
  5
9F2
330
9E8
100
AcDbEntity
  8
Bemassung
 62
     0
100
AcDbMText
 10
4947.449608166509
 20
1894.300734390368
 30
0.0
 40
2.5
 41
0.0
 71
     5
 72
     1
  1
{\fVerdana|b0|i0|c0|p34;\H5.6x;4}
 73
     1
 44
1.0
1001
ACAD
1000
MTEXTBEGIN
1070
    73
1070
     1
1070
    44
1040
1.0
1070
    74
1070
     0
1000
MTEXTEND
  0
POINT
  5
9F3
330
9E8
100
AcDbEntity
  8
Defpoints
 62
     0
100
AcDbPoint
 10
4928.486485086349
 20
1933.2770207964
 30
0.0
  0
POINT
  5
9F4
330
9E8
100
AcDbEntity
  8
Defpoints
 62
     0
100
AcDbPoint
 10
4932.486485086349
 20
1933.2770207964
 30
0.0
  0
POINT
  5
9F5
330
9E8
100
AcDbEntity
  8
Defpoints
 62
     0
100
AcDbPoint
 10
4932.486485086349
 20
1886.675734390368
 30
0.0
  0
ENDBLK
  5
9EA
330
9E8
100
AcDbEntity
  8
0
100
AcDbBlockEnd
  0
BLOCK
  5
9F7
330
9F6
100
AcDbEntity
  8
0
100
AcDbBlockBegin
  2
*D49
 70
     1
 10
0.0
 20
0.0
 30
0.0
  3
*D49
  1

  0
LINE
  5
9F9
330
9F6
100
AcDbEntity
  8
Bemassung
 62
     0
370
    -2
100
AcDbLine
 10
4338.351720956441
 20
1933.652020796404
 30
0.0
 11
4338.351720956441
 21
1892.41870895148
 31
0.0
  0
LINE
  5
9FA
330
9F6
100
AcDbEntity
  8
Bemassung
 62
     0
370
    -2
100
AcDbLine
 10
4523.351720956442
 20
1933.6520207964
 30
0.0
 11
4523.351720956442
 21
1892.41870895148
 31
0.0
  0
LINE
  5
9FB
330
9F6
100
AcDbEntity
  8
Bemassung
 62
     0
370
    -2
100
AcDbLine
 10
4340.851720956441
 20
1893.66870895148
 30
0.0
 11
4520.851720956442
 21
1893.66870895148
 31
0.0
  0
SOLID
  5
9FC
330
9F6
100
AcDbEntity
  8
Bemassung
 62
     0
100
AcDbTrace
 10
4340.851720956441
 20
1894.085375618146
 30
0.0
 11
4340.851720956441
 21
1893.252042284813
 31
0.0
 12
4338.351720956441
 22
1893.66870895148
 32
0.0
 13
4338.351720956441
 23
1893.66870895148
 33
0.0
  0
SOLID
  5
9FD
330
9F6
100
AcDbEntity
  8
Bemassung
 62
     0
100
AcDbTrace
 10
4520.851720956442
 20
1894.085375618146
 30
0.0
 11
4520.851720956442
 21
1893.252042284813
 31
0.0
 12
4523.351720956442
 22
1893.66870895148
 32
0.0
 13
4523.351720956442
 23
1893.66870895148
 33
0.0
  0
MTEXT
  5
9FE
330
9F6
100
AcDbEntity
  8
Bemassung
 62
     0
100
AcDbMText
 10
4430.851720956441
 20
1901.613386587477
 30
0.0
 40
2.5
 41
0.0
 71
     5
 72
     1
  1
{\fVerdana|b0|i0|c0|p34;\H5.6x;185}
 73
     1
 44
1.0
1001
ACAD
1000
MTEXTBEGIN
1070
    73
1070
     1
1070
    44
1040
1.0
1070
    74
1070
     0
1000
MTEXTEND
  0
POINT
  5
9FF
330
9F6
100
AcDbEntity
  8
Defpoints
 62
     0
100
AcDbPoint
 10
4338.351720956441
 20
1934.277020796404
 30
0.0
  0
POINT
  5
A00
330
9F6
100
AcDbEntity
  8
Defpoints
 62
     0
100
AcDbPoint
 10
4523.351720956442
 20
1934.2770207964
 30
0.0
  0
POINT
  5
A01
330
9F6
100
AcDbEntity
  8
Defpoints
 62
     0
100
AcDbPoint
 10
4523.351720956442
 20
1893.66870895148
 30
0.0
  0
ENDBLK
  5
9F8
330
9F6
100
AcDbEntity
  8
0
100
AcDbBlockEnd
  0
BLOCK
  5
A03
330
A02
100
AcDbEntity
  8
0
100
AcDbBlockBegin
  2
*D50
 70
     1
 10
0.0
 20
0.0
 30
0.0
  3
*D50
  1

  0
LINE
  5
A05
330
A02
100
AcDbEntity
  8
Bemassung
 62
     0
370
    -2
100
AcDbLine
 10
3193.351720956442
 20
1933.6520207964
 30
0.0
 11
3193.351720956442
 21
1898.225595599864
 31
0.0
  0
LINE
  5
A06
330
A02
100
AcDbEntity
  8
Bemassung
 62
     0
370
    -2
100
AcDbLine
 10
3378.351720956441
 20
1933.6520207964
 30
0.0
 11
3378.351720956441
 21
1898.225595599864
 31
0.0
  0
LINE
  5
A07
330
A02
100
AcDbEntity
  8
Bemassung
 62
     0
370
    -2
100
AcDbLine
 10
3195.851720956442
 20
1899.475595599864
 30
0.0
 11
3375.851720956442
 21
1899.475595599864
 31
0.0
  0
SOLID
  5
A08
330
A02
100
AcDbEntity
  8
Bemassung
 62
     0
100
AcDbTrace
 10
3195.851720956442
 20
1899.892262266531
 30
0.0
 11
3195.851720956442
 21
1899.058928933197
 31
0.0
 12
3193.351720956442
 22
1899.475595599864
 32
0.0
 13
3193.351720956442
 23
1899.475595599864
 33
0.0
  0
SOLID
  5
A09
330
A02
100
AcDbEntity
  8
Bemassung
 62
     0
100
AcDbTrace
 10
3375.851720956442
 20
1899.892262266531
 30
0.0
 11
3375.851720956442
 21
1899.058928933197
 31
0.0
 12
3378.351720956441
 22
1899.475595599864
 32
0.0
 13
3378.351720956441
 23
1899.475595599864
 33
0.0
  0
MTEXT
  5
A0A
330
A02
100
AcDbEntity
  8
Bemassung
 62
     0
100
AcDbMText
 10
3285.851720956442
 20
1907.420273235862
 30
0.0
 40
2.5
 41
0.0
 71
     5
 72
     1
  1
{\fVerdana|b0|i0|c0|p34;\H5.6x;185}
 73
     1
 44
1.0
1001
ACAD
1000
MTEXTBEGIN
1070
    73
1070
     1
1070
    44
1040
1.0
1070
    74
1070
     0
1000
MTEXTEND
  0
POINT
  5
A0B
330
A02
100
AcDbEntity
  8
Defpoints
 62
     0
100
AcDbPoint
 10
3193.351720956442
 20
1934.2770207964
 30
0.0
  0
POINT
  5
A0C
330
A02
100
AcDbEntity
  8
Defpoints
 62
     0
100
AcDbPoint
 10
3378.351720956441
 20
1934.2770207964
 30
0.0
  0
POINT
  5
A0D
330
A02
100
AcDbEntity
  8
Defpoints
 62
     0
100
AcDbPoint
 10
3378.351720956441
 20
1899.475595599864
 30
0.0
  0
ENDBLK
  5
A04
330
A02
100
AcDbEntity
  8
0
100
AcDbBlockEnd
  0
BLOCK
  5
A0F
330
A0E
100
AcDbEntity
  8
0
100
AcDbBlockBegin
  2
*D51
 70
     1
 10
0.0
 20
0.0
 30
0.0
  3
*D51
  1

  0
LINE
  5
A11
330
A0E
100
AcDbEntity
  8
Bemassung
 62
     0
370
    -2
100
AcDbLine
 10
4523.976720956442
 20
1934.2770207964
 30
0.0
 11
4574.012627133906
 21
1934.2770207964
 31
0.0
  0
LINE
  5
A12
330
A0E
100
AcDbEntity
  8
Bemassung
 62
     0
370
    -2
100
AcDbLine
 10
4523.976720956442
 20
2131.2770207964
 30
0.0
 11
4574.012627133907
 21
2131.2770207964
 31
0.0
  0
LINE
  5
A13
330
A0E
100
AcDbEntity
  8
Bemassung
 62
     0
370
    -2
100
AcDbLine
 10
4572.762627133906
 20
1936.7770207964
 30
0.0
 11
4572.762627133907
 21
2128.7770207964
 31
0.0
  0
SOLID
  5
A14
330
A0E
100
AcDbEntity
  8
Bemassung
 62
     0
100
AcDbTrace
 10
4572.345960467239
 20
1936.7770207964
 30
0.0
 11
4573.179293800573
 21
1936.7770207964
 31
0.0
 12
4572.762627133906
 22
1934.2770207964
 32
0.0
 13
4572.762627133906
 23
1934.2770207964
 33
0.0
  0
SOLID
  5
A15
330
A0E
100
AcDbEntity
  8
Bemassung
 62
     0
100
AcDbTrace
 10
4572.34596046724
 20
2128.7770207964
 30
0.0
 11
4573.179293800573
 21
2128.7770207964
 31
0.0
 12
4572.762627133907
 22
2131.2770207964
 32
0.0
 13
4572.762627133907
 23
2131.2770207964
 33
0.0
  0
MTEXT
  5
A16
330
A0E
100
AcDbEntity
  8
Bemassung
 62
     0
100
AcDbMText
 10
4564.846156348143
 20
2032.777020796401
 30
0.0
 40
2.5
 41
0.0
 71
     5
 72
     1
  1
{\fVerdana|b0|i0|c0|p34;\H5.6x;200}
 11
0.0000000000000001
 21
1.0
 31
0.0
 73
     1
 44
1.0
1001
ACAD
1000
MTEXTBEGIN
1070
    73
1070
     1
1070
    44
1040
1.0
1070
    74
1070
     0
1000
MTEXTEND
  0
POINT
  5
A17
330
A0E
100
AcDbEntity
  8
Defpoints
 62
     0
100
AcDbPoint
 10
4523.351720956442
 20
1934.2770207964
 30
0.0
  0
POINT
  5
A18
330
A0E
100
AcDbEntity
  8
Defpoints
 62
     0
100
AcDbPoint
 10
4523.351720956442
 20
2131.2770207964
 30
0.0
  0
POINT
  5
A19
330
A0E
100
AcDbEntity
  8
Defpoints
 62
     0
100
AcDbPoint
 10
4572.762627133907
 20
2131.2770207964
 30
0.0
  0
ENDBLK
  5
A10
330
A0E
100
AcDbEntity
  8
0
100
AcDbBlockEnd
  0
BLOCK
  5
A1B
330
A1A
100
AcDbEntity
  8
0
100
AcDbBlockBegin
  2
*D52
 70
     1
 10
0.0
 20
0.0
 30
0.0
  3
*D52
  1

  0
LINE
  5
A1D
330
A1A
100
AcDbEntity
  8
Bemassung
 62
     0
370
    -2
100
AcDbLine
 10
4523.976720956442
 20
2131.2770207964
 30
0.0
 11
4574.057752078904
 21
2131.2770207964
 31
0.0
  0
LINE
  5
A1E
330
A1A
100
AcDbEntity
  8
Bemassung
 62
     0
370
    -2
100
AcDbLine
 10
4523.976720956442
 20
2601.277020796401
 30
0.0
 11
4574.057752078904
 21
2601.277020796401
 31
0.0
  0
LINE
  5
A1F
330
A1A
100
AcDbEntity
  8
Bemassung
 62
     0
370
    -2
100
AcDbLine
 10
4572.807752078904
 20
2133.777020796401
 30
0.0
 11
4572.807752078904
 21
2598.777020796401
 31
0.0
  0
SOLID
  5
A20
330
A1A
100
AcDbEntity
  8
Bemassung
 62
     0
100
AcDbTrace
 10
4572.391085412237
 20
2133.777020796401
 30
0.0
 11
4573.224418745572
 21
2133.777020796401
 31
0.0
 12
4572.807752078904
 22
2131.2770207964
 32
0.0
 13
4572.807752078904
 23
2131.2770207964
 33
0.0
  0
SOLID
  5
A21
330
A1A
100
AcDbEntity
  8
Bemassung
 62
     0
100
AcDbTrace
 10
4572.391085412237
 20
2598.777020796401
 30
0.0
 11
4573.224418745572
 21
2598.777020796401
 31
0.0
 12
4572.807752078904
 22
2601.277020796401
 32
0.0
 13
4572.807752078904
 23
2601.277020796401
 33
0.0
  0
MTEXT
  5
A22
330
A1A
100
AcDbEntity
  8
Bemassung
 62
     0
100
AcDbMText
 10
4564.895982434847
 20
2366.277020796401
 30
0.0
 40
2.5
 41
0.0
 71
     5
 72
     1
  1
{\fVerdana|b0|i0|c0|p34;\H5.6x;470}
 11
0.0000000000000001
 21
1.0
 31
0.0
 73
     1
 44
1.0
1001
ACAD
1000
MTEXTBEGIN
1070
    73
1070
     1
1070
    44
1040
1.0
1070
    74
1070
     0
1000
MTEXTEND
  0
POINT
  5
A23
330
A1A
100
AcDbEntity
  8
Defpoints
 62
     0
100
AcDbPoint
 10
4523.351720956442
 20
2131.2770207964
 30
0.0
  0
POINT
  5
A24
330
A1A
100
AcDbEntity
  8
Defpoints
 62
     0
100
AcDbPoint
 10
4523.351720956442
 20
2601.277020796401
 30
0.0
  0
POINT
  5
A25
330
A1A
100
AcDbEntity
  8
Defpoints
 62
     0
100
AcDbPoint
 10
4572.807752078904
 20
2601.277020796401
 30
0.0
  0
ENDBLK
  5
A1C
330
A1A
100
AcDbEntity
  8
0
100
AcDbBlockEnd
  0
BLOCK
  5
A27
330
A26
100
AcDbEntity
  8
0
100
AcDbBlockBegin
  2
*D53
 70
     1
 10
0.0
 20
0.0
 30
0.0
  3
*D53
  1

  0
LINE
  5
A29
330
A26
100
AcDbEntity
  8
Bemassung
 62
     0
370
    -2
100
AcDbLine
 10
3378.351720956441
 20
2130.652020796401
 30
0.0
 11
3378.351720956441
 21
2063.752255313606
 31
0.0
  0
LINE
  5
A2A
330
A26
100
AcDbEntity
  8
Bemassung
 62
     0
370
    -2
100
AcDbLine
 10
4338.351720956441
 20
2130.652020796401
 30
0.0
 11
4338.351720956441
 21
2063.752255313606
 31
0.0
  0
LINE
  5
A2B
330
A26
100
AcDbEntity
  8
Bemassung
 62
     0
370
    -2
100
AcDbLine
 10
3380.851720956441
 20
2065.002255313606
 30
0.0
 11
4335.851720956442
 21
2065.002255313606
 31
0.0
  0
SOLID
  5
A2C
330
A26
100
AcDbEntity
  8
Bemassung
 62
     0
100
AcDbTrace
 10
3380.851720956441
 20
2065.418921980272
 30
0.0
 11
3380.851720956441
 21
2064.58558864694
 31
0.0
 12
3378.351720956441
 22
2065.002255313606
 32
0.0
 13
3378.351720956441
 23
2065.002255313606
 33
0.0
  0
SOLID
  5
A2D
330
A26
100
AcDbEntity
  8
Bemassung
 62
     0
100
AcDbTrace
 10
4335.851720956442
 20
2065.418921980272
 30
0.0
 11
4335.851720956442
 21
2064.58558864694
 31
0.0
 12
4338.351720956441
 22
2065.002255313606
 32
0.0
 13
4338.351720956441
 23
2065.002255313606
 33
0.0
  0
MTEXT
  5
A2E
330
A26
100
AcDbEntity
  8
Bemassung
 62
     0
100
AcDbMText
 10
3858.351720956442
 20
2072.914024957662
 30
0.0
 40
2.5
 41
0.0
 71
     5
 72
     1
  1
{\fVerdana|b0|i0|c0|p34;\H5.6x;960}
 73
     1
 44
1.0
1001
ACAD
1000
MTEXTBEGIN
1070
    73
1070
     1
1070
    44
1040
1.0
1070
    74
1070
     0
1000
MTEXTEND
  0
POINT
  5
A2F
330
A26
100
AcDbEntity
  8
Defpoints
 62
     0
100
AcDbPoint
 10
3378.351720956441
 20
2131.2770207964
 30
0.0
  0
POINT
  5
A30
330
A26
100
AcDbEntity
  8
Defpoints
 62
     0
100
AcDbPoint
 10
4338.351720956441
 20
2131.2770207964
 30
0.0
  0
POINT
  5
A31
330
A26
100
AcDbEntity
  8
Defpoints
 62
     0
100
AcDbPoint
 10
4338.351720956441
 20
2065.002255313606
 30
0.0
  0
ENDBLK
  5
A28
330
A26
100
AcDbEntity
  8
0
100
AcDbBlockEnd
  0
BLOCK
  5
A33
330
A32
100
AcDbEntity
  8
0
100
AcDbBlockBegin
  2
*D54
 70
     1
 10
0.0
 20
0.0
 30
0.0
  3
*D54
  1

  0
LINE
  5
A35
330
A32
100
AcDbEntity
  8
Bemassung
 62
     0
370
    -2
100
AcDbLine
 10
4828.486485086348
 20
1932.6520207964
 30
0.0
 11
4828.486485086348
 21
1904.207363320152
 31
0.0
  0
LINE
  5
A36
330
A32
100
AcDbEntity
  8
Bemassung
 62
     0
370
    -2
100
AcDbLine
 10
4928.486485086349
 20
1932.6520207964
 30
0.0
 11
4928.486485086349
 21
1904.207363320152
 31
0.0
  0
LINE
  5
A37
330
A32
100
AcDbEntity
  8
Bemassung
 62
     0
370
    -2
100
AcDbLine
 10
4830.986485086349
 20
1905.457363320152
 30
0.0
 11
4925.986485086348
 21
1905.457363320152
 31
0.0
  0
SOLID
  5
A38
330
A32
100
AcDbEntity
  8
Bemassung
 62
     0
100
AcDbTrace
 10
4830.986485086349
 20
1905.874029986819
 30
0.0
 11
4830.986485086349
 21
1905.040696653486
 31
0.0
 12
4828.486485086348
 22
1905.457363320152
 32
0.0
 13
4828.486485086348
 23
1905.457363320152
 33
0.0
  0
SOLID
  5
A39
330
A32
100
AcDbEntity
  8
Bemassung
 62
     0
100
AcDbTrace
 10
4925.986485086348
 20
1905.874029986819
 30
0.0
 11
4925.986485086348
 21
1905.040696653486
 31
0.0
 12
4928.486485086349
 22
1905.457363320152
 32
0.0
 13
4928.486485086349
 23
1905.457363320152
 33
0.0
  0
MTEXT
  5
A3A
330
A32
100
AcDbEntity
  8
Bemassung
 62
     0
100
AcDbMText
 10
4878.486485086348
 20
1913.369132964209
 30
0.0
 40
2.5
 41
0.0
 71
     5
 72
     1
  1
{\fVerdana|b0|i0|c0|p34;\H5.6x;100}
 73
     1
 44
1.0
1001
ACAD
1000
MTEXTBEGIN
1070
    73
1070
     1
1070
    44
1040
1.0
1070
    74
1070
     0
1000
MTEXTEND
  0
POINT
  5
A3B
330
A32
100
AcDbEntity
  8
Defpoints
 62
     0
100
AcDbPoint
 10
4828.486485086348
 20
1933.2770207964
 30
0.0
  0
POINT
  5
A3C
330
A32
100
AcDbEntity
  8
Defpoints
 62
     0
100
AcDbPoint
 10
4928.486485086349
 20
1933.2770207964
 30
0.0
  0
POINT
  5
A3D
330
A32
100
AcDbEntity
  8
Defpoints
 62
     0
100
AcDbPoint
 10
4928.486485086349
 20
1905.457363320152
 30
0.0
  0
ENDBLK
  5
A34
330
A32
100
AcDbEntity
  8
0
100
AcDbBlockEnd
  0
BLOCK
  5
A3F
330
A3E
100
AcDbEntity
  8
0
100
AcDbBlockBegin
  2
*D55
 70
     1
 10
0.0
 20
0.0
 30
0.0
  3
*D55
  1

  0
LINE
  5
A41
330
A3E
100
AcDbEntity
  8
Bemassung
 62
     0
370
    -2
100
AcDbLine
 10
4523.976720956442
 20
2601.277020796401
 30
0.0
 11
4574.21417623154
 21
2601.277020796401
 31
0.0
  0
LINE
  5
A42
330
A3E
100
AcDbEntity
  8
Bemassung
 62
     0
370
    -2
100
AcDbLine
 10
4523.976720956442
 20
2981.277020796401
 30
0.0
 11
4574.21417623154
 21
2981.277020796401
 31
0.0
  0
LINE
  5
A43
330
A3E
100
AcDbEntity
  8
Bemassung
 62
     0
370
    -2
100
AcDbLine
 10
4572.96417623154
 20
2603.777020796401
 30
0.0
 11
4572.96417623154
 21
2978.777020796401
 31
0.0
  0
SOLID
  5
A44
330
A3E
100
AcDbEntity
  8
Bemassung
 62
     0
100
AcDbTrace
 10
4572.547509564873
 20
2603.777020796401
 30
0.0
 11
4573.380842898207
 21
2603.777020796401
 31
0.0
 12
4572.96417623154
 22
2601.277020796401
 32
0.0
 13
4572.96417623154
 23
2601.277020796401
 33
0.0
  0
SOLID
  5
A45
330
A3E
100
AcDbEntity
  8
Bemassung
 62
     0
100
AcDbTrace
 10
4572.547509564873
 20
2978.777020796401
 30
0.0
 11
4573.380842898207
 21
2978.777020796401
 31
0.0
 12
4572.96417623154
 22
2981.277020796401
 32
0.0
 13
4572.96417623154
 23
2981.277020796401
 33
0.0
  0
MTEXT
  5
A46
330
A3E
100
AcDbEntity
  8
Bemassung
 62
     0
100
AcDbMText
 10
4565.019498595542
 20
2791.277020796401
 30
0.0
 40
2.5
 41
0.0
 71
     5
 72
     1
  1
{\fVerdana|b0|i0|c0|p34;\H5.6x;380}
 11
0.0000000000000001
 21
1.0
 31
0.0
 73
     1
 44
1.0
1001
ACAD
1000
MTEXTBEGIN
1070
    73
1070
     1
1070
    44
1040
1.0
1070
    74
1070
     0
1000
MTEXTEND
  0
POINT
  5
A47
330
A3E
100
AcDbEntity
  8
Defpoints
 62
     0
100
AcDbPoint
 10
4523.351720956442
 20
2601.277020796401
 30
0.0
  0
POINT
  5
A48
330
A3E
100
AcDbEntity
  8
Defpoints
 62
     0
100
AcDbPoint
 10
4523.351720956442
 20
2981.277020796401
 30
0.0
  0
POINT
  5
A49
330
A3E
100
AcDbEntity
  8
Defpoints
 62
     0
100
AcDbPoint
 10
4572.96417623154
 20
2981.277020796401
 30
0.0
  0
ENDBLK
  5
A40
330
A3E
100
AcDbEntity
  8
0
100
AcDbBlockEnd
  0
ENDSEC
  0
SECTION
  2
ENTITIES
  0
LWPOLYLINE
  5
93A
330
1F
100
AcDbEntity
  8
0
100
AcDbPolyline
 90
        4
 70
     1
 43
0.0
 10
3021.961415110429
 20
3121.088842312924
 10
5132.884125189256
 20
3121.088842312924
 10
5132.884125189256
 20
1500.026022971569
 10
3021.961415110429
 20
1500.026022971569
1001
GENIUS_GENREC_14
1002
{
1000
PYDIR
1011
3021.961415110429
1021
1500.026022971569
1031
0.0
1002
}
1002
{
1000
PXDIR
1011
5132.884125189256
1021
3121.088842312924
1031
0.0
1002
}
1002
{
1000
PORI
1011
3021.961415110429
1021
3121.088842312924
1031
0.0
1002
}
1002
{
1000
PINS
1011
3021.961415110429
1021
3121.088842312924
1031
0.0
1002
}
1002
{
1000
PINS2
1011
5132.884125189256
1021
1500.026022971569
1031
0.0
1002
}
1002
{
1000
C
1070
     1
1002
}
1001
GENIUS_GENODEF_13
1002
{
1000
HIER
1070
     0
1002
}
1002
{
1000
MANEDIT
1070
     0
1002
}
1002
{
1000
NOSEL
1070
     0
1002
}
1002
{
1000
BEHIND
1070
     0
1002
}
1002
{
1000
OTHER
1070
     0
1002
}
1002
{
1000
REACTOR
1002
}
1001
GENIUS_GENOBJ-N-REC_13
1002
{
1000
OWNER
1000
GEN
1002
}
  0
TEXT
  5
93B
330
1F
100
AcDbEntity
  8
0
100
AcDbText
 10
4412.880762421304
 20
1613.774316830773
 30
0.0
 40
28.0
  1
MEAFIX Montagedämmplatte
 41
0.9
  7
ARIAL
100
AcDbText
  0
LINE
  5
93C
330
1F
100
AcDbEntity
  8
0
100
AcDbLine
 10
4995.058932499985
 20
1675.400169034556
 30
0.0
 11
5132.884125189256
 21
1675.400169034556
 31
0.0
  0
TEXT
  5
93D
330
1F
100
AcDbEntity
  8
0
100
AcDbText
 10
5020.630013566555
 20
1613.774316830773
 30
0.0
 40
28.0
  1
M 1:1
  7
ARIAL
100
AcDbText
  0
LINE
  5
93E
330
1F
100
AcDbEntity
  8
0
100
AcDbLine
 10
4995.058932499985
 20
1675.400169034556
 30
0.0
 11
4359.581270312734
 21
1675.400169034556
 31
0.0
  0
LINE
  5
93F
330
1F
100
AcDbEntity
  8
0
100
AcDbLine
 10
4359.581270312734
 20
1675.400169034556
 30
0.0
 11
4359.581270312734
 21
1500.026022971569
 31
0.0
  0
LINE
  5
940
330
1F
100
AcDbEntity
  8
0
100
AcDbLine
 10
4995.058932499985
 20
1587.713096003064
 30
0.0
 11
5132.884125189256
 21
1587.713096003064
 31
0.0
  0
LINE
  5
941
330
1F
100
AcDbEntity
  8
0
100
AcDbLine
 10
4995.058932499985
 20
1675.400169034556
 30
0.0
 11
4995.058932499985
 21
1500.026022971569
 31
0.0
  0
TEXT
  5
942
330
1F
100
AcDbEntity
  8
0
100
AcDbText
 10
4412.880762421304
 20
1549.670286890725
 30
0.0
 40
28.0
  1
Typ 100x50
 41
0.9
  7
ARIAL
100
AcDbText
  0
LINE
  5
943
102
{ACAD_REACTORS
330
9D9
102
}
330
1F
100
AcDbEntity
  8
Sichtbare Kanten(DIN)
100
AcDbLine
 10
4523.351720956442
 20
1934.2770207964
 30
0.0
 11
3193.351720956442
 21
1934.2770207964
 31
0.0
  0
LINE
  5
944
102
{ACAD_REACTORS
330
9DC
102
}
330
1F
100
AcDbEntity
  8
Sichtbare Kanten(DIN)
100
AcDbLine
 10
3193.351720956442
 20
2981.277020796401
 30
0.0
 11
3193.351720956442
 21
1934.2770207964
 31
0.0
  0
LINE
  5
945
102
{ACAD_REACTORS
330
96B
102
}
330
1F
100
AcDbEntity
  8
Sichtbare Kanten(DIN)
100
AcDbLine
 10
4523.351720956442
 20
2981.277020796401
 30
0.0
 11
4523.351720956442
 21
1934.2770207964
 31
0.0
  0
LINE
  5
946
102
{ACAD_REACTORS
330
96B
330
96E
102
}
330
1F
100
AcDbEntity
  8
Sichtbare Kanten(DIN)
100
AcDbLine
 10
4523.351720956442
 20
2131.2770207964
 30
0.0
 11
3193.351720956442
 21
2131.277020796404
 31
0.0
  0
LINE
  5
947
102
{ACAD_REACTORS
330
96E
330
9B1
102
}
330
1F
100
AcDbEntity
  8
Sichtbare Kanten(DIN)
100
AcDbLine
 10
4523.351720956442
 20
2601.277020796401
 30
0.0
 11
3193.351720956442
 21
2601.277020796401
 31
0.0
  0
LINE
  5
948
330
1F
100
AcDbEntity
  8
Sichtbare Kanten(DIN)
100
AcDbLine
 10
4523.351720956442
 20
2981.277020796401
 30
0.0
 11
3193.351720956442
 21
2981.277020796401
 31
0.0
  0
LINE
  5
949
102
{ACAD_REACTORS
330
971
102
}
330
1F
100
AcDbEntity
  8
Sichtbare Kanten(DIN)
100
AcDbLine
 10
4338.351720956441
 20
2601.277020796401
 30
0.0
 11
4338.351720956441
 21
2131.2770207964
 31
0.0
  0
LINE
  5
94A
102
{ACAD_REACTORS
330
971
102
}
330
1F
100
AcDbEntity
  8
Sichtbare Kanten(DIN)
100
AcDbLine
 10
3378.351720956441
 20
2601.277020796401
 30
0.0
 11
3378.351720956441
 21
2131.2770207964
 31
0.0
  0
CIRCLE
  5
94B
330
1F
100
AcDbEntity
  8
Bemassung
100
AcDbCircle
 10
4417.351576344252
 20
2567.2770207964
 30
0.0
 40
15.0
  0
CIRCLE
  5
94C
330
1F
100
AcDbEntity
  8
Bemassung
100
AcDbCircle
 10
3299.352013659558
 20
2567.27696118783
 30
0.0
 40
15.0
  0
LINE
  5
94D
330
1F
100
AcDbEntity
  8
Bemassung
100
AcDbLine
 10
4414.851576344251
 20
2567.2770207964
 30
0.0
 11
4419.851576344252
 21
2567.2770207964
 31
0.0
  0
LINE
  5
94E
330
1F
100
AcDbEntity
  8
Bemassung
100
AcDbLine
 10
4417.351576344252
 20
2564.7770207964
 30
0.0
 11
4417.351576344252
 21
2569.777020796401
 31
0.0
  0
LINE
  5
94F
330
1F
100
AcDbEntity
  8
Bemassung
100
AcDbLine
 10
3296.852013659558
 20
2567.27696118783
 30
0.0
 11
3301.852013659559
 21
2567.27696118783
 31
0.0
  0
LINE
  5
950
330
1F
100
AcDbEntity
  8
Bemassung
100
AcDbLine
 10
3299.352013659558
 20
2564.77696118783
 30
0.0
 11
3299.352013659558
 21
2569.776961187831
 31
0.0
  0
CIRCLE
  5
951
330
1F
100
AcDbEntity
  8
VEKA_HATCH
100
AcDbCircle
 10
4417.351576344252
 20
2292.2770207964
 30
0.0
 40
15.0
  0
CIRCLE
  5
952
330
1F
100
AcDbEntity
  8
VEKA_HATCH
100
AcDbCircle
 10
3299.352013659558
 20
2292.27696118783
 30
0.0
 40
15.0
  0
CIRCLE
  5
953
330
1F
100
AcDbEntity
  8
VEKA_HATCH
100
AcDbCircle
 10
3299.35196402187
 20
2740.276920829472
 30
0.0
 40
15.0
  0
CIRCLE
  5
954
330
1F
100
AcDbEntity
  8
VEKA_HATCH
100
AcDbCircle
 10
4417.351537964754
 20
2740.277294784652
 30
0.0
 40
15.0
  0
LINE
  5
955
330
1F
100
AcDbEntity
  8
VEKA_HATCH
100
AcDbLine
 10
4414.851537964754
 20
2740.277294784652
 30
0.0
 11
4419.851537964754
 21
2740.277294784652
 31
0.0
  0
LINE
  5
956
330
1F
100
AcDbEntity
  8
VEKA_HATCH
100
AcDbLine
 10
4417.351537964754
 20
2737.777294784652
 30
0.0
 11
4417.351537964754
 21
2742.777294784652
 31
0.0
  0
LINE
  5
957
330
1F
100
AcDbEntity
  8
VEKA_HATCH
100
AcDbLine
 10
4414.851576344251
 20
2292.2770207964
 30
0.0
 11
4419.851576344252
 21
2292.2770207964
 31
0.0
  0
LINE
  5
958
330
1F
100
AcDbEntity
  8
VEKA_HATCH
100
AcDbLine
 10
4417.351576344252
 20
2289.7770207964
 30
0.0
 11
4417.351576344252
 21
2294.7770207964
 31
0.0
  0
LINE
  5
959
330
1F
100
AcDbEntity
  8
VEKA_HATCH
100
AcDbLine
 10
3296.852013659558
 20
2292.27696118783
 30
0.0
 11
3301.852013659559
 21
2292.27696118783
 31
0.0
  0
LINE
  5
95A
330
1F
100
AcDbEntity
  8
VEKA_HATCH
100
AcDbLine
 10
3299.352013659558
 20
2289.77696118783
 30
0.0
 11
3299.352013659558
 21
2294.77696118783
 31
0.0
  0
LINE
  5
95B
330
1F
100
AcDbEntity
  8
VEKA_HATCH
100
AcDbLine
 10
3296.85196402187
 20
2740.276920829472
 30
0.0
 11
3301.851964021869
 21
2740.276920829472
 31
0.0
  0
LINE
  5
95C
330
1F
100
AcDbEntity
  8
VEKA_HATCH
100
AcDbLine
 10
3299.35196402187
 20
2737.776920829472
 30
0.0
 11
3299.35196402187
 21
2742.776920829472
 31
0.0
  0
CIRCLE
  5
95D
330
1F
100
AcDbEntity
  8
PAPER
 48
0.3
370
    25
100
AcDbCircle
 10
4417.351576344252
 20
2084.277020796401
 30
0.0
 40
15.0
  0
CIRCLE
  5
95E
330
1F
100
AcDbEntity
  8
PAPER
 48
0.3
370
    25
100
AcDbCircle
 10
3299.352013659558
 20
2084.27696118783
 30
0.0
 40
15.0
  0
CIRCLE
  5
95F
330
1F
100
AcDbEntity
  8
PAPER
 48
0.3
370
    25
100
AcDbCircle
 10
3299.35196402187
 20
2472.276920829472
 30
0.0
 40
15.0
  0
CIRCLE
  5
960
330
1F
100
AcDbEntity
  8
PAPER
 48
0.3
370
    25
100
AcDbCircle
 10
4417.351537964754
 20
2472.277294784652
 30
0.0
 40
15.0
  0
LINE
  5
961
330
1F
100
AcDbEntity
  8
PAPER
 48
0.3
370
    25
100
AcDbLine
 10
4414.851537964754
 20
2472.277294784652
 30
0.0
 11
4419.851537964754
 21
2472.277294784652
 31
0.0
  0
LINE
  5
962
330
1F
100
AcDbEntity
  8
PAPER
 48
0.3
370
    25
100
AcDbLine
 10
4417.351537964754
 20
2469.777294784652
 30
0.0
 11
4417.351537964754
 21
2474.777294784652
 31
0.0
  0
LINE
  5
963
330
1F
100
AcDbEntity
  8
PAPER
 48
0.3
370
    25
100
AcDbLine
 10
4414.851576344251
 20
2084.277020796401
 30
0.0
 11
4419.851576344252
 21
2084.277020796401
 31
0.0
  0
LINE
  5
964
330
1F
100
AcDbEntity
  8
PAPER
 48
0.3
370
    25
100
AcDbLine
 10
4417.351576344252
 20
2081.7770207964
 30
0.0
 11
4417.351576344252
 21
2086.7770207964
 31
0.0
  0
LINE
  5
965
330
1F
100
AcDbEntity
  8
PAPER
 48
0.3
370
    25
100
AcDbLine
 10
3296.852013659558
 20
2084.27696118783
 30
0.0
 11
3301.852013659559
 21
2084.27696118783
 31
0.0
  0
LINE
  5
966
330
1F
100
AcDbEntity
  8
PAPER
 48
0.3
370
    25
100
AcDbLine
 10
3299.352013659558
 20
2081.77696118783
 30
0.0
 11
3299.352013659558
 21
2086.77696118783
 31
0.0
  0
LINE
  5
967
330
1F
100
AcDbEntity
  8
PAPER
 48
0.3
370
    25
100
AcDbLine
 10
3296.85196402187
 20
2472.276920829472
 30
0.0
 11
3301.851964021869
 21
2472.276920829472
 31
0.0
  0
LINE
  5
968
330
1F
100
AcDbEntity
  8
PAPER
 48
0.3
370
    25
100
AcDbLine
 10
3299.35196402187
 20
2469.776920829473
 30
0.0
 11
3299.35196402187
 21
2474.776920829472
 31
0.0
  0
DIMENSION
  5
969
102
{ACAD_XDICTIONARY
360
96A
102
}
102
{ACAD_REACTORS
330
96B
102
}
330
1F
100
AcDbEntity
  8
Bemassung
100
AcDbDimension
  2
*D51
 10
4572.762627133907
 20
2131.2770207964
 30
0.0
 11
4564.846156348143
 21
2032.777020796401
 31
0.0
 70
    32
  1
{\fVerdana|b0|i0|c0|p34;\H5.6x;200}
 71
     5
 42
197.0
  3
ISO-25
100
AcDbAlignedDimension
 13
4523.351720956442
 23
1934.2770207964
 33
0.0
 14
4523.351720956442
 24
2131.2770207964
 34
0.0
 50
90.0
100
AcDbRotatedDimension
  0
DIMENSION
  5
96C
102
{ACAD_XDICTIONARY
360
96D
102
}
102
{ACAD_REACTORS
330
96E
102
}
330
1F
100
AcDbEntity
  8
Bemassung
100
AcDbDimension
  2
*D52
 10
4572.807752078904
 20
2601.277020796401
 30
0.0
 11
4564.895982434847
 21
2366.277020796401
 31
0.0
 70
    32
  1
{\fVerdana|b0|i0|c0|p34;\H5.6x;470}
 71
     5
 42
470.0
  3
ISO-25
100
AcDbAlignedDimension
 13
4523.351720956442
 23
2131.2770207964
 33
0.0
 14
4523.351720956442
 24
2601.277020796401
 34
0.0
 50
90.0
100
AcDbRotatedDimension
  0
DIMENSION
  5
96F
102
{ACAD_XDICTIONARY
360
970
102
}
102
{ACAD_REACTORS
330
971
102
}
330
1F
100
AcDbEntity
  8
Bemassung
100
AcDbDimension
  2
*D53
 10
4338.351720956441
 20
2065.002255313606
 30
0.0
 11
3858.351720956442
 21
2072.914024957662
 31
0.0
 70
    32
  1
{\fVerdana|b0|i0|c0|p34;\H5.6x;960}
 71
     5
 42
960.0
  3
ISO-25
100
AcDbAlignedDimension
 13
3378.351720956441
 23
2131.2770207964
 33
0.0
 14
4338.351720956441
 24
2131.2770207964
 34
0.0
100
AcDbRotatedDimension
1001
ACAD
1000
DSTYLE
1002
{
1070
    47
1040
2.0
1070
    48
1040
2.0
1070
    71
1070
     1
1002
}
  0
LINE
  5
972
330
1F
100
AcDbEntity
  8
Sichtbare Kanten(DIN)
100
AcDbLine
 10
4828.486485086348
 20
2981.277020796401
 30
0.0
 11
4932.486485086349
 21
2981.277020796401
 31
0.0
  0
LINE
  5
973
102
{ACAD_REACTORS
330
9AE
102
}
330
1F
100
AcDbEntity
  8
Sichtbare Kanten(DIN)
100
AcDbLine
 10
4828.486485086348
 20
2981.277020796401
 30
0.0
 11
4828.486485086348
 21
1933.2770207964
 31
0.0
  0
LINE
  5
974
102
{ACAD_REACTORS
330
9D6
102
}
330
1F
100
AcDbEntity
  8
Sichtbare Kanten(DIN)
100
AcDbLine
 10
4928.486485086349
 20
2981.277020796401
 30
0.0
 11
4928.486485086349
 21
1933.2770207964
 31
0.0
  0
LINE
  5
975
330
1F
100
AcDbEntity
  8
Sichtbare Kanten(DIN)
100
AcDbLine
 10
4932.486485086349
 20
2981.277020796401
 30
0.0
 11
4932.486485086349
 21
1933.2770207964
 31
0.0
  0
LINE
  5
976
102
{ACAD_REACTORS
330
9D6
102
}
330
1F
100
AcDbEntity
  8
Sichtbare Kanten(DIN)
100
AcDbLine
 10
4828.486485086348
 20
1933.2770207964
 30
0.0
 11
4932.486485086349
 21
1933.2770207964
 31
0.0
  0
LINE
  5
977
330
1F
100
AcDbEntity
  8
Sichtbare Kanten(DIN)
100
AcDbLine
 10
4828.486485086348
 20
2131.2770207964
 30
0.0
 11
4932.486485086349
 21
2131.2770207964
 31
0.0
  0
LINE
  5
978
330
1F
100
AcDbEntity
  8
Sichtbare Kanten(DIN)
100
AcDbLine
 10
4828.486485086348
 20
2601.277020796401
 30
0.0
 11
4932.486485086349
 21
2601.277020796401
 31
0.0
  0
ARC
  5
979
330
1F
100
AcDbEntity
  8
Mittellinie
 48
0.3
370
    25
100
AcDbCircle
 10
4848.486485086349
 20
2601.277020796401
 30
0.0
 40
20.0
100
AcDbArc
 50
69.20342833948128
 51
180.0
  0
LINE
  5
97A
330
1F
100
AcDbEntity
  8
Mittellinie
 48
0.3
370
    25
100
AcDbLine
 10
4855.587505600776
 20
2619.973959253099
 30
0.0
 11
4901.385464571908
 21
2602.580082339702
 31
0.0
  0
ARC
  5
97B
330
1F
100
AcDbEntity
  8
Mittellinie
 48
0.3
370
    25
100
AcDbCircle
 10
4848.486485086349
 20
2681.277020796401
 30
0.0
 40
20.0
100
AcDbArc
 50
69.20342833948128
 51
290.7965716605187
  0
ARC
  5
97C
330
1F
100
AcDbEntity
  8
Mittellinie
 48
0.3
370
    25
100
AcDbCircle
 10
4908.486485086349
 20
2661.277020796401
 30
0.0
 40
20.0
100
AcDbArc
 50
249.2034283394813
 51
110.7965716605187
  0
LINE
  5
97D
330
1F
100
AcDbEntity
  8
Mittellinie
 48
0.3
370
    25
100
AcDbLine
 10
4855.587505600776
 20
2662.580082339702
 30
0.0
 11
4901.385464571908
 21
2679.973959253099
 31
0.0
  0
LINE
  5
97E
330
1F
100
AcDbEntity
  8
Mittellinie
 48
0.3
370
    25
100
AcDbLine
 10
4855.587505600776
 20
2699.973959253099
 30
0.0
 11
4901.385464571908
 21
2682.580082339702
 31
0.0
  0
ARC
  5
97F
330
1F
100
AcDbEntity
  8
Mittellinie
 48
0.3
370
    25
100
AcDbCircle
 10
4848.486485086349
 20
2721.277020796401
 30
0.0
 40
20.0
100
AcDbArc
 50
69.20342833948128
 51
290.7965716605187
  0
ARC
  5
980
330
1F
100
AcDbEntity
  8
Mittellinie
 48
0.3
370
    25
100
AcDbCircle
 10
4908.486485086349
 20
2701.2770207964
 30
0.0
 40
20.0
100
AcDbArc
 50
249.2034283394813
 51
110.7965716605187
  0
LINE
  5
981
330
1F
100
AcDbEntity
  8
Mittellinie
 48
0.3
370
    25
100
AcDbLine
 10
4855.587505600776
 20
2702.580082339702
 30
0.0
 11
4901.385464571908
 21
2719.973959253099
 31
0.0
  0
LINE
  5
982
330
1F
100
AcDbEntity
  8
Mittellinie
 48
0.3
370
    25
100
AcDbLine
 10
4855.587505600776
 20
2739.973959253099
 30
0.0
 11
4901.385464571908
 21
2722.580082339702
 31
0.0
  0
ARC
  5
983
330
1F
100
AcDbEntity
  8
Mittellinie
 48
0.3
370
    25
100
AcDbCircle
 10
4848.486485086349
 20
2801.2770207964
 30
0.0
 40
20.0
100
AcDbArc
 50
69.20342833948128
 51
290.7965716605187
  0
ARC
  5
984
330
1F
100
AcDbEntity
  8
Mittellinie
 48
0.3
370
    25
100
AcDbCircle
 10
4908.486485086349
 20
2781.2770207964
 30
0.0
 40
20.0
100
AcDbArc
 50
249.2034283394813
 51
110.7965716605187
  0
LINE
  5
985
330
1F
100
AcDbEntity
  8
Mittellinie
 48
0.3
370
    25
100
AcDbLine
 10
4855.587505600776
 20
2782.580082339702
 30
0.0
 11
4901.385464571908
 21
2799.973959253099
 31
0.0
  0
LINE
  5
986
330
1F
100
AcDbEntity
  8
Mittellinie
 48
0.3
370
    25
100
AcDbLine
 10
4855.587505600776
 20
2819.973959253099
 30
0.0
 11
4901.385464571908
 21
2802.580082339702
 31
0.0
  0
ARC
  5
987
330
1F
100
AcDbEntity
  8
Mittellinie
 48
0.3
370
    25
100
AcDbCircle
 10
4848.486485086349
 20
2841.277020796401
 30
0.0
 40
20.0
100
AcDbArc
 50
69.20342833948128
 51
290.7965716605187
  0
ARC
  5
988
330
1F
100
AcDbEntity
  8
Mittellinie
 48
0.3
370
    25
100
AcDbCircle
 10
4908.486485086349
 20
2821.277020796401
 30
0.0
 40
20.0
100
AcDbArc
 50
249.2034283394813
 51
110.7965716605187
  0
LINE
  5
989
330
1F
100
AcDbEntity
  8
Mittellinie
 48
0.3
370
    25
100
AcDbLine
 10
4855.587505600776
 20
2822.580082339703
 30
0.0
 11
4901.385464571908
 21
2839.973959253099
 31
0.0
  0
LINE
  5
98A
330
1F
100
AcDbEntity
  8
Mittellinie
 48
0.3
370
    25
100
AcDbLine
 10
4855.587505600776
 20
2859.973959253099
 30
0.0
 11
4901.385464571908
 21
2842.580082339702
 31
0.0
  0
ARC
  5
98B
330
1F
100
AcDbEntity
  8
Mittellinie
 48
0.3
370
    25
100
AcDbCircle
 10
4908.486485086349
 20
2861.2770207964
 30
0.0
 40
20.0
100
AcDbArc
 50
249.2034283394813
 51
110.7965716605187
  0
LINE
  5
98C
330
1F
100
AcDbEntity
  8
Mittellinie
 48
0.3
370
    25
100
AcDbLine
 10
4855.587505600776
 20
2862.580082339702
 30
0.0
 11
4901.385464571908
 21
2879.973959253099
 31
0.0
  0
LINE
  5
98D
330
1F
100
AcDbEntity
  8
Mittellinie
 48
0.3
370
    25
100
AcDbLine
 10
4855.587505600776
 20
2739.973959253099
 30
0.0
 11
4901.385464571908
 21
2722.580082339702
 31
0.0
  0
ARC
  5
98E
330
1F
100
AcDbEntity
  8
Mittellinie
 48
0.3
370
    25
100
AcDbCircle
 10
4848.486485086349
 20
2761.277020796401
 30
0.0
 40
20.0
100
AcDbArc
 50
69.20342833948128
 51
290.7965716605187
  0
ARC
  5
98F
330
1F
100
AcDbEntity
  8
Mittellinie
 48
0.3
370
    25
100
AcDbCircle
 10
4908.486485086349
 20
2741.277020796401
 30
0.0
 40
20.0
100
AcDbArc
 50
249.2034283394813
 51
110.7965716605187
  0
LINE
  5
990
330
1F
100
AcDbEntity
  8
Mittellinie
 48
0.3
370
    25
100
AcDbLine
 10
4855.587505600776
 20
2742.580082339702
 30
0.0
 11
4901.385464571908
 21
2759.973959253099
 31
0.0
  0
LINE
  5
991
330
1F
100
AcDbEntity
  8
Mittellinie
 48
0.3
370
    25
100
AcDbLine
 10
4855.587505600776
 20
2779.973959253099
 30
0.0
 11
4901.385464571908
 21
2762.580082339702
 31
0.0
  0
ARC
  5
992
330
1F
100
AcDbEntity
  8
Mittellinie
 48
0.3
370
    25
100
AcDbCircle
 10
4848.486485086349
 20
2641.277020796401
 30
0.0
 40
20.0
100
AcDbArc
 50
69.20342833948128
 51
290.7965716605187
  0
ARC
  5
993
330
1F
100
AcDbEntity
  8
Mittellinie
 48
0.3
370
    25
100
AcDbCircle
 10
4908.486485086349
 20
2621.277020796401
 30
0.0
 40
20.0
100
AcDbArc
 50
249.2034283394813
 51
110.7965716605187
  0
LINE
  5
994
330
1F
100
AcDbEntity
  8
Mittellinie
 48
0.3
370
    25
100
AcDbLine
 10
4855.587505600776
 20
2622.580082339702
 30
0.0
 11
4901.385464571908
 21
2639.973959253099
 31
0.0
  0
LINE
  5
995
330
1F
100
AcDbEntity
  8
Mittellinie
 48
0.3
370
    25
100
AcDbLine
 10
4855.587505600776
 20
2659.973959253099
 30
0.0
 11
4901.385464571908
 21
2642.580082339702
 31
0.0
  0
ARC
  5
996
330
1F
100
AcDbEntity
  8
Mittellinie
 48
0.3
370
    25
100
AcDbCircle
 10
4848.486485086349
 20
1951.2770207964
 30
0.0
 40
20.0
100
AcDbArc
 50
69.20342833948128
 51
244.1580672368807
  0
ARC
  5
997
330
1F
100
AcDbEntity
  8
Mittellinie
 48
0.3
370
    25
100
AcDbCircle
 10
4908.486485086349
 20
1931.2770207964
 30
0.0
 40
20.0
100
AcDbArc
 50
5.739170477379669
 51
110.7965716605187
  0
LINE
  5
998
330
1F
100
AcDbEntity
  8
Mittellinie
 48
0.3
370
    25
100
AcDbLine
 10
4857.422539791496
 20
1933.2770207964
 30
0.0
 11
4901.385464571908
 21
1949.973959253098
 31
0.0
  0
LINE
  5
999
330
1F
100
AcDbEntity
  8
Mittellinie
 48
0.3
370
    25
100
AcDbLine
 10
4855.587505600776
 20
1969.973959253098
 30
0.0
 11
4901.385464571908
 21
1952.580082339702
 31
0.0
  0
ARC
  5
99A
330
1F
100
AcDbEntity
  8
Mittellinie
 48
0.3
370
    25
100
AcDbCircle
 10
4848.486485086349
 20
2031.2770207964
 30
0.0
 40
20.0
100
AcDbArc
 50
69.20342833948128
 51
290.7965716605187
  0
ARC
  5
99B
330
1F
100
AcDbEntity
  8
Mittellinie
 48
0.3
370
    25
100
AcDbCircle
 10
4908.486485086349
 20
2011.2770207964
 30
0.0
 40
20.0
100
AcDbArc
 50
249.2034283394813
 51
110.7965716605187
  0
LINE
  5
99C
330
1F
100
AcDbEntity
  8
Mittellinie
 48
0.3
370
    25
100
AcDbLine
 10
4855.587505600776
 20
2012.580082339702
 30
0.0
 11
4901.385464571908
 21
2029.973959253099
 31
0.0
  0
LINE
  5
99D
330
1F
100
AcDbEntity
  8
Mittellinie
 48
0.3
370
    25
100
AcDbLine
 10
4855.587505600776
 20
2049.973959253099
 30
0.0
 11
4901.385464571908
 21
2032.580082339702
 31
0.0
  0
ARC
  5
99E
330
1F
100
AcDbEntity
  8
Mittellinie
 48
0.3
370
    25
100
AcDbCircle
 10
4848.486485086349
 20
2071.277020796401
 30
0.0
 40
20.0
100
AcDbArc
 50
69.20342833948128
 51
290.7965716605187
  0
ARC
  5
99F
330
1F
100
AcDbEntity
  8
Mittellinie
 48
0.3
370
    25
100
AcDbCircle
 10
4908.486485086349
 20
2051.2770207964
 30
0.0
 40
20.0
100
AcDbArc
 50
249.2034283394813
 51
110.7965716605187
  0
LINE
  5
9A0
330
1F
100
AcDbEntity
  8
Mittellinie
 48
0.3
370
    25
100
AcDbLine
 10
4855.587505600776
 20
2052.580082339702
 30
0.0
 11
4901.385464571908
 21
2069.973959253099
 31
0.0
  0
LINE
  5
9A1
330
1F
100
AcDbEntity
  8
Mittellinie
 48
0.3
370
    25
100
AcDbLine
 10
4855.587505600776
 20
2089.973959253099
 30
0.0
 11
4901.385464571908
 21
2072.580082339702
 31
0.0
  0
ARC
  5
9A2
330
1F
100
AcDbEntity
  8
Mittellinie
 48
0.3
370
    25
100
AcDbCircle
 10
4848.486485086349
 20
2111.2770207964
 30
0.0
 40
20.0
100
AcDbArc
 50
69.20342833948128
 51
290.7965716605187
  0
ARC
  5
9A3
330
1F
100
AcDbEntity
  8
Mittellinie
 48
0.3
370
    25
100
AcDbCircle
 10
4908.486485086349
 20
2091.2770207964
 30
0.0
 40
20.0
100
AcDbArc
 50
249.2034283394813
 51
110.7965716605187
  0
LINE
  5
9A4
330
1F
100
AcDbEntity
  8
Mittellinie
 48
0.3
370
    25
100
AcDbLine
 10
4855.587505600776
 20
2092.580082339702
 30
0.0
 11
4901.385464571908
 21
2109.973959253099
 31
0.0
  0
LINE
  5
9A5
330
1F
100
AcDbEntity
  8
Mittellinie
 48
0.3
370
    25
100
AcDbLine
 10
4855.587505600776
 20
2129.973959253099
 30
0.0
 11
4901.385464571908
 21
2112.580082339702
 31
0.0
  0
ARC
  5
9A6
330
1F
100
AcDbEntity
  8
Mittellinie
 48
0.3
370
    25
100
AcDbCircle
 10
4908.486485086349
 20
2131.2770207964
 30
0.0
 40
20.0
100
AcDbArc
 50
249.2034283394813
 51
0.0
  0
LINE
  5
9A7
330
1F
100
AcDbEntity
  8
Mittellinie
 48
0.3
370
    25
100
AcDbLine
 10
4855.587505600776
 20
1969.973959253098
 30
0.0
 11
4901.385464571908
 21
1952.580082339702
 31
0.0
  0
ARC
  5
9A8
330
1F
100
AcDbEntity
  8
Mittellinie
 48
0.3
370
    25
100
AcDbCircle
 10
4848.486485086349
 20
1991.2770207964
 30
0.0
 40
20.0
100
AcDbArc
 50
69.20342833948128
 51
290.7965716605187
  0
ARC
  5
9A9
330
1F
100
AcDbEntity
  8
Mittellinie
 48
0.3
370
    25
100
AcDbCircle
 10
4908.486485086349
 20
1971.2770207964
 30
0.0
 40
20.0
100
AcDbArc
 50
249.2034283394813
 51
110.7965716605187
  0
LINE
  5
9AA
330
1F
100
AcDbEntity
  8
Mittellinie
 48
0.3
370
    25
100
AcDbLine
 10
4855.587505600776
 20
1972.580082339702
 30
0.0
 11
4901.385464571908
 21
1989.973959253099
 31
0.0
  0
LINE
  5
9AB
330
1F
100
AcDbEntity
  8
Mittellinie
 48
0.3
370
    25
100
AcDbLine
 10
4855.587505600776
 20
2009.973959253099
 30
0.0
 11
4901.385464571908
 21
1992.580082339702
 31
0.0
  0
DIMENSION
  5
9AC
102
{ACAD_XDICTIONARY
360
9AD
102
}
102
{ACAD_REACTORS
330
9AE
102
}
330
1F
100
AcDbEntity
  8
Bemassung
100
AcDbDimension
  2
*D54
 10
4928.486485086349
 20
1905.457363320152
 30
0.0
 11
4878.486485086348
 21
1905.457363320152
 31
0.0
 70
   160
  1
{\fVerdana|b0|i0|c0|p34;\H5.6x;<>}
 71
     5
 42
100.0
  3
ISO-25
100
AcDbAlignedDimension
 13
4828.486485086348
 23
1933.2770207964
 33
0.0
 14
4928.486485086349
 24
1933.2770207964
 34
0.0
100
AcDbRotatedDimension
  0
DIMENSION
  5
9AF
102
{ACAD_XDICTIONARY
360
9B0
102
}
102
{ACAD_REACTORS
330
9B1
102
}
330
1F
100
AcDbEntity
  8
Bemassung
100
AcDbDimension
  2
*D55
 10
4572.96417623154
 20
2981.277020796401
 30
0.0
 11
4565.019498595542
 21
2791.277020796401
 31
0.0
 70
    32
  1
{\fVerdana|b0|i0|c0|p34;\H5.6x;380}
 71
     5
 42
380.0
  3
ISO-25
100
AcDbAlignedDimension
 13
4523.351720956442
 23
2601.277020796401
 33
0.0
 14
4523.351720956442
 24
2981.277020796401
 34
0.0
 50
90.0
100
AcDbRotatedDimension
1001
ACAD_DSTYLE_DIMINSPECT
1070
   396
1000
100%
1070
   395
1000

1070
   394
1070
    33
1070
   393
1070
     0
  0
CIRCLE
  5
9B2
330
1F
100
AcDbEntity
  8
VEKA_PVC_SASH
  6
Continuous
 62
     7
100
AcDbCircle
 10
3314.352013659558
 20
2131.2770207964
 30
0.0
 40
15.0
  0
CIRCLE
  5
9B3
330
1F
100
AcDbEntity
  8
VEKA_PVC_SASH
  6
Continuous
 62
     7
100
AcDbCircle
 10
4402.350528590916
 20
2131.277846796404
 30
0.0
 40
15.0
  0
CIRCLE
  5
9B4
330
1F
100
AcDbEntity
  8
VEKA_PVC_SASH
  6
Continuous
 62
     7
100
AcDbCircle
 10
4409.350008853853
 20
2781.277823359631
 30
0.0
 40
15.0
  0
CIRCLE
  5
9B5
330
1F
100
AcDbEntity
  8
VEKA_PVC_SASH
  6
Continuous
 62
     7
100
AcDbCircle
 10
3307.351546446876
 20
2781.276986731084
 30
0.0
 40
15.0
  0
LINE
  5
9B6
330
1F
100
AcDbEntity
  8
Bemassung
100
AcDbLine
 10
3310.352013659558
 20
2131.2770207964
 30
0.0
 11
3318.352013659558
 21
2131.2770207964
 31
0.0
  0
LINE
  5
9B7
330
1F
100
AcDbEntity
  8
Bemassung
100
AcDbLine
 10
3314.352013659558
 20
2127.2770207964
 30
0.0
 11
3314.352013659558
 21
2135.2770207964
 31
0.0
  0
LINE
  5
9B8
330
1F
100
AcDbEntity
  8
Bemassung
100
AcDbLine
 10
4398.350528590916
 20
2131.277846796404
 30
0.0
 11
4406.350528590915
 21
2131.277846796404
 31
0.0
  0
LINE
  5
9B9
330
1F
100
AcDbEntity
  8
Bemassung
100
AcDbLine
 10
4402.350528590916
 20
2127.277846796403
 30
0.0
 11
4402.350528590916
 21
2135.277846796403
 31
0.0
  0
LINE
  5
9BA
330
1F
100
AcDbEntity
  8
Bemassung
100
AcDbLine
 10
4405.350008853853
 20
2781.277823359631
 30
0.0
 11
4413.350008853853
 21
2781.277823359631
 31
0.0
  0
LINE
  5
9BB
330
1F
100
AcDbEntity
  8
Bemassung
100
AcDbLine
 10
4409.350008853853
 20
2777.277823359631
 30
0.0
 11
4409.350008853853
 21
2785.277823359631
 31
0.0
  0
LINE
  5
9BC
330
1F
100
AcDbEntity
  8
Bemassung
100
AcDbLine
 10
3303.351546446876
 20
2781.276986731084
 30
0.0
 11
3311.351546446876
 21
2781.276986731084
 31
0.0
  0
LINE
  5
9BD
330
1F
100
AcDbEntity
  8
Bemassung
100
AcDbLine
 10
3307.351546446876
 20
2777.276986731084
 30
0.0
 11
3307.351546446876
 21
2785.276986731084
 31
0.0
  0
LINE
  5
9BE
330
1F
100
AcDbEntity
  8
Mittellinie
 48
0.3
370
    25
100
AcDbLine
 10
3858.351720956442
 20
2981.277020796401
 30
0.0
 11
3858.351720956442
 21
1934.2770207964
 31
0.0
  0
LINE
  5
9BF
330
1F
100
AcDbEntity
  8
Bemassung
 48
0.3
370
    25
100
AcDbLine
 10
4454.487004987994
 20
2303.565127420929
 30
0.0
 11
4514.487004987993
 21
2303.565127420929
 31
0.0
  0
LINE
  5
9C0
330
1F
100
AcDbEntity
  8
Bemassung
 48
0.3
370
    25
100
AcDbLine
 10
4454.487004987994
 20
2553.565127420929
 30
0.0
 11
4514.487004987993
 21
2553.565127420929
 31
0.0
  0
LINE
  5
9C1
330
1F
100
AcDbEntity
  8
Bemassung
 48
0.3
370
    25
100
AcDbLine
 10
4514.487004987993
 20
2303.565127420929
 30
0.0
 11
4514.487004987993
 21
2553.565127420929
 31
0.0
  0
LINE
  5
9C2
330
1F
100
AcDbEntity
  8
Bemassung
 48
0.3
370
    25
100
AcDbLine
 10
4454.487004987994
 20
2303.565127420929
 30
0.0
 11
4454.487004987994
 21
2553.565127420929
 31
0.0
  0
LINE
  5
9C3
330
1F
100
AcDbEntity
  8
Mittellinie
 48
0.3
370
    25
100
AcDbLine
 10
3299.352013659602
 20
2069.27696118783
 30
0.0
 11
3299.352071127436
 21
2755.27692082909
 31
0.0
  0
LINE
  5
9C4
330
1F
100
AcDbEntity
  8
Mittellinie
 48
0.3
370
    25
100
AcDbLine
 10
4417.351576344252
 20
2069.2770207964
 30
0.0
 11
4417.351547785849
 21
2755.277294784648
 31
0.0
  0
LINE
  5
9C5
330
1F
100
AcDbEntity
  8
Verdeckte Kante
 48
0.3
370
    25
100
AcDbLine
 10
3378.351720956441
 20
2601.277020796401
 30
0.0
 11
3378.351720956441
 21
2981.277020796401
 31
0.0
  0
LINE
  5
9C6
330
1F
100
AcDbEntity
  8
Verdeckte Kante
 48
0.3
370
    25
100
AcDbLine
 10
4338.351720956441
 20
2601.277020796401
 30
0.0
 11
4338.351720956441
 21
2981.277020796401
 31
0.0
  0
LINE
  5
9C7
102
{ACAD_REACTORS
330
9D9
102
}
330
1F
100
AcDbEntity
  8
Verdeckte Kante
 48
0.3
370
    25
100
AcDbLine
 10
4338.351720956441
 20
2131.2770207964
 30
0.0
 11
4338.351720956441
 21
1934.277020796404
 31
0.0
  0
LINE
  5
9C8
102
{ACAD_REACTORS
330
9DC
102
}
330
1F
100
AcDbEntity
  8
Verdeckte Kante
 48
0.3
370
    25
100
AcDbLine
 10
3378.351720956441
 20
2131.277020796404
 30
0.0
 11
3378.351720956441
 21
1934.2770207964
 31
0.0
  0
HATCH
  5
9C9
330
1F
100
AcDbEntity
  8
AM_5
 48
0.3
370
    70
100
AcDbHatch
 10
0.0
 20
0.0
 30
0.0
210
0.0
220
0.0
230
1.0
  2
ANSI37
 70
     0
 71
     0
 91
        4
 92
        7
 72
     0
 73
     1
 93
        3
 10
4499.487004988001
 20
2356.065127420932
 10
4507.860417251471
 20
2387.315127420928
 10
4499.487004987993
 20
2387.315127420928
 97
        0
 92
        7
 72
     0
 73
     1
 93
        3
 10
4499.487004988001
 20
2387.315127420928
 10
4491.113592724523
 20
2387.315127420928
 10
4499.487004987993
 20
2356.065127420921
 97
        0
 92
        7
 72
     0
 73
     1
 93
        3
 10
4469.487004987994
 20
2356.065127420925
 10
4477.860417251472
 20
2387.315127420928
 10
4469.487004988001
 20
2387.315127420928
 97
        0
 92
        7
 72
     0
 73
     1
 93
        3
 10
4469.487004987994
 20
2387.315127420928
 10
4461.113592724523
 20
2387.315127420928
 10
4469.487004987994
 20
2356.065127420921
 97
        0
 75
     0
 76
     1
 52
0.0
 41
0.75
 77
     0
 78
     2
 53
45.0
 43
-4126.434095516739
 44
2706.281100086597
 45
-1.683798022700465
 46
1.683798022700466
 79
     0
 53
135.0
 43
-4126.434095516739
 44
2706.281100086597
 45
-1.683798022700466
 46
-1.683798022700465
 79
     0
 47
0.0770077180496772
 98
        4
 10
4501.460706894181
 20
2375.428045937662
 10
4496.68442935988
 20
2378.354347631686
 10
4470.876911231531
 20
2377.430252359891
 10
4467.102130164127
 20
2378.58535199828
1001
ACAD
1010
0.0
1020
0.0
1030
0.0
  0
LINE
  5
9CA
330
1F
100
AcDbEntity
  8
AM_5
 48
0.3
370
    70
100
AcDbLine
 10
4469.487004987994
 20
2356.065127420928
 30
0.0
 11
4469.487004987994
 21
2418.565127420928
 31
0.0
  0
MTEXT
  5
9CB
330
1F
100
AcDbEntity
  8
Bemassung
 48
0.3
370
    25
100
AcDbMText
 10
4467.786096994397
 20
2442.834793325195
 30
0.0
 40
30.0
 41
110.7303340957305
 71
     1
 72
     5
  1
{\fArial|b1|i0|c0|p34;MEA}
 11
0.0000000000000001
 21
1.0
 31
0.0
 73
     1
 44
1.0
1001
ACAD
1000
MTEXTBEGIN
1070
    73
1070
     1
1070
    44
1040
1.0
1070
    74
1070
     0
1000
MTEXTEND
1000
ACAD_MTEXT_DEFINED_HEIGHT_BEGIN
1070
    46
1040
26.35264527524122
1000
ACAD_MTEXT_DEFINED_HEIGHT_END
  0
LINE
  5
9CC
330
1F
100
AcDbEntity
  8
AM_5
 48
0.3
370
    70
100
AcDbLine
 10
4461.113592724523
 20
2387.315127420928
 30
0.0
 11
4477.860417251472
 21
2387.315127420928
 31
0.0
  0
LINE
  5
9CD
330
1F
100
AcDbEntity
  8
AM_5
 48
0.3
370
    70
100
AcDbLine
 10
4469.487004987994
 20
2356.065127420928
 30
0.0
 11
4477.860417251472
 21
2387.315127420928
 31
0.0
  0
LINE
  5
9CE
330
1F
100
AcDbEntity
  8
AM_5
 48
0.3
370
    70
100
AcDbLine
 10
4469.487004987994
 20
2356.065127420928
 30
0.0
 11
4461.113592724523
 21
2387.315127420928
 31
0.0
  0
LINE
  5
9CF
330
1F
100
AcDbEntity
  8
AM_5
 48
0.3
370
    70
100
AcDbLine
 10
4499.487004987993
 20
2356.065127420928
 30
0.0
 11
4499.487004987993
 21
2418.565127420928
 31
0.0
  0
LINE
  5
9D0
330
1F
100
AcDbEntity
  8
AM_5
 48
0.3
370
    70
100
AcDbLine
 10
4491.113592724523
 20
2387.315127420928
 30
0.0
 11
4507.860417251471
 21
2387.315127420928
 31
0.0
  0
LINE
  5
9D1
330
1F
100
AcDbEntity
  8
AM_5
 48
0.3
370
    70
100
AcDbLine
 10
4499.487004987993
 20
2356.065127420928
 30
0.0
 11
4507.860417251471
 21
2387.315127420928
 31
0.0
  0
LINE
  5
9D2
330
1F
100
AcDbEntity
  8
AM_5
 48
0.3
370
    70
100
AcDbLine
 10
4499.487004987993
 20
2356.065127420928
 30
0.0
 11
4491.113592724523
 21
2387.315127420928
 31
0.0
  0
MTEXT
  5
9D3
330
1F
100
AcDbEntity
  8
Bemassung
 48
0.3
370
    25
100
AcDbMText
 10
4459.226226621114
 20
2340.304878481186
 30
0.0
 40
16.0
 41
76.18225947562314
 71
     1
 72
     5
  1
unten
 73
     1
 44
1.0
1001
ACAD
1000
MTEXTBEGIN
1070
    73
1070
     1
1070
    44
1040
1.0
1070
    74
1070
     0
1000
MTEXTEND
  0
DIMENSION
  5
9D4
102
{ACAD_XDICTIONARY
360
9D5
102
}
102
{ACAD_REACTORS
330
9D6
102
}
330
1F
100
AcDbEntity
  8
Bemassung
100
AcDbDimension
  2
*D48
 10
4932.486485086349
 20
1886.675734390368
 30
0.0
 11
4947.449608166509
 21
1886.675734390368
 31
0.0
 70
   160
  1
{\fVerdana|b0|i0|c0|p34;\H5.6x;<>}
 71
     5
 42
4.0
  3
ISO-25
100
AcDbAlignedDimension
 13
4928.486485086349
 23
1933.2770207964
 33
0.0
 14
4932.486485086349
 24
1933.2770207964
 34
0.0
100
AcDbRotatedDimension
1001
ACAD_DSTYLE_DIMINSPECT
1070
   396
1000
100%
1070
   395
1000

1070
   394
1070
    33
1070
   393
1070
     0
  0
DIMENSION
  5
9D7
102
{ACAD_XDICTIONARY
360
9D8
102
}
102
{ACAD_REACTORS
330
9D9
102
}
330
1F
100
AcDbEntity
  8
Bemassung
100
AcDbDimension
  2
*D49
 10
4523.351720956442
 20
1893.66870895148
 30
0.0
 11
4430.851720956441
 21
1893.66870895148
 31
0.0
 70
   160
  1
{\fVerdana|b0|i0|c0|p34;\H5.6x;<>}
 71
     5
 42
185.0
  3
ISO-25
100
AcDbAlignedDimension
 13
4338.351720956441
 23
1934.277020796404
 33
0.0
 14
4523.351720956442
 24
1934.2770207964
 34
0.0
100
AcDbRotatedDimension
1001
ACAD_DSTYLE_DIMINSPECT
1070
   396
1000
100%
1070
   395
1000

1070
   394
1070
    33
1070
   393
1070
     0
  0
DIMENSION
  5
9DA
102
{ACAD_XDICTIONARY
360
9DB
102
}
102
{ACAD_REACTORS
330
9DC
102
}
330
1F
100
AcDbEntity
  8
Bemassung
100
AcDbDimension
  2
*D50
 10
3378.351720956441
 20
1899.475595599864
 30
0.0
 11
3285.851720956442
 21
1907.420273235862
 31
0.0
 70
    32
  1
{\fVerdana|b0|i0|c0|p34;\H5.6x;<>}
 71
     5
 42
185.0
  3
ISO-25
100
AcDbAlignedDimension
 13
3193.351720956442
 23
1934.2770207964
 33
0.0
 14
3378.351720956441
 24
1934.2770207964
 34
0.0
100
AcDbRotatedDimension
1001
ACAD_DSTYLE_DIMINSPECT
1070
   396
1000
100%
1070
   395
1000

1070
   394
1070
    33
1070
   393
1070
     0
  0
ARC
  5
9DD
330
1F
100
AcDbEntity
  8
Mittellinie
 48
0.3
370
    25
100
AcDbCircle
 10
4848.486485086349
 20
2921.277020796401
 30
0.0
 40
20.0
100
AcDbArc
 50
69.20342833948128
 51
290.7965716605187
  0
ARC
  5
9DE
330
1F
100
AcDbEntity
  8
Mittellinie
 48
0.3
370
    25
100
AcDbCircle
 10
4908.486485086349
 20
2901.277020796401
 30
0.0
 40
20.0
100
AcDbArc
 50
249.2034283394813
 51
110.7965716605187
  0
LINE
  5
9DF
330
1F
100
AcDbEntity
  8
Mittellinie
 48
0.3
370
    25
100
AcDbLine
 10
4855.587505600776
 20
2902.580082339702
 30
0.0
 11
4901.385464571908
 21
2919.973959253099
 31
0.0
  0
LINE
  5
9E0
330
1F
100
AcDbEntity
  8
Mittellinie
 48
0.3
370
    25
100
AcDbLine
 10
4855.587505600776
 20
2939.973959253099
 30
0.0
 11
4901.385464571908
 21
2922.580082339703
 31
0.0
  0
ARC
  5
9E1
330
1F
100
AcDbEntity
  8
Mittellinie
 48
0.3
370
    25
100
AcDbCircle
 10
4848.486485086349
 20
2961.2770207964
 30
0.0
 40
20.0
100
AcDbArc
 50
69.20342833948128
 51
290.7965716605187
  0
ARC
  5
9E2
330
1F
100
AcDbEntity
  8
Mittellinie
 48
0.3
370
    25
100
AcDbCircle
 10
4908.486485086349
 20
2941.2770207964
 30
0.0
 40
20.0
100
AcDbArc
 50
249.2034283394813
 51
110.7965716605187
  0
LINE
  5
9E3
330
1F
100
AcDbEntity
  8
Mittellinie
 48
0.3
370
    25
100
AcDbLine
 10
4855.587505600776
 20
2942.580082339702
 30
0.0
 11
4901.385464571908
 21
2959.973959253099
 31
0.0
  0
LINE
  5
9E4
330
1F
100
AcDbEntity
  8
Mittellinie
 48
0.3
370
    25
100
AcDbLine
 10
4855.587505600776
 20
2979.973959253099
 30
0.0
 11
4901.385464571908
 21
2962.580082339702
 31
0.0
  0
ARC
  5
9E5
330
1F
100
AcDbEntity
  8
Mittellinie
 48
0.3
370
    25
100
AcDbCircle
 10
4908.486485086349
 20
2981.277020796401
 30
0.0
 40
20.0
100
AcDbArc
 50
249.2034283394813
 51
0.0
  0
ARC
  5
9E6
330
1F
100
AcDbEntity
  8
Mittellinie
 48
0.3
370
    25
100
AcDbCircle
 10
4848.486485086349
 20
2881.2770207964
 30
0.0
 40
20.0
100
AcDbArc
 50
69.20342833948128
 51
290.7965716605187
  0
LINE
  5
9E7
330
1F
100
AcDbEntity
  8
Mittellinie
 48
0.3
370
    25
100
AcDbLine
 10
4855.587505600776
 20
2899.973959253099
 30
0.0
 11
4901.385464571908
 21
2882.580082339702
 31
0.0
  0
ENDSEC
  0
SECTION
  2
OBJECTS
  0
DICTIONARY
  5
C
330
0
100
AcDbDictionary
281
     1
  3
ACAD_2007HEADERVARS_RT
350
AAE
  3
ACAD_CIP_PREVIOUS_PRODUCT_INFO
350
216
  3
ACAD_COLOR
350
6B
  3
ACAD_GROUP
350
D
  3
ACAD_LAYOUT
350
1A
  3
ACAD_MATERIAL
350
6A
  3
ACAD_MLEADERSTYLE
350
12D
  3
ACAD_MLINESTYLE
350
17
  3
ACAD_PLOTSETTINGS
350
19
  3
ACAD_PLOTSTYLENAME
350
E
  3
ACAD_SCALELIST
350
10C
  3
ACAD_TABLESTYLE
350
7E
  3
ACAD_VISUALSTYLE
350
EF
  3
ACDB_RECOMPOSE_DATA
350
AAC
  3
AcDbVariableDictionary
350
5E
  3
AcmDictionary
350
24C
  3
AMG
350
234
  3
AMGSNAPSETTINGS
350
293
  3
DWGPROPS
350
AAD
  0
DICTIONARY
  5
1FF
330
2
100
AcDbDictionary
280
     1
281
     1
  3
ACAD_LAYERSTATES
360
200
  0
DICTIONARY
  5
13C
330
10
100
AcDbDictionary
280
     1
281
     1
  0
DICTIONARY
  5
305
330
304
100
AcDbDictionary
280
     1
281
     1
  0
DICTIONARY
  5
307
330
306
100
AcDbDictionary
280
     1
281
     1
  0
DICTIONARY
  5
309
330
308
100
AcDbDictionary
280
     1
281
     1
  0
DICTIONARY
  5
30B
330
30A
100
AcDbDictionary
280
     1
281
     1
  0
DICTIONARY
  5
30E
330
30D
100
AcDbDictionary
280
     1
281
     1
  0
DICTIONARY
  5
310
330
30F
100
AcDbDictionary
280
     1
281
     1
  0
DICTIONARY
  5
885
330
884
100
AcDbDictionary
280
     1
281
     1
  0
DICTIONARY
  5
1CE
330
1F
100
AcDbDictionary
280
     1
281
     1
  0
DICTIONARY
  5
96A
330
969
100
AcDbDictionary
280
     1
281
     1
  3
ACAD_DIMASSOC
360
96B
  0
DICTIONARY
  5
96D
330
96C
100
AcDbDictionary
280
     1
281
     1
  3
ACAD_DIMASSOC
360
96E
  0
DICTIONARY
  5
970
330
96F
100
AcDbDictionary
280
     1
281
     1
  3
ACAD_DIMASSOC
360
971
  0
DICTIONARY
  5
9AD
330
9AC
100
AcDbDictionary
280
     1
281
     1
  3
ACAD_DIMASSOC
360
9AE
  0
DICTIONARY
  5
9B0
330
9AF
100
AcDbDictionary
280
     1
281
     1
  3
ACAD_DIMASSOC
360
9B1
  0
DICTIONARY
  5
9D5
330
9D4
100
AcDbDictionary
280
     1
281
     1
  3
ACAD_DIMASSOC
360
9D6
  0
DICTIONARY
  5
9D8
330
9D7
100
AcDbDictionary
280
     1
281
     1
  3
ACAD_DIMASSOC
360
9D9
  0
DICTIONARY
  5
9DB
330
9DA
100
AcDbDictionary
280
     1
281
     1
  3
ACAD_DIMASSOC
360
9DC
  0
DICTIONARY
  5
AAE
102
{ACAD_REACTORS
330
C
102
}
330
C
100
AcDbDictionary
281
     1
  3
DIMJOGANG
350
AAF
  3
DIMLTEX1
350
AB1
  3
DIMLTEX2
350
AB2
  3
DIMLTYPE
350
AB0
  0
XRECORD
  5
216
102
{ACAD_REACTORS
330
C
102
}
330
C
100
AcDbXrecord
280
     1
300
AMECH_PP
300
2012
300
PDSP_F_S
  0
DICTIONARY
  5
6B
102
{ACAD_REACTORS
330
C
102
}
330
C
100
AcDbDictionary
281
     1
  0
DICTIONARY
  5
D
102
{ACAD_REACTORS
330
C
102
}
330
C
100
AcDbDictionary
281
     1
  0
DICTIONARY
  5
1A
102
{ACAD_REACTORS
330
C
102
}
330
C
100
AcDbDictionary
281
     1
  3
Layout1
350
D3
  3
Layout2
350
D7
  3
Model
350
22
  0
DICTIONARY
  5
6A
102
{ACAD_REACTORS
330
C
102
}
330
C
100
AcDbDictionary
281
     1
  3
ByBlock
350
ED
  3
ByLayer
350
EC
  3
Global
350
EE
  0
DICTIONARY
  5
12D
102
{ACAD_REACTORS
330
C
102
}
330
C
100
AcDbDictionary
281
     1
  3
Annotative
350
13B
  3
Standard
350
12E
  0
DICTIONARY
  5
17
102
{ACAD_REACTORS
330
C
102
}
330
C
100
AcDbDictionary
281
     1
  3
Standard
350
18
  0
DICTIONARY
  5
19
102
{ACAD_REACTORS
330
C
102
}
330
C
100
AcDbDictionary
281
     1
  0
ACDBDICTIONARYWDFLT
  5
E
102
{ACAD_REACTORS
330
C
102
}
330
C
100
AcDbDictionary
281
     1
  3
Normal
350
F
100
AcDbDictionaryWithDefault
340
F
  0
DICTIONARY
  5
10C
102
{ACAD_REACTORS
330
C
102
}
330
C
100
AcDbDictionary
281
     1
  3
A0
350
10D
  3
A1
350
1BE
  3
A2
350
1BF
  3
A3
350
1C0
  3
A4
350
1C1
  3
A5
350
1C2
  3
A6
350
1C3
  3
A7
350
1C4
  3
A8
350
1C5
  3
A9
350
1C6
  3
B0
350
1C7
  3
B1
350
1C8
  3
B2
350
1C9
  3
B3
350
1CA
  3
B4
350
1CB
  3
B5
350
1CC
  3
B6
350
1CD
  0
DICTIONARY
  5
7E
102
{ACAD_REACTORS
330
C
102
}
330
C
100
AcDbDictionary
281
     1
  3
Standard
350
7F
  0
DICTIONARY
  5
EF
102
{ACAD_REACTORS
330
C
102
}
330
C
100
AcDbDictionary
281
     1
  3
2dWireframe
350
F5
  3
3D Hidden
350
21A
  3
3dWireframe
350
219
  3
Basic
350
F4
  3
Brighten
350
FB
  3
ColorChange
350
FF
  3
Conceptual
350
F8
  3
Dim
350
FA
  3
EdgeColorOff
350
1E6
  3
Facepattern
350
FE
  3
Flat
350
F0
  3
FlatWithEdges
350
F1
  3
Gouraud
350
F2
  3
GouraudWithEdges
350
F3
  3
Hidden
350
F7
  3
JitterOff
350
1E4
  3
Linepattern
350
FD
  3
OverhangOff
350
1E5
  3
Realistic
350
F9
  3
Shaded
350
1F3
  3
Shaded with edges
350
1F2
  3
Shades of Gray
350
1EF
  3
Sketchy
350
1F0
  3
Thicken
350
FC
  3
Wireframe
350
F6
  3
X-Ray
350
1F1
  0
XRECORD
  5
AAC
102
{ACAD_REACTORS
330
C
102
}
330
C
100
AcDbXrecord
280
     1
 90
        1
330
7F
  0
DICTIONARY
  5
5E
102
{ACAD_REACTORS
330
C
102
}
330
C
100
AcDbDictionary
281
     1
  3
CANNOSCALE
350
146
  3
CMLEADERSTYLE
350
145
  3
CTABLESTYLE
350
84
  3
DIMASSOC
350
5F
  3
HIDETEXT
350
63
  3
INDEXCTL
350
AA3
  3
LAYEREVAL
350
1AE
  3
LAYERNOTIFY
350
1AF
  3
LIGHTINGUNITS
350
AA1
  3
MSLTSCALE
350
AA0
  3
PSOLHEIGHT
350
AA5
  3
PSOLWIDTH
350
AA4
  3
SORTENTS
350
AA2
  3
XCLIPFRAME
350
AA6
  0
DICTIONARY
  5
24C
102
{ACAD_REACTORS
330
C
102
}
330
C
100
AcDbDictionary
281
     1
  3
AcmStdDictionary
350
24E
  0
DICTIONARY
  5
234
102
{ACAD_REACTORS
330
C
102
}
330
C
100
AcDbDictionary
281
     1
  0
DICTIONARY
  5
293
102
{ACAD_REACTORS
330
C
102
}
330
C
100
AcDbDictionary
281
     1
  0
XRECORD
  5
AAD
102
{ACAD_REACTORS
330
C
102
}
330
C
100
AcDbXrecord
280
     1
  1
DWGPROPS COOKIE
  2

  3

  4

  6

  7

  8
avgrahammj
  9

300
=
301
=
302
=
303
=
304
=
305
=
306
=
307
=
308
=
309
=
 40
0.0390357638888889
 41
2456524.30681213
 42
2456524.345845787
  1

 90
        0
  0
DICTIONARY
  5
200
102
{ACAD_REACTORS
330
1FF
102
}
330
1FF
100
AcDbDictionary
281
     1
  0
DIMASSOC
  5
96B
102
{ACAD_REACTORS
330
96A
102
}
330
96A
100
AcDbDimAssoc
330
969
 90
        3
 70
     0
 71
     0
  1
AcDbOsnapPointRef
 72
     1
331
945
 73
     2
 91
        0
 40
1.0
 10
0.0
 20
0.0
 30
2.000000000000000E+50
 75
     0
  1
AcDbOsnapPointRef
 72
    13
331
946
 73
     2
 91
        0
 40
0.0
 10
0.0
 20
0.0
 30
2.000000000000000E+50
 75
     0
  0
DIMASSOC
  5
96E
102
{ACAD_REACTORS
330
96D
102
}
330
96D
100
AcDbDimAssoc
330
96C
 90
        3
 70
     0
 71
     0
  1
AcDbOsnapPointRef
 72
    13
331
946
 73
     2
 91
        0
 40
0.0
 10
0.0
 20
0.0
 30
2.000000000000000E+50
 75
     0
  1
AcDbOsnapPointRef
 72
    13
331
947
 73
     2
 91
        0
 40
0.0
 10
0.0
 20
0.0
 30
2.000000000000000E+50
 75
     0
  0
DIMASSOC
  5
971
102
{ACAD_REACTORS
330
970
102
}
330
970
100
AcDbDimAssoc
330
96F
 90
        3
 70
     0
 71
     0
  1
AcDbOsnapPointRef
 72
     1
331
94A
 73
     2
 91
        0
 40
1.0
 10
0.0
 20
0.0
 30
2.000000000000000E+50
 75
     0
  1
AcDbOsnapPointRef
 72
     1
331
949
 73
     2
 91
        0
 40
1.0
 10
0.0
 20
0.0
 30
2.000000000000000E+50
 75
     0
  0
DIMASSOC
  5
9AE
102
{ACAD_REACTORS
330
9AD
102
}
330
9AD
100
AcDbDimAssoc
330
9AC
 90
        1
 70
     0
 71
     0
  1
AcDbOsnapPointRef
 72
     1
331
973
 73
     2
 91
        0
 40
1.0
 10
0.0
 20
0.0
 30
2.000000000000000E+50
 75
     0
  0
DIMASSOC
  5
9B1
102
{ACAD_REACTORS
330
9B0
102
}
330
9B0
100
AcDbDimAssoc
330
9AF
 90
        1
 70
     0
 71
     0
  1
AcDbOsnapPointRef
 72
    13
331
947
 73
     2
 91
        0
 40
0.0
 10
0.0
 20
0.0
 30
2.000000000000000E+50
 75
     0
  0
DIMASSOC
  5
9D6
102
{ACAD_REACTORS
330
9D5
102
}
330
9D5
100
AcDbDimAssoc
330
9D4
 90
        3
 70
     0
 71
     0
  1
AcDbOsnapPointRef
 72
     1
331
974
 73
     0
 91
        0
 40
0.0
 10
0.0
 20
0.0
 30
2.000000000000000E+50
 75
     0
  1
AcDbOsnapPointRef
 72
     1
331
976
 73
     0
 91
        0
 40
0.0
 10
0.0
 20
0.0
 30
2.000000000000000E+50
 75
     0
  0
DIMASSOC
  5
9D9
102
{ACAD_REACTORS
330
9D8
102
}
330
9D8
100
AcDbDimAssoc
330
9D7
 90
        3
 70
     0
 71
     0
  1
AcDbOsnapPointRef
 72
     1
331
9C7
 73
     0
 91
        0
 40
0.0
 10
0.0
 20
0.0
 30
2.000000000000000E+50
 75
     0
  1
AcDbOsnapPointRef
 72
    13
331
943
 73
     0
 91
        0
 40
0.0
 10
0.0
 20
0.0
 30
2.000000000000000E+50
 75
     0
  0
DIMASSOC
  5
9DC
102
{ACAD_REACTORS
330
9DB
102
}
330
9DB
100
AcDbDimAssoc
330
9DA
 90
        3
 70
     0
 71
     0
  1
AcDbOsnapPointRef
 72
     1
331
944
 73
     0
 91
        0
 40
0.0
 10
0.0
 20
0.0
 30
2.000000000000000E+50
 75
     0
  1
AcDbOsnapPointRef
 72
     1
331
9C8
 73
     0
 91
        0
 40
0.0
 10
0.0
 20
0.0
 30
2.000000000000000E+50
 75
     0
  0
XRECORD
  5
AAF
102
{ACAD_REACTORS
330
AAE
102
}
330
AAE
100
AcDbXrecord
280
     1
 40
1.570796326794896
  0
XRECORD
  5
AB1
102
{ACAD_REACTORS
330
AAE
102
}
330
AAE
100
AcDbXrecord
280
     1
340
14
  0
XRECORD
  5
AB2
102
{ACAD_REACTORS
330
AAE
102
}
330
AAE
100
AcDbXrecord
280
     1
340
14
  0
XRECORD
  5
AB0
102
{ACAD_REACTORS
330
AAE
102
}
330
AAE
100
AcDbXrecord
280
     1
340
14
  0
LAYOUT
  5
D3
102
{ACAD_XDICTIONARY
360
AB5
102
}
102
{ACAD_REACTORS
330
1A
102
}
330
1A
100
AcDbPlotSettings
  1

  2
C:\Documents and Settings\basas\Application Data\Autodesk\AutoCAD 2005\R16.1\enu\plotters\Default Windows System Printer.pc3
  4

  6

 40
0.0
 41
0.0
 42
0.0
 43
0.0
 44
0.0
 45
0.0
 46
0.0
 47
0.0
 48
0.0
 49
0.0
140
0.0
141
0.0
142
1.0
143
1.0
 70
   688
 72
     0
 73
     0
 74
     5
  7

 75
    16
147
1.0
148
0.0
149
0.0
100
AcDbLayout
  1
Layout1
 70
     1
 71
     1
 10
0.0
 20
0.0
 11
12.0
 21
9.0
 12
0.0
 22
0.0
 32
0.0
 14
0.0
 24
0.0
 34
0.0
 15
0.0
 25
0.0
 35
0.0
146
0.0
 13
0.0
 23
0.0
 33
0.0
 16
1.0
 26
0.0
 36
0.0
 17
0.0
 27
1.0
 37
0.0
 76
     0
330
D2
  0
LAYOUT
  5
D7
102
{ACAD_XDICTIONARY
360
AB7
102
}
102
{ACAD_REACTORS
330
1A
102
}
330
1A
100
AcDbPlotSettings
  1

  2
C:\Documents and Settings\basas\Application Data\Autodesk\AutoCAD 2005\R16.1\enu\plotters\Default Windows System Printer.pc3
  4

  6

 40
0.0
 41
0.0
 42
0.0
 43
0.0
 44
0.0
 45
0.0
 46
0.0
 47
0.0
 48
0.0
 49
0.0
140
0.0
141
0.0
142
1.0
143
1.0
 70
   688
 72
     0
 73
     0
 74
     5
  7

 75
    16
147
1.0
148
0.0
149
0.0
100
AcDbLayout
  1
Layout2
 70
     1
 71
     2
 10
0.0
 20
0.0
 11
12.0
 21
9.0
 12
0.0
 22
0.0
 32
0.0
 14
0.0
 24
0.0
 34
0.0
 15
0.0
 25
0.0
 35
0.0
146
0.0
 13
0.0
 23
0.0
 33
0.0
 16
1.0
 26
0.0
 36
0.0
 17
0.0
 27
1.0
 37
0.0
 76
     0
330
D6
  0
LAYOUT
  5
22
102
{ACAD_XDICTIONARY
360
205
102
}
102
{ACAD_REACTORS
330
1A
102
}
330
1A
100
AcDbPlotSettings
  1

  2
none_device
  4
ISO_A4_(210.00_x_297.00_MM)
  6

 40
7.5
 41
20.0
 42
7.5
 43
20.0
 44
210.0
 45
297.0
 46
11.54999923706054
 47
-13.65000009536743
 48
0.0
 49
0.0
140
0.0
141
0.0
142
1.0
143
8.704084754739808
 70
 11952
 72
     1
 73
     0
 74
     0
  7

 75
     0
147
0.1148885871608098
148
0.0
149
0.0
100
AcDbLayout
  1
Model
 70
     1
 71
     0
 10
0.0
 20
0.0
 11
12.0
 21
9.0
 12
0.0
 22
0.0
 32
0.0
 14
0.0
 24
0.0
 34
0.0
 15
0.0
 25
0.0
 35
0.0
146
0.0
 13
0.0
 23
0.0
 33
0.0
 16
1.0
 26
0.0
 36
0.0
 17
0.0
 27
1.0
 37
0.0
 76
     0
330
1F
331
EA
1001
ACAD_PSEXT
1000
None
1000
None
1000
Not applicable
1000
The layout will not be plotted unless a new plotter configuration name is selected.
1070
     0
  0
MATERIAL
  5
ED
102
{ACAD_XDICTIONARY
360
1F9
102
}
102
{ACAD_REACTORS
330
6A
102
}
330
6A
100
AcDbMaterial
  1
ByBlock
  0
MATERIAL
  5
EC
102
{ACAD_XDICTIONARY
360
1F7
102
}
102
{ACAD_REACTORS
330
6A
102
}
330
6A
100
AcDbMaterial
  1
ByLayer
  0
MATERIAL
  5
EE
102
{ACAD_XDICTIONARY
360
173
102
}
102
{ACAD_REACTORS
330
6A
102
}
330
6A
100
AcDbMaterial
  1
Global
 43
0.0007999999797903
 43
0.0
 43
0.0
 43
0.0
 43
0.0
 43
0.0007999999797903
 43
0.0
 43
0.0
 43
0.0
 43
0.0
 43
1.0
 43
0.0
 43
0.0
 43
0.0
 43
0.0
 43
1.0
 49
0.0007999999797903
 49
0.0
 49
0.0
 49
0.0
 49
0.0
 49
0.0007999999797903
 49
0.0
 49
0.0
 49
0.0
 49
0.0
 49
1.0
 49
0.0
 49
0.0
 49
0.0
 49
0.0
 49
1.0
142
0.0007999999797903
142
0.0
142
0.0
142
0.0
142
0.0
142
0.0007999999797903
142
0.0
142
0.0
142
0.0
142
0.0
142
1.0
142
0.0
142
0.0
142
0.0
142
0.0
142
1.0
144
0.0007999999797903
144
0.0
144
0.0
144
0.0
144
0.0
144
0.0007999999797903
144
0.0
144
0.0
144
0.0
144
0.0
144
1.0
144
0.0
144
0.0
144
0.0
144
0.0
144
1.0
1001
ACAD
1070
    -1
1070
     3
1070
     0
1000

1071
        0
1070
     0
  0
MLEADERSTYLE
  5
13B
102
{ACAD_XDICTIONARY
360
AAA
102
}
102
{ACAD_REACTORS
330
12D
102
}
330
12D
100
AcDbMLeaderStyle
170
     2
171
     1
172
     0
 90
        2
 40
0.0
 41
0.0
173
     1
 91
-1056964608
340
14
 92
       -2
290
     1
 42
2.0
291
     1
 43
8.0
  3
Standard
 44
4.0
300

342
11
174
     1
178
     1
175
     1
176
     0
 93
-1056964608
 45
4.0
292
     0
297
     0
 46
4.0
 94
-1056964608
 47
1.0
 49
1.0
140
1.0
293
     1
141
0.0
294
     1
177
     0
142
1.0
295
     0
296
     1
143
3.75
1001
ACAD_MLEADERVER
1070
     2
  0
MLEADERSTYLE
  5
12E
102
{ACAD_XDICTIONARY
360
AA8
102
}
102
{ACAD_REACTORS
330
12D
102
}
330
12D
100
AcDbMLeaderStyle
170
     2
171
     1
172
     0
 90
        2
 40
0.0
 41
0.0
173
     1
 91
-1056964608
340
14
 92
       -2
290
     1
 42
2.0
291
     1
 43
8.0
  3
Standard
 44
4.0
300

342
11
174
     1
178
     1
175
     1
176
     0
 93
-1056964608
 45
4.0
292
     0
297
     0
 46
4.0
 94
-1056964608
 47
1.0
 49
1.0
140
1.0
293
     1
141
0.0
294
     1
177
     0
142
1.0
295
     0
296
     0
143
3.75
1001
ACAD_MLEADERVER
1070
     2
  0
MLINESTYLE
  5
18
102
{ACAD_REACTORS
330
17
102
}
330
17
100
AcDbMlineStyle
  2
STANDARD
 70
     0
  3

 62
   256
 51
90.0
 52
90.0
 71
     2
 49
0.5
 62
   256
  6
BYLAYER
 49
-0.5
 62
   256
  6
BYLAYER
  0
ACDBPLACEHOLDER
  5
F
102
{ACAD_REACTORS
330
E
102
}
330
E
  0
SCALE
  5
10D
102
{ACAD_REACTORS
330
10C
102
}
330
10C
100
AcDbScale
 70
     0
300
1:1
140
1.0
141
1.0
290
     1
  0
SCALE
  5
1BE
102
{ACAD_REACTORS
330
10C
102
}
330
10C
100
AcDbScale
 70
     0
300
1:2
140
1.0
141
2.0
290
     0
  0
SCALE
  5
1BF
102
{ACAD_REACTORS
330
10C
102
}
330
10C
100
AcDbScale
 70
     0
300
1:4
140
1.0
141
4.0
290
     0
  0
SCALE
  5
1C0
102
{ACAD_REACTORS
330
10C
102
}
330
10C
100
AcDbScale
 70
     0
300
1:5
140
1.0
141
5.0
290
     0
  0
SCALE
  5
1C1
102
{ACAD_REACTORS
330
10C
102
}
330
10C
100
AcDbScale
 70
     0
300
1:8
140
1.0
141
8.0
290
     0
  0
SCALE
  5
1C2
102
{ACAD_REACTORS
330
10C
102
}
330
10C
100
AcDbScale
 70
     0
300
1:10
140
1.0
141
10.0
290
     0
  0
SCALE
  5
1C3
102
{ACAD_REACTORS
330
10C
102
}
330
10C
100
AcDbScale
 70
     0
300
1:16
140
1.0
141
16.0
290
     0
  0
SCALE
  5
1C4
102
{ACAD_REACTORS
330
10C
102
}
330
10C
100
AcDbScale
 70
     0
300
1:20
140
1.0
141
20.0
290
     0
  0
SCALE
  5
1C5
102
{ACAD_REACTORS
330
10C
102
}
330
10C
100
AcDbScale
 70
     0
300
1:30
140
1.0
141
30.0
290
     0
  0
SCALE
  5
1C6
102
{ACAD_REACTORS
330
10C
102
}
330
10C
100
AcDbScale
 70
     0
300
1:40
140
1.0
141
40.0
290
     0
  0
SCALE
  5
1C7
102
{ACAD_REACTORS
330
10C
102
}
330
10C
100
AcDbScale
 70
     0
300
1:50
140
1.0
141
50.0
290
     0
  0
SCALE
  5
1C8
102
{ACAD_REACTORS
330
10C
102
}
330
10C
100
AcDbScale
 70
     0
300
1:100
140
1.0
141
100.0
290
     0
  0
SCALE
  5
1C9
102
{ACAD_REACTORS
330
10C
102
}
330
10C
100
AcDbScale
 70
     0
300
2:1
140
2.0
141
1.0
290
     0
  0
SCALE
  5
1CA
102
{ACAD_REACTORS
330
10C
102
}
330
10C
100
AcDbScale
 70
     0
300
4:1
140
4.0
141
1.0
290
     0
  0
SCALE
  5
1CB
102
{ACAD_REACTORS
330
10C
102
}
330
10C
100
AcDbScale
 70
     0
300
8:1
140
8.0
141
1.0
290
     0
  0
SCALE
  5
1CC
102
{ACAD_REACTORS
330
10C
102
}
330
10C
100
AcDbScale
 70
     0
300
10:1
140
10.0
141
1.0
290
     0
  0
SCALE
  5
1CD
102
{ACAD_REACTORS
330
10C
102
}
330
10C
100
AcDbScale
 70
     0
300
100:1
140
100.0
141
1.0
290
     0
  0
TABLESTYLE
  5
7F
102
{ACAD_XDICTIONARY
360
162
102
}
102
{ACAD_REACTORS
330
7E
102
}
330
7E
100
AcDbTableStyle
  3
Standard
 70
     0
 71
     0
 40
1.5
 41
1.5
280
     0
281
     0
  7
STANDARD
140
4.5
170
     2
 62
     0
 63
     7
283
     0
274
    -2
284
     1
 64
     0
275
    -2
285
     1
 65
     0
276
    -2
286
     1
 66
     0
277
    -2
287
     1
 67
     0
278
    -2
288
     1
 68
     0
279
    -2
289
     1
 69
     0
  7
STANDARD
140
6.0
170
     5
 62
     0
 63
     7
283
     0
274
    -2
284
     1
 64
     0
275
    -2
285
     1
 65
     0
276
    -2
286
     1
 66
     0
277
    -2
287
     1
 67
     0
278
    -2
288
     1
 68
     0
279
    -2
289
     1
 69
     0
  7
STANDARD
140
4.5
170
     5
 62
     0
 63
     7
283
     0
274
    -2
284
     1
 64
     0
275
    -2
285
     1
 65
     0
276
    -2
286
     1
 66
     0
277
    -2
287
     1
 67
     0
278
    -2
288
     1
 68
     0
279
    -2
289
     1
 69
     0
  0
VISUALSTYLE
  5
F5
102
{ACAD_XDICTIONARY
360
AC6
102
}
102
{ACAD_REACTORS
330
EF
102
}
330
EF
100
AcDbVisualStyle
  2
2dWireframe
 70
     4
 71
     0
 72
     2
 73
     1
 90
        0
 40
-0.6
 41
-30.0
 62
     5
 63
     7
 74
     1
 91
        4
 64
     7
 65
   257
 75
     1
175
     1
 42
1.0
 92
        0
 66
   257
 43
1.0
 76
     1
 77
     6
 78
     2
 67
     7
 79
     5
170
     0
171
     0
290
     0
174
     0
 93
        1
 44
0.0
173
     0
291
     0
 45
0.0
1001
ACAD
1000
AcDbSavedByObjectVersion
1070
     0
  0
VISUALSTYLE
  5
21A
102
{ACAD_XDICTIONARY
360
AEE
102
}
102
{ACAD_REACTORS
330
EF
102
}
330
EF
100
AcDbVisualStyle
  2
3D Hidden
 70
     6
 71
     1
 72
     2
 73
     2
 90
        0
 40
-0.6
 41
-30.0
 62
     5
 63
     7
 74
     2
 91
        2
 64
     7
 65
   257
 75
     2
175
     1
 42
179.0
 92
        0
 66
   257
 43
1.0
 76
     1
 77
     6
 78
     2
 67
     7
 79
     3
170
     0
171
     0
290
     0
174
     0
 93
        1
 44
0.0
173
     0
291
     0
 45
0.0
1001
ACAD
1000
AcDbSavedByObjectVersion
1070
     0
  0
VISUALSTYLE
  5
219
102
{ACAD_XDICTIONARY
360
AEC
102
}
102
{ACAD_REACTORS
330
EF
102
}
330
EF
100
AcDbVisualStyle
  2
3dWireframe
 70
     5
 71
     0
 72
     2
 73
     0
 90
        0
 40
-0.6
 41
-30.0
 62
     5
 63
     7
 74
     1
 91
        4
 64
     7
 65
   257
 75
     1
175
     1
 42
1.0
 92
        0
 66
   257
 43
1.0
 76
     1
 77
     6
 78
     2
 67
     7
 79
     5
170
     0
171
     0
290
     0
174
     0
 93
        1
 44
0.0
173
     0
291
     0
 45
0.0
1001
ACAD
1000
AcDbSavedByObjectVersion
1070
     0
  0
VISUALSTYLE
  5
F4
102
{ACAD_XDICTIONARY
360
AC4
102
}
102
{ACAD_REACTORS
330
EF
102
}
330
EF
100
AcDbVisualStyle
  2
Basic
 70
     7
 71
     1
 72
     0
 73
     1
 90
        0
 40
-0.6
 41
-30.0
 62
     5
 63
     7
 74
     0
 91
        4
 64
     7
 65
   257
 75
     1
175
     1
 42
1.0
 92
        8
 66
     7
 43
1.0
 76
     1
 77
     6
 78
     2
 67
     7
 79
     5
170
     0
171
     0
290
     0
174
     0
 93
        1
 44
0.0
173
     0
291
     1
 45
0.0
1001
ACAD
1000
AcDbSavedByObjectVersion
1070
     0
  0
VISUALSTYLE
  5
FB
102
{ACAD_XDICTIONARY
360
AD2
102
}
102
{ACAD_REACTORS
330
EF
102
}
330
EF
100
AcDbVisualStyle
  2
Brighten
 70
    12
 71
     2
 72
     2
 73
     1
 90
        0
 40
-0.6
 41
-30.0
 62
     5
 63
     7
 74
     1
 91
        4
 64
     7
 65
   257
 75
     1
175
     1
 42
1.0
 92
        8
 66
     7
 43
1.0
 76
     1
 77
     6
 78
     2
 67
     7
 79
     5
170
     0
171
     0
290
     0
174
     0
 93
        1
 44
50.0
173
     0
291
     1
 45
0.0
1001
ACAD
1000
AcDbSavedByObjectVersion
1070
     0
  0
VISUALSTYLE
  5
FF
102
{ACAD_XDICTIONARY
360
ADA
102
}
102
{ACAD_REACTORS
330
EF
102
}
330
EF
100
AcDbVisualStyle
  2
ColorChange
 70
    16
 71
     2
 72
     2
 73
     3
 90
        0
 40
-0.6
 41
-30.0
 62
     5
 63
     8
 74
     1
 91
        4
 64
     7
 65
   257
 75
     1
175
     1
 42
1.0
 92
        8
 66
     8
 43
1.0
 76
     1
 77
     6
 78
     2
 67
     7
 79
     5
170
     0
171
     0
290
     0
174
     0
 93
        1
 44
0.0
173
     0
291
     1
 45
0.0
1001
ACAD
1000
AcDbSavedByObjectVersion
1070
     0
  0
VISUALSTYLE
  5
F8
102
{ACAD_XDICTIONARY
360
ACC
102
}
102
{ACAD_REACTORS
330
EF
102
}
330
EF
100
AcDbVisualStyle
  2
Conceptual
 70
     9
 71
     3
 72
     2
 73
     1
 90
        0
 40
-0.6
 41
-30.0
 62
     5
 63
     7
 74
     2
 91
        2
 64
     7
 65
   257
 75
     1
175
     1
 42
40.0
 92
        8
 66
     7
 43
1.0
 76
     1
 77
     6
 78
     2
 67
     7
 79
     3
170
     0
171
     0
290
     0
174
     0
 93
        1
 44
0.0
173
     0
291
     0
 45
0.0
1001
ACAD
1000
AcDbSavedByObjectVersion
1070
     0
  0
VISUALSTYLE
  5
FA
102
{ACAD_XDICTIONARY
360
AD0
102
}
102
{ACAD_REACTORS
330
EF
102
}
330
EF
100
AcDbVisualStyle
  2
Dim
 70
    11
 71
     2
 72
     2
 73
     1
 90
        0
 40
-0.6
 41
-30.0
 62
     5
 63
     7
 74
     1
 91
        4
 64
     7
 65
   257
 75
     1
175
     1
 42
1.0
 92
        8
 66
     7
 43
1.0
 76
     1
 77
     6
 78
     2
 67
     7
 79
     5
170
     0
171
     0
290
     0
174
     0
 93
        1
 44
-50.0
173
     0
291
     1
 45
0.0
1001
ACAD
1000
AcDbSavedByObjectVersion
1070
     0
  0
VISUALSTYLE
  5
1E6
102
{ACAD_XDICTIONARY
360
AE0
102
}
102
{ACAD_REACTORS
330
EF
102
}
330
EF
100
AcDbVisualStyle
  2
EdgeColorOff
 70
    22
 71
     2
 72
     2
 73
     0
 90
        0
 40
-0.6
 41
-30.0
 62
     5
 63
     7
 74
     1
 91
        4
 64
     7
 65
   257
 75
     1
175
     1
 42
1.0
 92
        8
 66
     7
 43
1.0
 76
     1
 77
     6
 78
     2
 67
     7
 79
     5
170
     0
171
     0
290
     0
174
     0
 93
        1
 44
0.0
173
     0
291
     1
 45
0.0
1001
ACAD
1000
AcDbSavedByObjectVersion
1070
     0
  0
VISUALSTYLE
  5
FE
102
{ACAD_XDICTIONARY
360
AD8
102
}
102
{ACAD_REACTORS
330
EF
102
}
330
EF
100
AcDbVisualStyle
  2
Facepattern
 70
    15
 71
     2
 72
     2
 73
     1
 90
        0
 40
-0.6
 41
-30.0
 62
     5
 63
     7
 74
     1
 91
        4
 64
     7
 65
   257
 75
     1
175
     1
 42
1.0
 92
        8
 66
     7
 43
1.0
 76
     1
 77
     6
 78
     2
 67
     7
 79
     5
170
     0
171
     0
290
     0
174
     0
 93
        1
 44
0.0
173
     0
291
     1
 45
0.0
1001
ACAD
1000
AcDbSavedByObjectVersion
1070
     0
  0
VISUALSTYLE
  5
F0
102
{ACAD_XDICTIONARY
360
ABC
102
}
102
{ACAD_REACTORS
330
EF
102
}
330
EF
100
AcDbVisualStyle
  2
Flat
 70
     0
 71
     2
 72
     1
 73
     1
 90
        2
 40
-0.6
 41
30.0
 62
     5
 63
     7
 74
     0
 91
        0
 64
     7
 65
   257
 75
     1
175
     1
 42
1.0
 92
        8
 66
     7
 43
1.0
 76
     1
 77
     6
 78
     2
 67
     7
 79
     5
170
     0
171
     0
290
     0
174
     0
 93
       13
 44
0.0
173
     0
291
     1
 45
0.0
1001
ACAD
1000
AcDbSavedByObjectVersion
1070
     0
  0
VISUALSTYLE
  5
F1
102
{ACAD_XDICTIONARY
360
ABE
102
}
102
{ACAD_REACTORS
330
EF
102
}
330
EF
100
AcDbVisualStyle
  2
FlatWithEdges
 70
     1
 71
     2
 72
     1
 73
     1
 90
        2
 40
-0.6
 41
30.0
 62
     5
 63
     7
 74
     1
 91
        0
 64
     7
 65
   257
 75
     1
175
     1
 42
1.0
 92
        0
 66
   257
 43
1.0
 76
     1
 77
     6
 78
     2
 67
     7
 79
     5
170
     0
171
     0
290
     0
174
     0
 93
       13
 44
0.0
173
     0
291
     1
 45
0.0
1001
ACAD
1000
AcDbSavedByObjectVersion
1070
     0
  0
VISUALSTYLE
  5
F2
102
{ACAD_XDICTIONARY
360
AC0
102
}
102
{ACAD_REACTORS
330
EF
102
}
330
EF
100
AcDbVisualStyle
  2
Gouraud
 70
     2
 71
     2
 72
     2
 73
     1
 90
        2
 40
-0.6
 41
30.0
 62
     5
 63
     7
 74
     0
 91
        0
 64
     7
 65
   257
 75
     1
175
     1
 42
1.0
 92
        0
 66
     7
 43
1.0
 76
     1
 77
     6
 78
     2
 67
     7
 79
     5
170
     0
171
     0
290
     0
174
     0
 93
       13
 44
0.0
173
     0
291
     1
 45
0.0
1001
ACAD
1000
AcDbSavedByObjectVersion
1070
     0
  0
VISUALSTYLE
  5
F3
102
{ACAD_XDICTIONARY
360
AC2
102
}
102
{ACAD_REACTORS
330
EF
102
}
330
EF
100
AcDbVisualStyle
  2
GouraudWithEdges
 70
     3
 71
     2
 72
     2
 73
     1
 90
        2
 40
-0.6
 41
30.0
 62
     5
 63
     7
 74
     1
 91
        0
 64
     7
 65
   257
 75
     1
175
     1
 42
1.0
 92
        0
 66
   257
 43
1.0
 76
     1
 77
     6
 78
     2
 67
     7
 79
     5
170
     0
171
     0
290
     0
174
     0
 93
       13
 44
0.0
173
     0
291
     1
 45
0.0
1001
ACAD
1000
AcDbSavedByObjectVersion
1070
     0
  0
VISUALSTYLE
  5
F7
102
{ACAD_XDICTIONARY
360
ACA
102
}
102
{ACAD_REACTORS
330
EF
102
}
330
EF
100
AcDbVisualStyle
  2
Hidden
 70
     6
 71
     1
 72
     2
 73
     2
 90
        0
 40
-0.6
 41
-30.0
 62
     5
 63
     7
 74
     2
 91
        2
 64
     7
 65
   257
 75
     2
175
     1
 42
40.0
 92
        0
 66
   257
 43
1.0
 76
     1
 77
     6
 78
     2
 67
     7
 79
     3
170
     0
171
     0
290
     0
174
     0
 93
        1
 44
0.0
173
     0
291
     0
 45
0.0
1001
ACAD
1000
AcDbSavedByObjectVersion
1070
     0
  0
VISUALSTYLE
  5
1E4
102
{ACAD_XDICTIONARY
360
ADC
102
}
102
{ACAD_REACTORS
330
EF
102
}
330
EF
100
AcDbVisualStyle
  2
JitterOff
 70
    20
 71
     2
 72
     2
 73
     0
 90
        0
 40
-0.6
 41
-30.0
 62
     5
 63
     7
 74
     1
 91
        4
 64
     7
 65
   257
 75
     1
175
     1
 42
1.0
 92
       10
 66
     7
 43
1.0
 76
     1
 77
     6
 78
     2
 67
     7
 79
     5
170
     0
171
     0
290
     0
174
     0
 93
        1
 44
0.0
173
     0
291
     1
 45
0.0
1001
ACAD
1000
AcDbSavedByObjectVersion
1070
     0
  0
VISUALSTYLE
  5
FD
102
{ACAD_XDICTIONARY
360
AD6
102
}
102
{ACAD_REACTORS
330
EF
102
}
330
EF
100
AcDbVisualStyle
  2
Linepattern
 70
    14
 71
     2
 72
     2
 73
     1
 90
        0
 40
-0.6
 41
-30.0
 62
     5
 63
     7
 74
     1
 91
        4
 64
     7
 65
   257
 75
     7
175
     7
 42
1.0
 92
        8
 66
     7
 43
1.0
 76
     1
 77
     6
 78
     2
 67
     7
 79
     5
170
     0
171
     0
290
     0
174
     0
 93
        1
 44
0.0
173
     0
291
     1
 45
0.0
1001
ACAD
1000
AcDbSavedByObjectVersion
1070
     0
  0
VISUALSTYLE
  5
1E5
102
{ACAD_XDICTIONARY
360
ADE
102
}
102
{ACAD_REACTORS
330
EF
102
}
330
EF
100
AcDbVisualStyle
  2
OverhangOff
 70
    21
 71
     2
 72
     2
 73
     0
 90
        0
 40
-0.6
 41
-30.0
 62
     5
 63
     7
 74
     1
 91
        4
 64
     7
 65
   257
 75
     1
175
     1
 42
1.0
 92
        9
 66
     7
 43
1.0
 76
     1
 77
     6
 78
     2
 67
     7
 79
     5
170
     0
171
     0
290
     0
174
     0
 93
        1
 44
0.0
173
     0
291
     1
 45
0.0
1001
ACAD
1000
AcDbSavedByObjectVersion
1070
     0
  0
VISUALSTYLE
  5
F9
102
{ACAD_XDICTIONARY
360
ACE
102
}
102
{ACAD_REACTORS
330
EF
102
}
330
EF
100
AcDbVisualStyle
  2
Realistic
 70
     8
 71
     2
 72
     3
 73
     0
 90
        2
 40
-0.6
 41
30.0
 62
     5
 63
     7
 74
     0
 91
        0
 64
     7
 65
   257
 75
     1
175
     1
 42
1.0
 92
        8
 66
   257
 43
1.0
 76
     1
 77
     6
 78
     2
 67
     7
 79
     3
170
     0
171
     0
290
     0
174
     0
 93
       13
 44
0.0
173
     0
291
     0
 45
0.0
1001
ACAD
1000
AcDbSavedByObjectVersion
1070
     0
  0
VISUALSTYLE
  5
1F3
102
{ACAD_XDICTIONARY
360
AEA
102
}
102
{ACAD_REACTORS
330
EF
102
}
330
EF
100
AcDbVisualStyle
  2
Shaded
 70
    27
 71
     2
 72
     2
 73
     1
 90
        2
 40
-0.6
 41
30.0
 62
     5
 63
     7
 74
     0
 91
        4
 64
     7
 65
   257
 75
     1
175
     1
 42
1.0
 92
        8
 66
   257
 43
1.0
 76
     1
 77
     6
 78
     2
 67
     8
 79
     3
170
     0
171
     0
290
     0
174
     0
 93
        5
 44
0.0
173
     0
291
     0
 45
0.0
1001
ACAD
1000
AcDbSavedByObjectVersion
1070
     0
  0
VISUALSTYLE
  5
1F2
102
{ACAD_XDICTIONARY
360
AE8
102
}
102
{ACAD_REACTORS
330
EF
102
}
330
EF
100
AcDbVisualStyle
  2
Shaded with edges
 70
    26
 71
     2
 72
     2
 73
     1
 90
        2
 40
-0.6
 41
30.0
 62
     5
 63
     7
 74
     1
 91
       10
 64
     7
 65
   257
 75
     2
175
     1
 42
1.0
 92
        8
 66
   257
 43
1.0
 76
     1
 77
     6
 78
     2
 67
     7
 79
     3
170
     0
171
     0
290
     0
174
     0
 93
        5
 44
0.0
173
     0
291
     0
 45
0.0
1001
ACAD
1000
AcDbSavedByObjectVersion
1070
     0
  0
VISUALSTYLE
  5
1EF
102
{ACAD_XDICTIONARY
360
AE2
102
}
102
{ACAD_REACTORS
330
EF
102
}
330
EF
100
AcDbVisualStyle
  2
Shades of Gray
 70
    23
 71
     2
 72
     2
 73
     3
 90
        0
 40
-0.6
 41
-30.0
 62
     5
 63
     7
 74
     2
 91
        2
 64
     7
 65
     7
 75
     1
175
     1
 42
40.0
 92
        8
 66
     7
 43
1.0
 76
     1
 77
     6
 78
     2
 67
     7
 79
     3
170
     0
171
     0
290
     0
174
     0
 93
        1
 44
0.0
173
     0
291
     0
 45
0.0
1001
ACAD
1000
AcDbSavedByObjectVersion
1070
     0
  0
VISUALSTYLE
  5
1F0
102
{ACAD_XDICTIONARY
360
AE4
102
}
102
{ACAD_REACTORS
330
EF
102
}
330
EF
100
AcDbVisualStyle
  2
Sketchy
 70
    24
 71
     1
 72
     2
 73
     2
 90
        0
 40
-0.6
 41
-30.0
 62
     5
 63
     7
 74
     2
 91
        2
 64
     7
 65
     7
 75
     1
175
     1
 42
40.0
 92
       11
 66
     7
 43
1.0
 76
     1
 77
     6
 78
     2
 67
     7
 79
     6
170
     0
171
     0
290
     0
174
     0
 93
        1
 44
0.0
173
     0
291
     0
 45
0.0
1001
ACAD
1000
AcDbSavedByObjectVersion
1070
     0
  0
VISUALSTYLE
  5
FC
102
{ACAD_XDICTIONARY
360
AD4
102
}
102
{ACAD_REACTORS
330
EF
102
}
330
EF
100
AcDbVisualStyle
  2
Thicken
 70
    13
 71
     2
 72
     2
 73
     1
 90
        0
 40
-0.6
 41
-30.0
 62
     5
 63
     7
 74
     1
 91
        4
 64
     7
 65
   257
 75
     1
175
     1
 42
1.0
 92
       12
 66
     7
 43
1.0
 76
     1
 77
     6
 78
     2
 67
     7
 79
     5
170
     0
171
     0
290
     0
174
     0
 93
        1
 44
0.0
173
     0
291
     1
 45
0.0
1001
ACAD
1000
AcDbSavedByObjectVersion
1070
     0
  0
VISUALSTYLE
  5
F6
102
{ACAD_XDICTIONARY
360
AC8
102
}
102
{ACAD_REACTORS
330
EF
102
}
330
EF
100
AcDbVisualStyle
  2
Wireframe
 70
     5
 71
     0
 72
     2
 73
     0
 90
        0
 40
-0.6
 41
-30.0
 62
     5
 63
     7
 74
     1
 91
        4
 64
     7
 65
   257
 75
     1
175
     1
 42
1.0
 92
        0
 66
   257
 43
1.0
 76
     1
 77
     6
 78
     2
 67
     7
 79
     3
170
     0
171
     0
290
     0
174
     0
 93
        1
 44
0.0
173
     0
291
     0
 45
0.0
1001
ACAD
1000
AcDbSavedByObjectVersion
1070
     0
  0
VISUALSTYLE
  5
1F1
102
{ACAD_XDICTIONARY
360
AE6
102
}
102
{ACAD_REACTORS
330
EF
102
}
330
EF
100
AcDbVisualStyle
  2
X-Ray
 70
    25
 71
     2
 72
     2
 73
     1
 90
        1
 40
0.5
 41
-30.0
 62
     5
 63
     7
 74
     1
 91
        0
 64
     7
 65
   257
 75
     1
175
     1
 42
1.0
 92
        8
 66
     7
 43
1.0
 76
     1
 77
     6
 78
     2
 67
     7
 79
     3
170
     0
171
     0
290
     0
174
     0
 93
       13
 44
0.0
173
     0
291
     0
 45
0.0
1001
ACAD
1000
AcDbSavedByObjectVersion
1070
     0
  0
DICTIONARYVAR
  5
146
102
{ACAD_REACTORS
330
5E
102
}
330
5E
100
DictionaryVariables
280
     0
  1
1:1
  0
DICTIONARYVAR
  5
145
102
{ACAD_REACTORS
330
5E
102
}
330
5E
100
DictionaryVariables
280
     0
  1
STANDARD
  0
DICTIONARYVAR
  5
84
102
{ACAD_REACTORS
330
5E
102
}
330
5E
100
DictionaryVariables
280
     0
  1
STANDARD
  0
DICTIONARYVAR
  5
5F
102
{ACAD_REACTORS
330
5E
102
}
330
5E
100
DictionaryVariables
280
     0
  1
2
  0
DICTIONARYVAR
  5
63
102
{ACAD_REACTORS
330
5E
102
}
330
5E
100
DictionaryVariables
280
     0
  1
1
  0
DICTIONARYVAR
  5
AA3
102
{ACAD_REACTORS
330
5E
102
}
330
5E
100
DictionaryVariables
280
     0
  1
0
  0
DICTIONARYVAR
  5
1AE
102
{ACAD_REACTORS
330
5E
102
}
330
5E
100
DictionaryVariables
280
     0
  1
0
  0
DICTIONARYVAR
  5
1AF
102
{ACAD_REACTORS
330
5E
102
}
330
5E
100
DictionaryVariables
280
     0
  1
0
  0
DICTIONARYVAR
  5
AA1
102
{ACAD_REACTORS
330
5E
102
}
330
5E
100
DictionaryVariables
280
     0
  1
2
  0
DICTIONARYVAR
  5
AA0
102
{ACAD_REACTORS
330
5E
102
}
330
5E
100
DictionaryVariables
280
     0
  1
1
  0
DICTIONARYVAR
  5
AA5
102
{ACAD_REACTORS
330
5E
102
}
330
5E
100
DictionaryVariables
280
     0
  1
80.000000
  0
DICTIONARYVAR
  5
AA4
102
{ACAD_REACTORS
330
5E
102
}
330
5E
100
DictionaryVariables
280
     0
  1
5.000000
  0
DICTIONARYVAR
  5
AA2
102
{ACAD_REACTORS
330
5E
102
}
330
5E
100
DictionaryVariables
280
     0
  1
127
  0
DICTIONARYVAR
  5
AA6
102
{ACAD_REACTORS
330
5E
102
}
330
5E
100
DictionaryVariables
280
     0
  1
2
  0
DICTIONARY
  5
24E
102
{ACAD_REACTORS
330
24C
102
}
330
24C
100
AcDbDictionary
281
     1
  0
DICTIONARY
  5
AB5
330
D3
100
AcDbDictionary
280
     1
281
     1
  3
ACAD_XREC_ROUNDTRIP
360
AB6
  0
DICTIONARY
  5
AB7
330
D7
100
AcDbDictionary
280
     1
281
     1
  3
ACAD_XREC_ROUNDTRIP
360
AB8
  0
DICTIONARY
  5
205
330
22
100
AcDbDictionary
280
     1
281
     1
  3
ACAD_XREC_ROUNDTRIP
360
AB3
  3
ADSK_XREC_LAYOUTTHUMBNAIL
360
206
  0
DICTIONARY
  5
1F9
330
ED
100
AcDbDictionary
280
     1
281
     1
  3
ACAD_XREC_ROUNDTRIP
360
ABA
  3
FBXASSET
360
1FA
  0
DICTIONARY
  5
1F7
330
EC
100
AcDbDictionary
280
     1
281
     1
  3
ACAD_XREC_ROUNDTRIP
360
AB9
  3
FBXASSET
360
1F8
  0
DICTIONARY
  5
173
330
EE
100
AcDbDictionary
280
     1
281
     1
  3
ACAD_XREC_ROUNDTRIP
360
ABB
  3
BUMPTILE
360
175
  3
DIFFUSETILE
360
174
  3
FBXASSET
360
1FB
  3
OPACITYTILE
360
176
  3
REFLECTIONTILE
360
177
  0
DICTIONARY
  5
AAA
330
13B
100
AcDbDictionary
280
     1
281
     1
  3
ACAD_XREC_ROUNDTRIP
360
AAB
  0
DICTIONARY
  5
AA8
330
12E
100
AcDbDictionary
280
     1
281
     1
  3
ACAD_XREC_ROUNDTRIP
360
AA9
  0
DICTIONARY
  5
162
330
7F
100
AcDbDictionary
280
     1
281
     1
  3
ACAD_ROUNDTRIP_2008_TABLESTYLE_CELLSTYLEMAP
360
AA7
  3
ACAD_XREC_ROUNDTRIP
360
AB4
  0
DICTIONARY
  5
AC6
330
F5
100
AcDbDictionary
280
     1
281
     1
  3
ACAD_XREC_ROUNDTRIP
360
AC7
  0
DICTIONARY
  5
AEE
330
21A
100
AcDbDictionary
280
     1
281
     1
  3
ACAD_XREC_ROUNDTRIP
360
AEF
  0
DICTIONARY
  5
AEC
330
219
100
AcDbDictionary
280
     1
281
     1
  3
ACAD_XREC_ROUNDTRIP
360
AED
  0
DICTIONARY
  5
AC4
330
F4
100
AcDbDictionary
280
     1
281
     1
  3
ACAD_XREC_ROUNDTRIP
360
AC5
  0
DICTIONARY
  5
AD2
330
FB
100
AcDbDictionary
280
     1
281
     1
  3
ACAD_XREC_ROUNDTRIP
360
AD3
  0
DICTIONARY
  5
ADA
330
FF
100
AcDbDictionary
280
     1
281
     1
  3
ACAD_XREC_ROUNDTRIP
360
ADB
  0
DICTIONARY
  5
ACC
330
F8
100
AcDbDictionary
280
     1
281
     1
  3
ACAD_XREC_ROUNDTRIP
360
ACD
  0
DICTIONARY
  5
AD0
330
FA
100
AcDbDictionary
280
     1
281
     1
  3
ACAD_XREC_ROUNDTRIP
360
AD1
  0
DICTIONARY
  5
AE0
330
1E6
100
AcDbDictionary
280
     1
281
     1
  3
ACAD_XREC_ROUNDTRIP
360
AE1
  0
DICTIONARY
  5
AD8
330
FE
100
AcDbDictionary
280
     1
281
     1
  3
ACAD_XREC_ROUNDTRIP
360
AD9
  0
DICTIONARY
  5
ABC
330
F0
100
AcDbDictionary
280
     1
281
     1
  3
ACAD_XREC_ROUNDTRIP
360
ABD
  0
DICTIONARY
  5
ABE
330
F1
100
AcDbDictionary
280
     1
281
     1
  3
ACAD_XREC_ROUNDTRIP
360
ABF
  0
DICTIONARY
  5
AC0
330
F2
100
AcDbDictionary
280
     1
281
     1
  3
ACAD_XREC_ROUNDTRIP
360
AC1
  0
DICTIONARY
  5
AC2
330
F3
100
AcDbDictionary
280
     1
281
     1
  3
ACAD_XREC_ROUNDTRIP
360
AC3
  0
DICTIONARY
  5
ACA
330
F7
100
AcDbDictionary
280
     1
281
     1
  3
ACAD_XREC_ROUNDTRIP
360
ACB
  0
DICTIONARY
  5
ADC
330
1E4
100
AcDbDictionary
280
     1
281
     1
  3
ACAD_XREC_ROUNDTRIP
360
ADD
  0
DICTIONARY
  5
AD6
330
FD
100
AcDbDictionary
280
     1
281
     1
  3
ACAD_XREC_ROUNDTRIP
360
AD7
  0
DICTIONARY
  5
ADE
330
1E5
100
AcDbDictionary
280
     1
281
     1
  3
ACAD_XREC_ROUNDTRIP
360
ADF
  0
DICTIONARY
  5
ACE
330
F9
100
AcDbDictionary
280
     1
281
     1
  3
ACAD_XREC_ROUNDTRIP
360
ACF
  0
DICTIONARY
  5
AEA
330
1F3
100
AcDbDictionary
280
     1
281
     1
  3
ACAD_XREC_ROUNDTRIP
360
AEB
  0
DICTIONARY
  5
AE8
330
1F2
100
AcDbDictionary
280
     1
281
     1
  3
ACAD_XREC_ROUNDTRIP
360
AE9
  0
DICTIONARY
  5
AE2
330
1EF
100
AcDbDictionary
280
     1
281
     1
  3
ACAD_XREC_ROUNDTRIP
360
AE3
  0
DICTIONARY
  5
AE4
330
1F0
100
AcDbDictionary
280
     1
281
     1
  3
ACAD_XREC_ROUNDTRIP
360
AE5
  0
DICTIONARY
  5
AD4
330
FC
100
AcDbDictionary
280
     1
281
     1
  3
ACAD_XREC_ROUNDTRIP
360
AD5
  0
DICTIONARY
  5
AC8
330
F6
100
AcDbDictionary
280
     1
281
     1
  3
ACAD_XREC_ROUNDTRIP
360
AC9
  0
DICTIONARY
  5
AE6
330
1F1
100
AcDbDictionary
280
     1
281
     1
  3
ACAD_XREC_ROUNDTRIP
360
AE7
  0
XRECORD
  5
AB6
102
{ACAD_REACTORS
330
AB5
102
}
330
AB5
100
AcDbXrecord
280
     1
102
SHADEPLOT
 70
     0
102
SHADEPLOTRESLEVEL
 70
     2
102
SHADEPLOTCUSTOMDPI
 70
   300
  0
XRECORD
  5
AB8
102
{ACAD_REACTORS
330
AB7
102
}
330
AB7
100
AcDbXrecord
280
     1
102
SHADEPLOT
 70
     0
102
SHADEPLOTRESLEVEL
 70
     2
102
SHADEPLOTCUSTOMDPI
 70
   300
  0
XRECORD
  5
AB3
102
{ACAD_REACTORS
330
205
102
}
330
205
100
AcDbXrecord
280
     1
102
SHADEPLOT
 70
     0
102
SHADEPLOTRESLEVEL
 70
     2
102
SHADEPLOTCUSTOMDPI
 70
   300
  0
XRECORD
  5
206
102
{ACAD_REACTORS
330
205
102
}
330
205
100
AcDbXrecord
280
     1
310
280000000001000088000000010008000000000000880000000000000000000000010000000000009D98950000000000FFFFFF000000000000000000000000000000000000000000000000000000000000000000330000006600000099000000CC000000FF00000000330000333300006633000099330000CC330000FF3300
310
0000660000336600006666000099660000CC660000FF66000000990000339900006699000099990000CC990000FF99000000CC000033CC000066CC000099CC0000CCCC0000FFCC000000FF000033FF000066FF000099FF0000CCFF0000FFFF000000003300330033006600330099003300CC003300FF003300003333003333
310
33006633330099333300CC333300FF33330000663300336633006666330099663300CC663300FF66330000993300339933006699330099993300CC993300FF99330000CC330033CC330066CC330099CC3300CCCC3300FFCC330000FF330033FF330066FF330099FF3300CCFF3300FFFF330000006600330066006600660099
310
006600CC006600FF00660000336600333366006633660099336600CC336600FF33660000666600336666006666660099666600CC666600FF66660000996600339966006699660099996600CC996600FF99660000CC660033CC660066CC660099CC6600CCCC6600FFCC660000FF660033FF660066FF660099FF6600CCFF6600
310
FFFF660000009900330099006600990099009900CC009900FF00990000339900333399006633990099339900CC339900FF33990000669900336699006666990099669900CC669900FF66990000999900339999006699990099999900CC999900FF99990000CC990033CC990066CC990099CC9900CCCC9900FFCC990000FF99
310
0033FF990066FF990099FF9900CCFF9900FFFF99000000CC003300CC006600CC009900CC00CC00CC00FF00CC000033CC003333CC006633CC009933CC00CC33CC00FF33CC000066CC003366CC006666CC009966CC00CC66CC00FF66CC000099CC003399CC006699CC009999CC00CC99CC00FF99CC0000CCCC0033CCCC0066CC
310
CC0099CCCC00CCCCCC00FFCCCC0000FFCC0033FFCC0066FFCC0099FFCC00CCFFCC00FFFFCC000000FF003300FF006600FF009900FF00CC00FF00FF00FF000033FF003333FF006633FF009933FF00CC33FF00FF33FF000066FF003366FF006666FF009966FF00CC66FF00FF66FF000099FF003399FF006699FF009999FF00CC
310
99FF00FF99FF0000CCFF0033CCFF0066CCFF0099CCFF00CCCCFF00FFCCFF0000FFFF0033FFFF0066FFFF0099FFFF00CCFFFF00FFFFFF00000000000D0D0D001A1A1A00282828003535350043434300505050005D5D5D006B6B6B00787878008686860093939300A1A1A100AEAEAE00BBBBBB00C9C9C900D6D6D600E4E4E400
310
F1F1F100FFFFFF00000000000000000000000000000000000000000000000000000000000000000000000000000000008B608B8B608B8B608B8B608B8B3C8B8B8B608B8B608B8B608B8B608B8B3C8B8B608B8B8B608B8B608B8B608B8B3C8B8B608B8B8B608B8B608B8B608B8B3C8B8B608B8B608B8B8B608B8B608B8B3C8B
310
8B608B8B608B8B8B608B8B608B8B3C8B8B608B8B608B8B608B8B8B608B8B3C8B8B608B8B608B8B608B8B8B608B8B3C8B8B608B8B608B8B608B8B608B8B8B3C8B8B608B8B608B8B608B8B608B8B8B3C8B8B608B8B608B8B608B8B608B8B3C8B8B8B608B8B608B8B608B8B608B8B3C8B8B8B608B8B608B8B608B8B608B8B3C8B
310
8B608B8B8B608B8B608B8B608B8B3C8B8B608B8B8B608B8B608B8B608B8B3C8B8B608B8B608B8B8B608B8B608B8B3C8B8B608B608B8B608B8B608B8B608B8B3C8B8B8B608B8B608B8B608B8B608B8B3C8B8B608B8B8B608B8B608B8B608B8B3C8B8B608B8B8B608B8B608B8B608B8B3C8B8B608B8B608B8B8B608B8B608B8B
310
3C8B8B608B8B608B8B8B608B8B608B8B3C8B8B608B8B608B8B608B8B8B608B8B3C8B8B608B8B608B8B608B8B8B608B8B3C8B8B608B8B608B8B608B8B608B8B8B3C8B8B608B8B608B8B608B8B608B8B8B3C8B8B608B8B608B8B608B8B608B8B3C8B8B8B608B8B608B8B608B8B608B8B3C8B8B8B608B8B608B8B608B8B608B8B
310
3C8B8B608B8B8B608B8B608B8B608B8B3C8B8B608B8B8B608B8B608B8B608B8B3C8B8B608B8B608B8B8B608B8B608B8B3C8B8B60606060606060606060606060603C6060606060606060606060606060603C6060606060606060606060606060603C6060606060606060606060606060603C60606060606060606060606060
310
60603C6060606060606060606060606060603C6060606060606060606060606060603C6060606060606060606060606060603C6060606060606060606060606060603C6060606060606060606060606060603C60606060606060606060606060603C6060606060606060606060606060603C60606060606060606060606060
310
60603C6060606060606060606060606060603C6060606060606060606060606060603C6060606060606060606060606060603C6060608B608B8B608B8B608B8B608B8B3C8B8B8B608B8B608B8B608B8B608B8B3C8B8B608B8B8B608B8B608B8B608B8B3C8B8B608B8B8B608B8B608B8B608B8B3C8B8B608B8B608B8B8B608B
310
8B608B8B3C8B8B608B8B608B8B8B608B8B608B8B3C8B8B608B8B608B8B608B8B8B608B8B3C8B8B608B8B608B8B608B8B8B608B8B3C8B8B608B8B608B8B608B8B608B8B8B3C8B8B608B8B608B8B608B8B608B8B8B3C8B8B608B8B608B8B608B8B608B8B3C8B8B8B608B8B608B8B608B8B608B8B3C8B8B8B608B8B608B8B608B
310
8B608B8B3C8B8B608B8B8B608B8B608B8B608B8B3C8B8B608B8B8B608B8B608B8B608B8B3C8B8B608B8B608B8B8B608B8B608B8B3C8B8B608B608B8B608B8B608B8B608B8B3C8B8B8B608B8B608B8B608B8B608B8B3C8B8B608B8B8B608B8B608B8B608B8B3C8B8B608B8B8B608B8B608B8B608B8B3C8B8B608B8B608B8B8B
310
608B8B608B8B3C8B8B608B8B608B8B8B608B8B608B8B3C8B8B608B8B608B8B608B8B8B608B8B3C8B8B608B8B608B8B608B8B8B608B8B3C8B8B608B8B608B8B608B8B608B8B8B3C8B8B608B8B608B8B608B8B608B8B8B3C8B8B608B8B608B8B608B8B608B8B3C8B8B8B608B8B608B8B608B8B608B8B3C8B8B8B608B8B608B8B
310
608B8B608B8B3C8B8B608B8B8B608B8B608B8B608B8B3C8B8B608B8B8B608B8B608B8B608B8B3C8B8B608B8B608B8B8B608B8B608B8B3C8B8B60606060606060606060606060603C6060606060606060606060606060603C6060606060606060606060606060603C6060606060606060606060606060603C60606060606060
310
60606060606060603C6060606060606060606060606060603C6060606060606060606060606060603C6060606060606060606060606060603C6060606060606060606060606060603C6060606060606060606060606060603C60606060606060606060606060603C6060606060606060606060606060603C60606060606060
310
60606060606060603C6060606060606060606060606060603C6060606060606060606060606060603C6060606060606060606060606060603C6060608B608B8B608B8B608B8B608B8B3C8B8B8B608B8B608B8B608B8B608B8B3C8B8B608B8B8B608B8B608B8B608B8B3C8B8B608B8B8B608B8B608B8B608B8B3C8B8B608B8B
310
608B8B8B608B8B608B8B3C8B8B608B8B608B8B8B608B8B608B8B3C8B8B608B8B608B8B608B8B8B608B8B3C8B8B608B8B608B8B608B8B8B608B8B3C8B8B608B8B608B8B608B8B608B8B8B3C8B8B608B8B608B8B608B8B608B8B8B3C8B8B608B8B608B8B608B8B608B8B3C8B8B8B608B8B608B8B608B8B608B8B3C8B8B8B608B
310
8B608B8B608B8B608B8B3C8B8B608B8B8B608B8B608B8B608B8B3C8B8B608B8B8B608B8B608B8B608B8B3C8B8B608B8B608B8B8B608B8B608B8B3C8B8B608B608B8B608B8B608B8B608B8B3C8B8B8B608B8B608B8B608B8B608B8B3C8B8B608B8B8B608B8B608B8B608B8B3C8B8B608B8B8B608B8B608B8B608B8B3C8B8B60
310
8B8B608B8B8B608B8B608B8B3C8B8B608B8B608B8B8B608B8B608B8B3C8B8B608B8B608B8B608B8B8B608B8B3C8B8B608B8B608B8B608B8B8B608B8B3C8B8B608B8B608B8B608B8B608B8B8B3C8B8B608B8B608B8B608B8B608B8B8B3C8B8B608B8B608B8B608B8B608B8B3C8B8B8B608B8B608B8B608B8B608B8B3C8B8B8B
310
608B8B608B8B608B8B608B8B3C8B8B608B8B8B608B8B608B8B608B8B3C8B8B608B8B8B608B8B608B8B608B8B3C8B8B608B8B608B8B8B608B8B608B8B3C8B8B608B608B8B608B8B608B8B608B8B3C8B8B8B608B8B608B8B608B8B608B8B3C8B8B608B8B8B608B8B608B8B608B8B3C8B8B608B8B8B608B8B608B8B608B8B3C8B
310
8B608B8B608B8B8B608B8B608B8B3C8B8B608B8B608B8B8B608B8B608B8B3C8B8B608B8B608B8B608B8B8B608B8B3C8B8B608B8B608B8B608B8B8B608B8B3C8B8B608B8B608B8B608B8B608B8B8B3C8B8B608B8B608B8B608B8B608B8B8B3C8B8B608B8B608B8B608B8B608B8B3C8B8B8B608B8B608B8B608B8B608B8B3C8B
310
8B8B608B8B608B8B608B8B608B8B3C8B8B608B8B8B608B8B608B8B608B8B3C8B8B608B8B8B608B8B608B8B608B8B3C8B8B608B8B608B8B8B608B8B608B8B3C8B8B603C3C3C3C3C3C3C3C3C3C3C3C3C3C3C3C3C3C3C3C3C3C3C3C3C3C3C3C3C3C3C3C3C3C3C3C3C3C3C3C3C3C3C3C3C3C3C3C3C3C3C3C3C3C3C3C3C3C3C3C3C
310
3C3C3C3C3C3C3C3C3C3C3C3C3C3C3C3C3C3C3C3C3C3C3C3C3C3C3C3C3C3C3C3C3C3C3C3C3C3C3C3C3C3C3C3C3C3C3C3C3C3C3C3C3C3C3C3C3C3C3C3C3C3C3C3C3C3C3C3C3C3C3C3C3C3C3C3C3C3C3C3C3C3C3C3C3C3C3C3C3C3C3C3C3C3C3C3C3C3C3C3C3C3C3C3C3C3C3C3C3C3C3C3C3C3C3C3C3C3C3C3C3C3C3C3C3C3C3C
310
3C3C3C3C3C3C3C3C3C3C3C3C3C3C3C3C3C3C3C3C3C3C3C3C3C3C3C3C3C3C3C3C3C3C3C3C3C3C3C3C3C3C3C3C3C3C3C3C3C3C3C3C3C3C3C3C3C3C3C3C3C3C3C3C3C3C3C3C8B608B8B608B8B608B8B608B8B3C8B8B8B608B8B608B8B608B8B608B8B3C8B8B608B8B8B608B8B608B8B608B8B3C8B8B608B8B8B608B8B608B8B60
310
8B8B3C8B8B608B8B608B8B8B608B8B608B8B3C8B8B608B8B608B8B8B608B8B608B8B3C8B8B608B8B608B8B608B8B8B608B8B3C8B8B608B8B608B8B608B8B8B608B8B3C8B8B608B8B608B8B608B8B608B8B8B3C8B8B608B8B608B8B608B8B608B8B8B3C8B8B608B8B608B8B608B8B608B8B3C8B8B8B608B8B608B8B608B8B60
310
8B8B3C8B8B8B608B8B608B8B608B8B608B8B3C8B8B608B8B8B608B8B608B8B608B8B3C8B8B608B8B8B608B8B608B8B608B8B3C8B8B608B8B608B8B8B608B8B608B8B3C8B8B608B608B8B608B8B608B8B608B8B3C8B8B8B608B8B608B8B608B8B608B8B3C8B8B608B8B8B608B8B608B8B608B8B3C8B8B608B8B8B608B8B608B
310
8B608B8B3C8B8B608B8B608B8B8B608B8B608B8B3C8B8B608B8B608B8B8B608B8B608B8B3C8B8B608B8B608B8B608B8B8B608B8B3C8B8B608B8B608B8B608B8B8B608B8B3C8B8B608B8B608B8B608B8B608B8B8B3C8B8B608B8B608B8B608B8B608B8B8B3C8B8B608B8B608B8B608B8B608B8B3C8B8B8B608B8B608B8B608B
310
8B608B8B3C8B8B8B608B8B608B8B608B8B608B8B3C8B8B608B8B8B608B8B608B8B608B8B3C8B8B608B8B8B608B8B608B8B608B8B3C8B8B608B8B608B8B8B608B8B608B8B3C8B8B60606060606060606060606060603C6060606060606060606060606060603C6060606060606060606060606060603C606060606060606060
310
6060606060603C6060606060606060606060606060603C6060606060606060606060606060603C6060606060606060606060606060603C6060606060606060606060606060603C6060606060606060606060606060603C6060606060606060606060606060603C60606060606060606060606060603C606060606060606060
310
6060606060603C6060606060606060606060606060603C6060606060606060606060606060603C6060606060606060606060606060603C6060606060606060606060606060603C6060608B608B8B608B8B608B8B608B8B3C8B8B8B608B8B608B8B608B8B608B8B3C8B8B608B8B8B608B8B608B8B608B8B3C8B8B608B8B8B60
310
8B8B608B8B608B8B3C8B8B608B8B608B8B8B608B8B608B8B3C8B8B608B8B608B8B8B608B8B608B8B3C8B8B608B8B608B8B608B8B8B608B8B3C8B8B608B8B608B8B608B8B8B608B8B3C8B8B608B8B608B8B608B8B608B8B8B3C8B8B608B8B608B8B608B8B608B8B8B3C8B8B608B8B608B8B608B8B608B8B3C8B8B8B608B8B60
310
8B8B608B8B608B8B3C8B8B8B608B8B608B8B608B8B608B8B3C8B8B608B8B8B608B8B608B8B608B8B3C8B8B608B8B8B608B8B608B8B608B8B3C8B8B608B8B608B8B8B608B8B608B8B3C8B8B608B608B8B608B8B608B8B608B8B3C8B8B8B608B8B608B8B608B8B608B8B3C8B8B608B8B8B608B8B608B8B608B8B3C8B8B608B8B
310
8B608B8B608B8B608B8B3C8B8B608B8B608B8B8B608B8B608B8B3C8B8B608B8B608B8B8B608B8B608B8B3C8B8B608B8B608B8B608B8B8B608B8B3C8B8B608B8B608B8B608B8B8B608B8B3C8B8B608B8B608B8B608B8B608B8B8B3C8B8B608B8B608B8B608B8B608B8B8B3C8B8B608B8B608B8B608B8B608B8B3C8B8B8B608B
310
8B608B8B608B8B608B8B3C8B8B8B608B8B608B8B608B8B608B8B3C8B8B608B8B8B608B8B608B8B608B8B3C8B8B608B8B8B608B8B608B8B608B8B3C8B8B608B8B608B8B8B608B8B608B8B3C8B8B60606060606060606060606060603C6060606060606060606060606060603C6060606060606060606060606060603C606060
310
6060606060606060606060603C6060606060606060606060606060603C6060606060606060606060606060603C6060606060606060606060606060603C6060606060606060606060606060603C6060606060606060606060606060603C6060606060606060606060606060603C60606060606060606060606060603C606060
310
6060606060606060606060603C6060606060606060606060606060603C6060606060606060606060606060603C6060606060606060606060606060603C6060606060606060606060606060603C6060608B608B8B608B8B608B8B608B8B3C8B8B8B608B8B608B8B608B8B608B8B3C8B8B608B8B8B608B8B608B8B608B8B3C8B
310
8B608B8B8B608B8B608B8B608B8B3C8B8B608B8B608B8B8B608B8B608B8B3C8B8B608B8B608B8B8B608B8B608B8B3C8B8B608B8B608B8B608B8B8B608B8B3C8B8B608B8B608B8B608B8B8B608B8B3C8B8B608B8B608B8B608B8B608B8B8B3C8B8B608B8B608B8B608B8B608B8B8B3C8B8B608B8B608B8B608B8B608B8B3C8B
310
8B8B608B8B608B8B608B8B608B8B3C8B8B8B608B8B608B8B608B8B608B8B3C8B8B608B8B8B608B8B608B8B608B8B3C8B8B608B8B8B608B8B608B8B608B8B3C8B8B608B8B608B8B8B608B8B608B8B3C8B8B608B608B8B608B8B608B8B608B8B3C8B8B8B608B8B608B8B608B8B608B8B3C8B8B608B8B8B608B8B608B8B608B8B
310
3C8B8B608B8B8B608B8B608B8B608B8B3C8B8B608B8B608B8B8B608B8B608B8B3C8B8B608B8B608B8B8B608B8B608B8B3C8B8B608B8B608B8B608B8B8B608B8B3C8B8B608B8B608B8B608B8B8B608B8B3C8B8B608B8B608B8B608B8B608B8B8B3C8B8B608B8B608B8B608B8B608B8B8B3C8B8B608B8B608B8B608B8B608B8B
310
3C8B8B8B608B8B608B8B608B8B608B8B3C8B8B8B608B8B608B8B608B8B608B8B3C8B8B608B8B8B608B8B608B8B608B8B3C8B8B608B8B8B608B8B608B8B608B8B3C8B8B608B8B608B8B8B608B8B608B8B3C8B8B60606060606060606060606060603C6060606060606060606060606060603C60606060606060606060606060
310
60603C6060606060606060606060606060603C6060606060606060606060606060603C6060606060606060606060606060603C6060606060606060606060606060603C6060606060606060606060606060603C6060606060606060606060606060603C6060606060606060606060606060603C606060606060606060606060
310
60603C6060606060606060606060606060603C6060606060606060606060606060603C6060606060606060606060606060603C6060606060606060606060606060603C6060606060606060606060606060603C6060608B608B8B608B8B608B8B608B8B3C8B8B8B608B8B608B8B608B8B608B8B3C8B8B608B8B8B608B8B608B
310
8B608B8B3C8B8B608B8B8B608B8B608B8B608B8B3C8B8B608B8B608B8B8B608B8B608B8B3C8B8B608B8B608B8B8B608B8B608B8B3C8B8B608B8B608B8B608B8B8B608B8B3C8B8B608B8B608B8B608B8B8B608B8B3C8B8B608B8B608B8B608B8B608B8B8B3C8B8B608B8B608B8B608B8B608B8B8B3C8B8B608B8B608B8B608B
310
8B608B8B3C8B8B8B608B8B608B8B608B8B608B8B3C8B8B8B608B8B608B8B608B8B608B8B3C8B8B608B8B8B608B8B608B8B608B8B3C8B8B608B8B8B608B8B608B8B608B8B3C8B8B608B8B608B8B8B608B8B608B8B3C8B8B608B608B8B608B8B608B8B608B8B3C8B8B8B608B8B608B8B608B8B608B8B3C8B8B608B8B8B608B8B
310
608B8B608B8B3C8B8B608B8B8B608B8B608B8B608B8B3C8B8B608B8B608B8B8B608B8B608B8B3C8B8B608B8B608B8B8B608B8B608B8B3C8B8B608B8B608B8B608B8B8B608B8B3C8B8B608B8B608B8B608B8B8B608B8B3C8B8B608B8B608B8B608B8B608B8B8B3C8B8B608B8B608B8B608B8B608B8B8B3C8B8B608B8B608B8B
310
608B8B608B8B3C8B8B8B608B8B608B8B608B8B608B8B3C8B8B8B608B8B608B8B608B8B608B8B3C8B8B608B8B8B608B8B608B8B608B8B3C8B8B608B8B8B608B8B608B8B608B8B3C8B8B608B8B608B8B8B608B8B608B8B3C8B8B60606060606060606060606060603C6060606060606060606060606060603C60606060606060
310
60606060606060603C6060606060606060606060606060603C6060606060606060606060606060603C6060606060606060606060606060603C6060606060606060606060606060603C6060606060606060606060606060603C6060606060606060606060606060603C6060606060606060606060606060603C606060606060
310
60606060606060603C6060606060606060606060606060603C6060606060606060606060606060603C6060606060606060606060606060603C6060606060606060606060606060603C6060606060606060606060606060603C6060608B608B8B608B8B608B8B608B8B3C8B8B8B608B8B608B8B608B8B608B8B3C8B8B608B8B
310
8B608B8B608B8B608B8B3C8B8B608B8B8B608B8B608B8B608B8B3C8B8B608B8B608B8B8B608B8B608B8B3C8B8B608B8B608B8B8B608B8B608B8B3C8B8B608B8B608B8B608B8B8B608B8B3C8B8B608B8B608B8B608B8B8B608B8B3C8B8B608B8B608B8B608B8B608B8B8B3C8B8B608B8B608B8B608B8B608B8B8B3C8B8B608B
310
8B608B8B608B8B608B8B3C8B8B8B608B8B608B8B608B8B608B8B3C8B8B8B608B8B608B8B608B8B608B8B3C8B8B608B8B8B608B8B608B8B608B8B3C8B8B608B8B8B608B8B608B8B608B8B3C8B8B608B8B608B8B8B608B8B608B8B3C8B8B608B608B8B608B8B608B8B608B8B3C8B8B8B608B8B608B8B608B8B608B8B3C8B8B60
310
8B8B8B608B8B608B8B608B8B3C8B8B608B8B8B608B8B608B8B608B8B3C8B8B608B8B608B8B8B608B8B608B8B3C8B8B608B8B608B8B8B608B8B608B8B3C8B8B608B8B608B8B608B8B8B608B8B3C8B8B608B8B608B8B608B8B8B608B8B3C8B8B608B8B608B8B608B8B608B8B8B3C8B8B608B8B608B8B608B8B608B8B8B3C8B8B
310
608B8B608B8B608B8B608B8B3C8B8B8B608B8B608B8B608B8B608B8B3C8B8B8B608B8B608B8B608B8B608B8B3C8B8B608B8B8B608B8B608B8B608B8B3C8B8B608B8B8B608B8B608B8B608B8B3C8B8B608B8B608B8B8B608B8B608B8B3C8B8B603C3C3C3C3C3C3C3C3C3C3C3C3C3C3C3C3C3C3C3C3C3C3C3C3C3C3C3C3C3C3C
310
3C3C3C3C3C3C3C3C3C3C3C3C3C3C3C3C3C3C3C3C3C3C3C3C3C3C3C3C3C3C3C3C3C3C3C3C3C3C3C3C3C3C3C3C3C3C3C3C3C3C3C3C3C3C3C3C3C3C3C3C3C3C3C3C3C3C3C3C3C3C3C3C3C3C3C3C3C3C3C3C3C3C3C3C3C3C3C3C3C3C3C3C3C3C3C3C3C3C3C3C3C3C3C3C3C3C3C3C3C3C3C3C3C3C3C3C3C3C3C3C3C3C3C3C3C3C3C
310
3C3C3C3C3C3C3C3C3C3C3C3C3C3C3C3C3C3C3C3C3C3C3C3C3C3C3C3C3C3C3C3C3C3C3C3C3C3C3C3C3C3C3C3C3C3C3C3C3C3C3C3C3C3C3C3C3C3C3C3C3C3C3C3C3C3C3C3C3C3C3C3C3C3C3C3C3C3C3C3C3C3C3C3C3C3C3C3C3C3C3C3C3C3C3C3C3C3C8B608B8B608B8B608B8B608B8B3C8B8B8B608B8B608B8B608B8B608B8B
310
3C8B8B608B8B8B608B8B608B8B608B8B3C8B8B608B8B8B608B8B608B8B608B8B3C8B8B608B8B608B8B8B608B8B608B8B3C8B8B608B8B608B8B8B608B8B608B8B3C8B8B608B8B608B8B608B8B8B608B8B3C8B8B608B8B608B8B608B8B8B608B8B3C8B8B608B8B608B8B608B8B608B8B8B3C8B8B608B8B608B8B608B8B608B8B
310
8B3C8B8B608B8B608B8B608B8B608B8B3C8B8B8B608B8B608B8B608B8B608B8B3C8B8B8B608B8B608B8B608B8B608B8B3C8B8B608B8B8B608B8B608B8B608B8B3C8B8B608B8B8B608B8B608B8B608B8B3C8B8B608B8B608B8B8B608B8B608B8B3C8B8B608B608B8B608B8B608B8B608B8B3C8B8B8B608B8B608B8B608B8B60
310
8B8B3C8B8B608B8B8B608B8B608B8B608B8B3C8B8B608B8B8B608B8B608B8B608B8B3C8B8B608B8B608B8B8B608B8B608B8B3C8B8B608B8B608B8B8B608B8B608B8B3C8B8B608B8B608B8B608B8B8B608B8B3C8B8B608B8B608B8B608B8B8B608B8B3C8B8B608B8B608B8B608B8B608B8B8B3C8B8B608B8B608B8B608B8B60
310
8B8B8B3C8B8B608B8B608B8B608B8B608B8B3C8B8B8B608B8B608B8B608B8B608B8B3C8B8B8B608B8B608B8B608B8B608B8B3C8B8B608B8B8B608B8B608B8B608B8B3C8B8B608B8B8B608B8B608B8B608B8B3C8B8B608B8B608B8B8B608B8B608B8B3C8B8B608B608B8B608B8B608B8B608B8B3C8B8B8B608B8B608B8B608B
310
8B608B8B3C8B8B608B8B8B608B8B608B8B608B8B3C8B8B608B8B8B608B8B608B8B608B8B3C8B8B608B8B608B8B8B608B8B608B8B3C8B8B608B8B608B8B8B608B8B608B8B3C8B8B608B8B608B8B608B8B8B608B8B3C8B8B608B8B608B8B608B8B8B608B8B3C8B8B608B8B608B8B608B8B608B8B8B3C8B8B608B8B608B8B608B
310
8B608B8B8B3C8B8B608B8B608B8B608B8B608B8B3C8B8B8B608B8B608B8B608B8B608B8B3C8B8B8B608B8B608B8B608B8B608B8B3C8B8B608B8B8B608B8B608B8B608B8B3C8B8B608B8B8B608B8B608B8B608B8B3C8B8B608B8B608B8B8B608B8B608B8B3C8B8B60606060606060606060606060603C606060606060606060
310
6060606060603C6060606060606060606060606060603C6060606060606060606060606060603C6060606060606060606060606060603C6060606060606060606060606060603C6060606060606060606060606060603C6060606060606060606060606060603C6060606060606060606060606060603C6060606060606060
310
606060606060603C60606060606060606060606060603C6060606060606060606060606060603C6060606060606060606060606060603C6060606060606060606060606060603C6060606060606060606060606060603C6060606060606060606060606060603C6060608B608B8B608B8B608B8B608B8B3C8B8B8B608B8B60
310
8B8B608B8B608B8B3C8B8B608B8B8B608B8B608B8B608B8B3C8B8B608B8B8B608B8B608B8B608B8B3C8B8B608B8B608B8B8B608B8B608B8B3C8B8B608B8B608B8B8B608B8B608B8B3C8B8B608B8B608B8B608B8B8B608B8B3C8B8B608B8B608B8B608B8B8B608B8B3C8B8B608B8B608B8B608B8B608B8B8B3C8B8B608B8B60
310
8B8B608B8B608B8B8B3C8B8B608B8B608B8B608B8B608B8B3C8B8B8B608B8B608B8B608B8B608B8B3C8B8B8B608B8B608B8B608B8B608B8B3C8B8B608B8B8B608B8B608B8B608B8B3C8B8B608B8B8B608B8B608B8B608B8B3C8B8B608B8B608B8B8B608B8B608B8B3C8B8B608B608B8B608B8B608B8B608B8B3C8B8B8B608B
310
8B608B8B608B8B608B8B3C8B8B608B8B8B608B8B608B8B608B8B3C8B8B608B8B8B608B8B608B8B608B8B3C8B8B608B8B608B8B8B608B8B608B8B3C8B8B608B8B608B8B8B608B8B608B8B3C8B8B608B8B608B8B608B8B8B608B8B3C8B8B608B8B608B8B608B8B8B608B8B3C8B8B608B8B608B8B608B8B608B8B8B3C8B8B608B
310
8B608B8B608B8B608B8B8B3C8B8B608B8B608B8B608B8B608B8B3C8B8B8B608B8B608B8B608B8B608B8B3C8B8B8B608B8B608B8B608B8B608B8B3C8B8B608B8B8B608B8B608B8B608B8B3C8B8B608B8B8B608B8B608B8B608B8B3C8B8B608B8B608B8B8B608B8B608B8B3C8B8B60606060606060606060606060603C606060
310
6060606060606060606060603C6060606060606060606060606060603C6060606060606060606060606060603C6060606060606060606060606060603C6060606060606060606060606060603C6060606060606060606060606060603C6060606060606060606060606060603C6060606060606060606060606060603C6060
310
606060606060606060606060603C60606060606060606060606060603C6060606060606060606060606060603C6060606060606060606060606060603C6060606060606060606060606060603C6060606060606060606060606060603C6060606060606060606060606060603C6060608B608B8B608B8B608B8B608B8B3C8B
310
8B8B608B8B608B8B608B8B608B8B3C8B8B608B8B8B608B8B608B8B608B8B3C8B8B608B8B8B608B8B608B8B608B8B3C8B8B608B8B608B8B8B608B8B608B8B3C8B8B608B8B608B8B8B608B8B608B8B3C8B8B608B8B608B8B608B8B8B608B8B3C8B8B608B8B608B8B608B8B8B608B8B3C8B8B608B8B608B8B608B8B608B8B8B3C
310
8B8B608B8B608B8B608B8B608B8B8B3C8B8B608B8B608B8B608B8B608B8B3C8B8B8B608B8B608B8B608B8B608B8B3C8B8B8B608B8B608B8B608B8B608B8B3C8B8B608B8B8B608B8B608B8B608B8B3C8B8B608B8B8B608B8B608B8B608B8B3C8B8B608B8B608B8B8B608B8B608B8B3C8B8B608B608B8B608B8B608B8B608B8B
310
3C8B8B8B608B8B608B8B608B8B608B8B3C8B8B608B8B8B608B8B608B8B608B8B3C8B8B608B8B8B608B8B608B8B608B8B3C8B8B608B8B608B8B8B608B8B608B8B3C8B8B608B8B608B8B8B608B8B608B8B3C8B8B608B8B608B8B608B8B8B608B8B3C8B8B608B8B608B8B608B8B8B608B8B3C8B8B608B8B608B8B608B8B608B8B
310
8B3C8B8B608B8B608B8B608B8B608B8B8B3C8B8B608B8B608B8B608B8B608B8B3C8B8B8B608B8B608B8B608B8B608B8B3C8B8B8B608B8B608B8B608B8B608B8B3C8B8B608B8B8B608B8B608B8B608B8B3C8B8B608B8B8B608B8B608B8B608B8B3C8B8B608B8B608B8B8B608B8B608B8B3C8B8B606060606060606060606060
310
60603C6060606060606060606060606060603C6060606060606060606060606060603C6060606060606060606060606060603C6060606060606060606060606060603C6060606060606060606060606060603C6060606060606060606060606060603C6060606060606060606060606060603C606060606060606060606060
310
6060603C6060606060606060606060606060603C60606060606060606060606060603C6060606060606060606060606060603C6060606060606060606060606060603C6060606060606060606060606060603C6060606060606060606060606060603C6060606060606060606060606060603C6060608B608B8B608B8B608B
310
8B608B8B3C8B8B8B608B8B608B8B608B8B608B8B3C8B8B608B8B8B608B8B608B8B608B8B3C8B8B608B8B8B608B8B608B8B608B8B3C8B8B608B8B608B8B8B608B8B608B8B3C8B8B608B8B608B8B8B608B8B608B8B3C8B8B608B8B608B8B608B8B8B608B8B3C8B8B608B8B608B8B608B8B8B608B8B3C8B8B608B8B608B8B608B
310
8B608B8B8B3C8B8B608B8B608B8B608B8B608B8B8B3C8B8B608B8B608B8B608B8B608B8B3C8B8B8B608B8B608B8B608B8B608B8B3C8B8B8B608B8B608B8B608B8B608B8B3C8B8B608B8B8B608B8B608B8B608B8B3C8B8B608B8B8B608B8B608B8B608B8B3C8B8B608B8B608B8B8B608B8B608B8B3C8B8B608B608B8B608B8B
310
608B8B608B8B3C8B8B8B608B8B608B8B608B8B608B8B3C8B8B608B8B8B608B8B608B8B608B8B3C8B8B608B8B8B608B8B608B8B608B8B3C8B8B608B8B608B8B8B608B8B608B8B3C8B8B608B8B608B8B8B608B8B608B8B3C8B8B608B8B608B8B608B8B8B608B8B3C8B8B608B8B608B8B608B8B8B608B8B3C8B8B608B8B608B8B
310
608B8B608B8B8B3C8B8B608B8B608B8B608B8B608B8B8B3C8B8B608B8B608B8B608B8B608B8B3C8B8B8B608B8B608B8B608B8B608B8B3C8B8B8B608B8B608B8B608B8B608B8B3C8B8B608B8B8B608B8B608B8B608B8B3C8B8B608B8B8B608B8B608B8B608B8B3C8B8B608B8B608B8B8B608B8B608B8B3C8B8B606060606060
310
60606060606060603C6060606060606060606060606060603C6060606060606060606060606060603C6060606060606060606060606060603C6060606060606060606060606060603C6060606060606060606060606060603C6060606060606060606060606060603C6060606060606060606060606060603C606060606060
310
6060606060606060603C6060606060606060606060606060603C60606060606060606060606060603C6060606060606060606060606060603C6060606060606060606060606060603C6060606060606060606060606060603C6060606060606060606060606060603C6060606060606060606060606060603C6060608B608B
310
8B608B8B608B8B608B8B3C8B8B8B608B8B608B8B608B8B608B8B3C8B8B608B8B8B608B8B608B8B608B8B3C8B8B608B8B8B608B8B608B8B608B8B3C8B8B608B8B608B8B8B608B8B608B8B3C8B8B608B8B608B8B8B608B8B608B8B3C8B8B608B8B608B8B608B8B8B608B8B3C8B8B608B8B608B8B608B8B8B608B8B3C8B8B608B
310
8B608B8B608B8B608B8B8B3C8B8B608B8B608B8B608B8B608B8B8B3C8B8B608B8B608B8B608B8B608B8B3C8B8B8B608B8B608B8B608B8B608B8B3C8B8B8B608B8B608B8B608B8B608B8B3C8B8B608B8B8B608B8B608B8B608B8B3C8B8B608B8B8B608B8B608B8B608B8B3C8B8B608B8B608B8B8B608B8B608B8B3C8B8B608B
310
608B8B608B8B608B8B608B8B3C8B8B8B608B8B608B8B608B8B608B8B3C8B8B608B8B8B608B8B608B8B608B8B3C8B8B608B8B8B608B8B608B8B608B8B3C8B8B608B8B608B8B8B608B8B608B8B3C8B8B608B8B608B8B8B608B8B608B8B3C8B8B608B8B608B8B608B8B8B608B8B3C8B8B608B8B608B8B608B8B8B608B8B3C8B8B
310
608B8B608B8B608B8B608B8B8B3C8B8B608B8B608B8B608B8B608B8B8B3C8B8B608B8B608B8B608B8B608B8B3C8B8B8B608B8B608B8B608B8B608B8B3C8B8B8B608B8B608B8B608B8B608B8B3C8B8B608B8B8B608B8B608B8B608B8B3C8B8B608B8B8B608B8B608B8B608B8B3C8B8B608B8B608B8B8B608B8B608B8B3C8B8B
310
603C3C3C3C3C3C3C3C3C3C3C3C3C3C3C3C3C3C3C3C3C3C3C3C3C3C3C3C3C3C3C3C3C3C3C3C3C3C3C3C3C3C3C3C3C3C3C3C3C3C3C3C3C3C3C3C3C3C3C3C3C3C3C3C3C3C3C3C3C3C3C3C3C3C3C3C3C3C3C3C3C3C3C3C3C3C3C3C3C3C3C3C3C3C3C3C3C3C3C3C3C3C3C3C3C3C3C3C3C3C3C3C3C3C3C3C3C3C3C3C3C3C3C3C3C3C
310
3C3C3C3C3C3C3C3C3C3C3C3C3C3C3C3C3C3C3C3C3C3C3C3C3C3C3C3C3C3C3C3C3C3C3C3C3C3C3C3C3C3C3C3C3C3C3C3C3C3C3C3C3C3C3C3C3C3C3C3C3C3C3C3C3C3C3C3C3C3C3C3C3C3C3C3C3C3C3C3C3C3C3C3C3C3C3C3C3C3C3C3C3C3C3C3C3C3C3C3C3C3C3C3C3C3C3C3C3C3C3C3C3C3C3C3C3C3C3C3C3C3C3C3C3C3C3C
310
3C3C3C8B608B8B608B8B608B8B608B8B3C8B8B8B608B8B608B8B608B8B608B8B3C8B8B608B8B8B608B8B608B8B608B8B3C8B8B608B8B8B608B8B608B8B608B8B3C8B8B608B8B608B8B8B608B8B608B8B3C8B8B608B8B608B8B8B608B8B608B8B3C8B8B608B8B608B8B608B8B8B608B8B3C8B8B608B8B608B8B608B8B8B608B
310
8B3C8B8B608B8B608B8B608B8B608B8B8B3C8B8B608B8B608B8B608B8B608B8B8B3C8B8B608B8B608B8B608B8B608B8B3C8B8B8B608B8B608B8B608B8B608B8B3C8B8B8B608B8B608B8B608B8B608B8B3C8B8B608B8B8B608B8B608B8B608B8B3C8B8B608B8B8B608B8B608B8B608B8B3C8B8B608B8B608B8B8B608B8B608B
310
8B3C8B8B608B608B8B608B8B608B8B608B8B3C8B8B8B608B8B608B8B608B8B608B8B3C8B8B608B8B8B608B8B608B8B608B8B3C8B8B608B8B8B608B8B608B8B608B8B3C8B8B608B8B608B8B8B608B8B608B8B3C8B8B608B8B608B8B8B608B8B608B8B3C8B8B608B8B608B8B608B8B8B608B8B3C8B8B608B8B608B8B608B8B8B
310
608B8B3C8B8B608B8B608B8B608B8B608B8B8B3C8B8B608B8B608B8B608B8B608B8B8B3C8B8B608B8B608B8B608B8B608B8B3C8B8B8B608B8B608B8B608B8B608B8B3C8B8B8B608B8B608B8B608B8B608B8B3C8B8B608B8B8B608B8B608B8B608B8B3C8B8B608B8B8B608B8B608B8B608B8B3C8B8B608B8B608B8B8B608B8B
310
608B8B3C8B8B60606060606060606060606060603C6060606060606060606060606060603C6060606060606060606060606060603C6060606060606060606060606060603C6060606060606060606060606060603C6060606060606060606060606060603C6060606060606060606060606060603C60606060606060606060
310
60606060603C6060606060606060606060606060603C6060606060606060606060606060603C60606060606060606060606060603C6060606060606060606060606060603C6060606060606060606060606060603C6060606060606060606060606060603C6060606060606060606060606060603C60606060606060606060
310
60606060603C6060608B608B8B608B8B608B8B608B8B3C8B8B8B608B8B608B8B608B8B608B8B3C8B8B608B8B8B608B8B608B8B608B8B3C8B8B608B8B8B608B8B608B8B608B8B3C8B8B608B8B608B8B8B608B8B608B8B3C8B8B608B8B608B8B8B608B8B608B8B3C8B8B608B8B608B8B608B8B8B608B8B3C8B8B608B8B608B8B
310
608B8B8B608B8B3C8B8B608B8B608B8B608B8B608B8B8B3C8B8B608B8B608B8B608B8B608B8B8B3C8B8B608B8B608B8B608B8B608B8B3C8B8B8B608B8B608B8B608B8B608B8B3C8B8B8B608B8B608B8B608B8B608B8B3C8B8B608B8B8B608B8B608B8B608B8B3C8B8B608B8B8B608B8B608B8B608B8B3C8B8B608B8B608B8B
310
8B608B8B608B8B3C8B8B608B608B8B608B8B608B8B608B8B3C8B8B8B608B8B608B8B608B8B608B8B3C8B8B608B8B8B608B8B608B8B608B8B3C8B8B608B8B8B608B8B608B8B608B8B3C8B8B608B8B608B8B8B608B8B608B8B3C8B8B608B8B608B8B8B608B8B608B8B3C8B8B608B8B608B8B608B8B8B608B8B3C8B8B608B8B60
310
8B8B608B8B8B608B8B3C8B8B608B8B608B8B608B8B608B8B8B3C8B8B608B8B608B8B608B8B608B8B8B3C8B8B608B8B608B8B608B8B608B8B3C8B8B8B608B8B608B8B608B8B608B8B3C8B8B8B608B8B608B8B608B8B608B8B3C8B8B608B8B8B608B8B608B8B608B8B3C8B8B608B8B8B608B8B608B8B608B8B3C8B8B608B8B60
310
8B8B8B608B8B608B8B3C8B8B608B608B8B608B8B608B8B608B8B3C8B8B8B608B8B608B8B608B8B608B8B3C8B8B608B8B8B608B8B608B8B608B8B3C8B8B608B8B8B608B8B608B8B608B8B3C8B8B608B8B608B8B8B608B8B608B8B3C8B8B608B8B608B8B8B608B8B608B8B3C8B8B608B8B608B8B608B8B8B608B8B3C8B8B608B
310
8B608B8B608B8B8B608B8B3C8B8B608B8B608B8B608B8B608B8B8B3C8B8B608B8B608B8B608B8B608B8B8B3C8B8B608B8B608B8B608B8B608B8B3C8B8B8B608B8B608B8B608B8B608B8B3C8B8B8B608B8B608B8B608B8B608B8B3C8B8B608B8B8B608B8B608B8B608B8B3C8B8B608B8B8B608B8B608B8B608B8B3C8B8B608B
310
8B608B8B8B608B8B608B8B3C8B8B60606060606060606060606060603C6060606060606060606060606060603C6060606060606060606060606060603C6060606060606060606060606060603C6060606060606060606060606060603C6060606060606060606060606060603C6060606060606060606060606060603C6060
310
606060606060606060606060603C6060606060606060606060606060603C6060606060606060606060606060603C60606060606060606060606060603C6060606060606060606060606060603C6060606060606060606060606060603C6060606060606060606060606060603C6060606060606060606060606060603C6060
310
606060606060606060606060603C6060608B608B8B608B8B608B8B608B8B3C8B8B8B608B8B608B8B608B8B608B8B3C8B8B608B8B8B608B8B608B8B608B8B3C8B8B608B8B8B608B8B608B8B608B8B3C8B8B608B8B608B8B8B608B8B608B8B3C8B8B608B8B608B8B8B608B8B608B8B3C8B8B608B8B608B8B608B8B8B608B8B3C
310
8B8B608B8B608B8B608B8B8B608B8B3C8B8B608B8B608B8B608B8B608B8B8B3C8B8B608B8B608B8B608B8B608B8B8B3C8B8B608B8B608B8B608B8B608B8B3C8B8B8B608B8B608B8B608B8B608B8B3C8B8B8B608B8B608B8B608B8B608B8B3C8B8B608B8B8B608B8B608B8B608B8B3C8B8B608B8B8B608B8B608B8B608B8B3C
310
8B8B608B8B608B8B8B608B8B608B8B3C8B8B608B608B8B608B8B608B8B608B8B3C8B8B8B608B8B608B8B608B8B608B8B3C8B8B608B8B8B608B8B608B8B608B8B3C8B8B608B8B8B608B8B608B8B608B8B3C8B8B608B8B608B8B8B608B8B608B8B3C8B8B608B8B608B8B8B608B8B608B8B3C8B8B608B8B608B8B608B8B8B608B
310
8B3C8B8B608B8B608B8B608B8B8B608B8B3C8B8B608B8B608B8B608B8B608B8B8B3C8B8B608B8B608B8B608B8B608B8B8B3C8B8B608B8B608B8B608B8B608B8B3C8B8B8B608B8B608B8B608B8B608B8B3C8B8B8B608B8B608B8B608B8B608B8B3C8B8B608B8B8B608B8B608B8B608B8B3C8B8B608B8B8B608B8B608B8B608B
310
8B3C8B8B608B8B608B8B8B608B8B608B8B3C8B8B60606060606060606060606060603C6060606060606060606060606060603C6060606060606060606060606060603C6060606060606060606060606060603C6060606060606060606060606060603C6060606060606060606060606060603C606060606060606060606060
310
6060603C6060606060606060606060606060603C6060606060606060606060606060603C6060606060606060606060606060603C60606060606060606060606060603C6060606060606060606060606060603C6060606060606060606060606060603C6060606060606060606060606060603C606060606060606060606060
310
6060603C6060606060606060606060606060603C6060608B608B8B608B8B608B8B608B8B3C8B8B8B608B8B608B8B608B8B608B8B3C8B8B608B8B8B608B8B608B8B608B8B3C8B8B608B8B8B608B8B608B8B608B8B3C8B8B608B8B608B8B8B608B8B608B8B3C8B8B608B8B608B8B8B608B8B608B8B3C8B8B608B8B608B8B608B
310
8B8B608B8B3C8B8B608B8B608B8B608B8B8B608B8B3C8B8B608B8B608B8B608B8B608B8B8B3C8B8B608B8B608B8B608B8B608B8B8B3C8B8B608B8B608B8B608B8B608B8B3C8B8B8B608B8B608B8B608B8B608B8B3C8B8B8B608B8B608B8B608B8B608B8B3C8B8B608B8B8B608B8B608B8B608B8B3C8B8B608B8B8B608B8B60
310
8B8B608B8B3C8B8B608B8B608B8B8B608B8B608B8B3C8B8B608B608B8B608B8B608B8B608B8B3C8B8B8B608B8B608B8B608B8B608B8B3C8B8B608B8B8B608B8B608B8B608B8B3C8B8B608B8B8B608B8B608B8B608B8B3C8B8B608B8B608B8B8B608B8B608B8B3C8B8B608B8B608B8B8B608B8B608B8B3C8B8B608B8B608B8B
310
608B8B8B608B8B3C8B8B608B8B608B8B608B8B8B608B8B3C8B8B608B8B608B8B608B8B608B8B8B3C8B8B608B8B608B8B608B8B608B8B8B3C8B8B608B8B608B8B608B8B608B8B3C8B8B8B608B8B608B8B608B8B608B8B3C8B8B8B608B8B608B8B608B8B608B8B3C8B8B608B8B8B608B8B608B8B608B8B3C8B8B608B8B8B608B
310
8B608B8B608B8B3C8B8B608B8B608B8B8B608B8B608B8B3C8B8B60606060606060606060606060603C6060606060606060606060606060603C6060606060606060606060606060603C6060606060606060606060606060603C6060606060606060606060606060603C6060606060606060606060606060603C606060606060
310
6060606060606060603C6060606060606060606060606060603C6060606060606060606060606060603C6060606060606060606060606060603C60606060606060606060606060603C6060606060606060606060606060603C6060606060606060606060606060603C6060606060606060606060606060603C606060606060
310
6060606060606060603C6060606060606060606060606060603C6060608B608B8B608B8B608B8B608B8B3C8B8B8B608B8B608B8B608B8B608B8B3C8B8B608B8B8B608B8B608B8B608B8B3C8B8B608B8B8B608B8B608B8B608B8B3C8B8B608B8B608B8B8B608B8B608B8B3C8B8B608B8B608B8B8B608B8B608B8B3C8B8B608B
310
8B608B8B608B8B8B608B8B3C8B8B608B8B608B8B608B8B8B608B8B3C8B8B608B8B608B8B608B8B608B8B8B3C8B8B608B8B608B8B608B8B608B8B8B3C8B8B608B8B608B8B608B8B608B8B3C8B8B8B608B8B608B8B608B8B608B8B3C8B8B8B608B8B608B8B608B8B608B8B3C8B8B608B8B8B608B8B608B8B608B8B3C8B8B608B
310
8B8B608B8B608B8B608B8B3C8B8B608B8B608B8B8B608B8B608B8B3C8B8B608B608B8B608B8B608B8B608B8B3C8B8B8B608B8B608B8B608B8B608B8B3C8B8B608B8B8B608B8B608B8B608B8B3C8B8B608B8B8B608B8B608B8B608B8B3C8B8B608B8B608B8B8B608B8B608B8B3C8B8B608B8B608B8B8B608B8B608B8B3C8B8B
310
608B8B608B8B608B8B8B608B8B3C8B8B608B8B608B8B608B8B8B608B8B3C8B8B608B8B608B8B608B8B608B8B8B3C8B8B608B8B608B8B608B8B608B8B8B3C8B8B608B8B608B8B608B8B608B8B3C8B8B8B608B8B608B8B608B8B608B8B3C8B8B8B608B8B608B8B608B8B608B8B3C8B8B608B8B8B608B8B608B8B608B8B3C8B8B
310
608B8B8B608B8B608B8B608B8B3C8B8B608B8B608B8B8B608B8B608B8B3C8B8B603C3C3C3C3C3C3C3C3C3C3C3C3C3C3C3C3C3C3C3C3C3C3C3C3C3C3C3C3C3C3C3C3C3C3C3C3C3C3C3C3C3C3C3C3C3C3C3C3C3C3C3C3C3C3C3C3C3C3C3C3C3C3C3C3C3C3C3C3C3C3C3C3C3C3C3C3C3C3C3C3C3C3C3C3C3C3C3C3C3C3C3C3C3C
310
3C3C3C3C3C3C3C3C3C3C3C3C3C3C3C3C3C3C3C3C3C3C3C3C3C3C3C3C3C3C3C3C3C3C3C3C3C3C3C3C3C3C3C3C3C3C3C3C3C3C3C3C3C3C3C3C3C3C3C3C3C3C3C3C3C3C3C3C3C3C3C3C3C3C3C3C3C3C3C3C3C3C3C3C3C3C3C3C3C3C3C3C3C3C3C3C3C3C3C3C3C3C3C3C3C3C3C3C3C3C3C3C3C3C3C3C3C3C3C3C3C3C3C3C3C3C3C
310
3C3C3C3C3C3C3C3C3C3C3C3C3C3C3C3C3C3C3C3C3C3C3C3C3C3C3C3C3C3C3C3C3C3C3C8B608B8B608B8B608B8B608B8B3C8B8B8B608B8B608B8B608B8B608B8B3C8B8B608B8B8B608B8B608B8B608B8B3C8B8B608B8B8B608B8B608B8B608B8B3C8B8B608B8B608B8B8B608B8B608B8B3C8B8B608B8B608B8B8B608B8B608B
310
8B3C8B8B608B8B608B8B608B8B8B608B8B3C8B8B608B8B608B8B608B8B8B608B8B3C8B8B608B8B608B8B608B8B608B8B8B3C8B8B608B8B608B8B608B8B608B8B8B3C8B8B608B8B608B8B608B8B608B8B3C8B8B8B608B8B608B8B608B8B608B8B3C8B8B8B608B8B608B8B608B8B608B8B3C8B8B608B8B8B608B8B608B8B608B
310
8B3C8B8B608B8B8B608B8B608B8B608B8B3C8B8B608B8B608B8B8B608B8B608B8B3C8B8B608B608B8B608B8B608B8B608B8B3C8B8B8B608B8B608B8B608B8B608B8B3C8B8B608B8B8B608B8B608B8B608B8B3C8B8B608B8B8B608B8B608B8B608B8B3C8B8B608B8B608B8B8B608B8B608B8B3C8B8B608B8B608B8B8B608B8B
310
608B8B3C8B8B608B8B608B8B608B8B8B608B8B3C8B8B608B8B608B8B608B8B8B608B8B3C8B8B608B8B608B8B608B8B608B8B8B3C8B8B608B8B608B8B608B8B608B8B8B3C8B8B608B8B608B8B608B8B608B8B3C8B8B8B608B8B608B8B608B8B608B8B3C8B8B8B608B8B608B8B608B8B608B8B3C8B8B608B8B8B608B8B608B8B
310
608B8B3C8B8B608B8B8B608B8B608B8B608B8B3C8B8B608B8B608B8B8B608B8B608B8B3C8B8B60606060606060606060606060603C6060606060606060606060606060603C6060606060606060606060606060603C6060606060606060606060606060603C6060606060606060606060606060603C60606060606060606060
310
60606060603C6060606060606060606060606060603C6060606060606060606060606060603C6060606060606060606060606060603C6060606060606060606060606060603C60606060606060606060606060603C6060606060606060606060606060603C6060606060606060606060606060603C60606060606060606060
310
60606060603C6060606060606060606060606060603C6060606060606060606060606060603C6060608B608B8B608B8B608B8B608B8B3C8B8B8B608B8B608B8B608B8B608B8B3C8B8B608B8B8B608B8B608B8B608B8B3C8B8B608B8B8B608B8B608B8B608B8B3C8B8B608B8B608B8B8B608B8B608B8B3C8B8B608B8B608B8B
310
8B608B8B608B8B3C8B8B608B8B608B8B608B8B8B608B8B3C8B8B608B8B608B8B608B8B8B608B8B3C8B8B608B8B608B8B608B8B608B8B8B3C8B8B608B8B608B8B608B8B608B8B8B3C8B8B608B8B608B8B608B8B608B8B3C8B8B8B608B8B608B8B608B8B608B8B3C8B8B8B608B8B608B8B608B8B608B8B3C8B8B608B8B8B608B
310
8B608B8B608B8B3C8B8B608B8B8B608B8B608B8B608B8B3C8B8B608B8B608B8B8B608B8B608B8B3C8B8B608B608B8B608B8B608B8B608B8B3C8B8B8B608B8B608B8B608B8B608B8B3C8B8B608B8B8B608B8B608B8B608B8B3C8B8B608B8B8B608B8B608B8B608B8B3C8B8B608B8B608B8B8B608B8B608B8B3C8B8B608B8B60
310
8B8B8B608B8B608B8B3C8B8B608B8B608B8B608B8B8B608B8B3C8B8B608B8B608B8B608B8B8B608B8B3C8B8B608B8B608B8B608B8B608B8B8B3C8B8B608B8B608B8B608B8B608B8B8B3C8B8B608B8B608B8B608B8B608B8B3C8B8B8B608B8B608B8B608B8B608B8B3C8B8B8B608B8B608B8B608B8B608B8B3C8B8B608B8B8B
310
608B8B608B8B608B8B3C8B8B608B8B8B608B8B608B8B608B8B3C8B8B608B8B608B8B8B608B8B608B8B3C8B8B60606060606060606060606060603C6060606060606060606060606060603C6060606060606060606060606060603C6060606060606060606060606060603C6060606060606060606060606060603C60606060
310
60606060606060606060603C6060606060606060606060606060603C6060606060606060606060606060603C6060606060606060606060606060603C6060606060606060606060606060603C60606060606060606060606060603C6060606060606060606060606060603C6060606060606060606060606060603C60606060
310
60606060606060606060603C6060606060606060606060606060603C6060606060606060606060606060603C6060608B608B8B608B8B608B8B608B8B3C8B8B8B608B8B608B8B608B8B608B8B3C8B8B608B8B8B608B8B608B8B608B8B3C8B8B608B8B8B608B8B608B8B608B8B3C8B8B608B8B608B8B8B608B8B608B8B3C8B8B
310
608B8B608B8B8B608B8B608B8B3C8B8B608B8B608B8B608B8B8B608B8B3C8B8B608B8B608B8B608B8B8B608B8B3C8B8B608B8B608B8B608B8B608B8B8B3C8B8B608B8B608B8B608B8B608B8B8B3C8B8B608B8B608B8B608B8B608B8B3C8B8B8B608B8B608B8B608B8B608B8B3C8B8B8B608B8B608B8B608B8B608B8B3C8B8B
310
608B8B8B608B8B608B8B608B8B3C8B8B608B8B8B608B8B608B8B608B8B3C8B8B608B8B608B8B8B608B8B608B8B3C8B8B608B608B8B608B8B608B8B608B8B3C8B8B8B608B8B608B8B608B8B608B8B3C8B8B608B8B8B608B8B608B8B608B8B3C8B8B608B8B8B608B8B608B8B608B8B3C8B8B608B8B608B8B8B608B8B608B8B3C
310
8B8B608B8B608B8B8B608B8B608B8B3C8B8B608B8B608B8B608B8B8B608B8B3C8B8B608B8B608B8B608B8B8B608B8B3C8B8B608B8B608B8B608B8B608B8B8B3C8B8B608B8B608B8B608B8B608B8B8B3C8B8B608B8B608B8B608B8B608B8B3C8B8B8B608B8B608B8B608B8B608B8B3C8B8B8B608B8B608B8B608B8B608B8B3C
310
8B8B608B8B8B608B8B608B8B608B8B3C8B8B608B8B8B608B8B608B8B608B8B3C8B8B608B8B608B8B8B608B8B608B8B3C8B8B608B608B8B608B8B608B8B608B8B3C8B8B8B608B8B608B8B608B8B608B8B3C8B8B608B8B8B608B8B608B8B608B8B3C8B8B608B8B8B608B8B608B8B608B8B3C8B8B608B8B608B8B8B608B8B608B
310
8B3C8B8B608B8B608B8B8B608B8B608B8B3C8B8B608B8B608B8B608B8B8B608B8B3C8B8B608B8B608B8B608B8B8B608B8B3C8B8B608B8B608B8B608B8B608B8B8B3C8B8B608B8B608B8B608B8B608B8B8B3C8B8B608B8B608B8B608B8B608B8B3C8B8B8B608B8B608B8B608B8B608B8B3C8B8B8B608B8B608B8B608B8B608B
310
8B3C8B8B608B8B8B608B8B608B8B608B8B3C8B8B608B8B8B608B8B608B8B608B8B3C8B8B608B8B608B8B8B608B8B608B8B3C8B8B60606060606060606060606060603C6060606060606060606060606060603C6060606060606060606060606060603C6060606060606060606060606060603C606060606060606060606060
310
6060603C6060606060606060606060606060603C6060606060606060606060606060603C6060606060606060606060606060603C6060606060606060606060606060603C6060606060606060606060606060603C60606060606060606060606060603C6060606060606060606060606060603C606060606060606060606060
310
6060603C6060606060606060606060606060603C6060606060606060606060606060603C6060606060606060606060606060603C6060608B608B8B608B8B608B8B608B8B3C8B8B8B608B8B608B8B608B8B608B8B3C8B8B608B8B8B608B8B608B8B608B8B3C8B8B608B8B8B608B8B608B8B608B8B3C8B8B608B8B608B8B8B60
310
8B8B608B8B3C8B8B608B8B608B8B8B608B8B608B8B3C8B8B608B8B608B8B608B8B8B608B8B3C8B8B608B8B608B8B608B8B8B608B8B3C8B8B608B8B608B8B608B8B608B8B8B3C8B8B608B8B608B8B608B8B608B8B8B3C8B8B608B8B608B8B608B8B608B8B3C8B8B8B608B8B608B8B608B8B608B8B3C8B8B8B608B8B608B8B60
310
8B8B608B8B3C8B8B608B8B8B608B8B608B8B608B8B3C8B8B608B8B8B608B8B608B8B608B8B3C8B8B608B8B608B8B8B608B8B608B8B3C8B8B608B608B8B608B8B608B8B608B8B3C8B8B8B608B8B608B8B608B8B608B8B3C8B8B608B8B8B608B8B608B8B608B8B3C8B8B608B8B8B608B8B608B8B608B8B3C8B8B608B8B608B8B
310
8B608B8B608B8B3C8B8B608B8B608B8B8B608B8B608B8B3C8B8B608B8B608B8B608B8B8B608B8B3C8B8B608B8B608B8B608B8B8B608B8B3C8B8B608B8B608B8B608B8B608B8B8B3C8B8B608B8B608B8B608B8B608B8B8B3C8B8B608B8B608B8B608B8B608B8B3C8B8B8B608B8B608B8B608B8B608B8B3C8B8B8B608B8B608B
310
8B608B8B608B8B3C8B8B608B8B8B608B8B608B8B608B8B3C8B8B608B8B8B608B8B608B8B608B8B3C8B8B608B8B608B8B8B608B8B608B8B3C8B8B60606060606060606060606060603C6060606060606060606060606060603C6060606060606060606060606060603C6060606060606060606060606060603C606060606060
310
6060606060606060603C6060606060606060606060606060603C6060606060606060606060606060603C6060606060606060606060606060603C6060606060606060606060606060603C6060606060606060606060606060603C60606060606060606060606060603C6060606060606060606060606060603C606060606060
310
6060606060606060603C6060606060606060606060606060603C6060606060606060606060606060603C6060606060606060606060606060603C6060608B608B8B608B8B608B8B608B8B3C8B8B8B608B8B608B8B608B8B608B8B3C8B8B608B8B8B608B8B608B8B608B8B3C8B8B608B8B8B608B8B608B8B608B8B3C8B8B608B
310
8B608B8B8B608B8B608B8B3C8B8B608B8B608B8B8B608B8B608B8B3C8B8B608B8B608B8B608B8B8B608B8B3C8B8B608B8B608B8B608B8B8B608B8B3C8B8B608B8B608B8B608B8B608B8B8B3C8B8B608B8B608B8B608B8B608B8B8B3C8B8B608B8B608B8B608B8B608B8B3C8B8B8B608B8B608B8B608B8B608B8B3C8B8B8B60
310
8B8B608B8B608B8B608B8B3C8B8B608B8B8B608B8B608B8B608B8B3C8B8B608B8B8B608B8B608B8B608B8B3C8B8B608B8B608B8B8B608B8B608B8B3C8B8B608B608B8B608B8B608B8B608B8B3C8B8B8B608B8B608B8B608B8B608B8B3C8B8B608B8B8B608B8B608B8B608B8B3C8B8B608B8B8B608B8B608B8B608B8B3C8B8B
310
608B8B608B8B8B608B8B608B8B3C8B8B608B8B608B8B8B608B8B608B8B3C8B8B608B8B608B8B608B8B8B608B8B3C8B8B608B8B608B8B608B8B8B608B8B3C8B8B608B8B608B8B608B8B608B8B8B3C8B8B608B8B608B8B608B8B608B8B8B3C8B8B608B8B608B8B608B8B608B8B3C8B8B8B608B8B608B8B608B8B608B8B3C8B8B
310
8B608B8B608B8B608B8B608B8B3C8B8B608B8B8B608B8B608B8B608B8B3C8B8B608B8B8B608B8B608B8B608B8B3C8B8B608B8B608B8B8B608B8B608B8B3C8B8B603C3C3C3C3C3C3C3C3C3C3C3C3C3C3C3C3C3C3C3C3C3C3C3C3C3C3C3C3C3C3C3C3C3C3C3C3C3C3C3C3C3C3C3C3C3C3C3C3C3C3C3C3C3C3C3C3C3C3C3C3C3C
310
3C3C3C3C3C3C3C3C3C3C3C3C3C3C3C3C3C3C3C3C3C3C3C3C3C3C3C3C3C3C3C3C3C3C3C3C3C3C3C3C3C3C3C3C3C3C3C3C3C3C3C3C3C3C3C3C3C3C3C3C3C3C3C3C3C3C3C3C3C3C3C3C3C3C3C3C3C3C3C3C3C3C3C3C3C3C3C3C3C3C3C3C3C3C3C3C3C3C3C3C3C3C3C3C3C3C3C3C3C3C3C3C3C3C3C3C3C3C3C3C3C3C3C3C3C3C3C
310
3C3C3C3C3C3C3C3C3C3C3C3C3C3C3C3C3C3C3C3C3C3C3C3C3C3C3C3C3C3C3C3C3C3C3C3C3C3C3C3C3C3C3C3C3C3C3C3C3C3C3C3C3C3C3C3C3C3C3C3C3C3C3C3C3C3C3C8B608B8B608B8B608B8B608B8B3C8B8B8B608B8B608B8B608B8B608B8B3C8B8B608B8B8B608B8B608B8B608B8B3C8B8B608B8B8B608B8B608B8B608B
310
8B3C8B8B608B8B608B8B8B608B8B608B8B3C8B8B608B8B608B8B8B608B8B608B8B3C8B8B608B8B608B8B608B8B8B608B8B3C8B8B608B8B608B8B608B8B8B608B8B3C8B8B608B8B608B8B608B8B608B8B8B3C8B8B608B8B608B8B608B8B608B8B8B3C8B8B608B8B608B8B608B8B608B8B3C8B8B8B608B8B608B8B608B8B608B
310
8B3C8B8B8B608B8B608B8B608B8B608B8B3C8B8B608B8B8B608B8B608B8B608B8B3C8B8B608B8B8B608B8B608B8B608B8B3C8B8B608B8B608B8B8B608B8B608B8B3C8B8B608B608B8B608B8B608B8B608B8B3C8B8B8B608B8B608B8B608B8B608B8B3C8B8B608B8B8B608B8B608B8B608B8B3C8B8B608B8B8B608B8B608B8B
310
608B8B3C8B8B608B8B608B8B8B608B8B608B8B3C8B8B608B8B608B8B8B608B8B608B8B3C8B8B608B8B608B8B608B8B8B608B8B3C8B8B608B8B608B8B608B8B8B608B8B3C8B8B608B8B608B8B608B8B608B8B8B3C8B8B608B8B608B8B608B8B608B8B8B3C8B8B608B8B608B8B608B8B608B8B3C8B8B8B608B8B608B8B608B8B
310
608B8B3C8B8B8B608B8B608B8B608B8B608B8B3C8B8B608B8B8B608B8B608B8B608B8B3C8B8B608B8B8B608B8B608B8B608B8B3C8B8B608B8B608B8B8B608B8B608B8B3C8B8B60606060606060606060606060603C6060606060606060606060606060603C6060606060606060606060606060603C60606060606060606060
310
60606060603C6060606060606060606060606060603C6060606060606060606060606060603C6060606060606060606060606060603C6060606060606060606060606060603C6060606060606060606060606060603C6060606060606060606060606060603C60606060606060606060606060603C60606060606060606060
310
60606060603C6060606060606060606060606060603C6060606060606060606060606060603C6060606060606060606060606060603C6060606060606060606060606060603C6060608B608B8B608B8B608B8B608B8B3C8B8B8B608B8B608B8B608B8B608B8B3C8B8B608B8B8B608B8B608B8B608B8B3C8B8B608B8B8B608B
310
8B608B8B608B8B3C8B8B608B8B608B8B8B608B8B608B8B3C8B8B608B8B608B8B8B608B8B608B8B3C8B8B608B8B608B8B608B8B8B608B8B3C8B8B608B8B608B8B608B8B8B608B8B3C8B8B608B8B608B8B608B8B608B8B8B3C8B8B608B8B608B8B608B8B608B8B8B3C8B8B608B8B608B8B608B8B608B8B3C8B8B8B608B8B608B
310
8B608B8B608B8B3C8B8B8B608B8B608B8B608B8B608B8B3C8B8B608B8B8B608B8B608B8B608B8B3C8B8B608B8B8B608B8B608B8B608B8B3C8B8B608B8B608B8B8B608B8B608B8B3C8B8B608B608B8B608B8B608B8B608B8B3C8B8B8B608B8B608B8B608B8B608B8B3C8B8B608B8B8B608B8B608B8B608B8B3C8B8B608B8B8B
310
608B8B608B8B608B8B3C8B8B608B8B608B8B8B608B8B608B8B3C8B8B608B8B608B8B8B608B8B608B8B3C8B8B608B8B608B8B608B8B8B608B8B3C8B8B608B8B608B8B608B8B8B608B8B3C8B8B608B8B608B8B608B8B608B8B8B3C8B8B608B8B608B8B608B8B608B8B8B3C8B8B608B8B608B8B608B8B608B8B3C8B8B8B608B8B
310
608B8B608B8B608B8B3C8B8B8B608B8B608B8B608B8B608B8B3C8B8B608B8B8B608B8B608B8B608B8B3C8B8B608B8B8B608B8B608B8B608B8B3C8B8B608B8B608B8B8B608B8B608B8B3C8B8B60606060606060606060606060603C6060606060606060606060606060603C6060606060606060606060606060603C60606060
310
60606060606060606060603C6060606060606060606060606060603C6060606060606060606060606060603C6060606060606060606060606060603C6060606060606060606060606060603C6060606060606060606060606060603C6060606060606060606060606060603C60606060606060606060606060603C60606060
310
60606060606060606060603C6060606060606060606060606060603C6060606060606060606060606060603C6060606060606060606060606060603C6060606060606060606060606060603C6060608B608B8B608B8B608B8B608B8B3C8B8B8B608B8B608B8B608B8B608B8B3C8B8B608B8B8B608B8B608B8B608B8B3C8B8B
310
608B8B8B608B8B608B8B608B8B3C8B8B608B8B608B8B8B608B8B608B8B3C8B8B608B8B608B8B8B608B8B608B8B3C8B8B608B8B608B8B608B8B8B608B8B3C8B8B608B8B608B8B608B8B8B608B8B3C8B8B608B8B608B8B608B8B608B8B8B3C8B8B608B8B608B8B608B8B608B8B8B3C8B8B608B8B608B8B608B8B608B8B3C8B8B
310
8B608B8B608B8B608B8B608B8B3C8B8B8B608B8B608B8B608B8B608B8B3C8B8B608B8B8B608B8B608B8B608B8B3C8B8B608B8B8B608B8B608B8B608B8B3C8B8B608B8B608B8B8B608B8B608B8B3C8B8B608B608B8B608B8B608B8B608B8B3C8B8B8B608B8B608B8B608B8B608B8B3C8B8B608B8B8B608B8B608B8B608B8B3C
310
8B8B608B8B8B608B8B608B8B608B8B3C8B8B608B8B608B8B8B608B8B608B8B3C8B8B608B8B608B8B8B608B8B608B8B3C8B8B608B8B608B8B608B8B8B608B8B3C8B8B608B8B608B8B608B8B8B608B8B3C8B8B608B8B608B8B608B8B608B8B8B3C8B8B608B8B608B8B608B8B608B8B8B3C8B8B608B8B608B8B608B8B608B8B3C
310
8B8B8B608B8B608B8B608B8B608B8B3C8B8B8B608B8B608B8B608B8B608B8B3C8B8B608B8B8B608B8B608B8B608B8B3C8B8B608B8B8B608B8B608B8B608B8B3C8B8B608B8B608B8B8B608B8B608B8B3C8B8B60606060606060606060606060603C6060606060606060606060606060603C6060606060606060606060606060
310
603C6060606060606060606060606060603C6060606060606060606060606060603C6060606060606060606060606060603C6060606060606060606060606060603C6060606060606060606060606060603C6060606060606060606060606060603C6060606060606060606060606060603C60606060606060606060606060
310
603C6060606060606060606060606060603C6060606060606060606060606060603C6060606060606060606060606060603C6060606060606060606060606060603C6060606060606060606060606060603C6060608B608B8B608B8B608B8B608B8B3C8B8B8B608B8B608B8B608B8B608B8B3C8B8B608B8B8B608B8B608B8B
310
608B8B3C8B8B608B8B8B608B8B608B8B608B8B3C8B8B608B8B608B8B8B608B8B608B8B3C8B8B608B8B608B8B8B608B8B608B8B3C8B8B608B8B608B8B608B8B8B608B8B3C8B8B608B8B608B8B608B8B8B608B8B3C8B8B608B8B608B8B608B8B608B8B8B3C8B8B608B8B608B8B608B8B608B8B8B3C8B8B608B8B608B8B608B8B
310
608B8B3C8B8B8B608B8B608B8B608B8B608B8B3C8B8B8B608B8B608B8B608B8B608B8B3C8B8B608B8B8B608B8B608B8B608B8B3C8B8B608B8B8B608B8B608B8B608B8B3C8B8B608B8B608B8B8B608B8B608B8B3C8B8B608B608B8B608B8B608B8B608B8B3C8B8B8B608B8B608B8B608B8B608B8B3C8B8B608B8B8B608B8B60
310
8B8B608B8B3C8B8B608B8B8B608B8B608B8B608B8B3C8B8B608B8B608B8B8B608B8B608B8B3C8B8B608B8B608B8B8B608B8B608B8B3C8B8B608B8B608B8B608B8B8B608B8B3C8B8B608B8B608B8B608B8B8B608B8B3C8B8B608B8B608B8B608B8B608B8B8B3C8B8B608B8B608B8B608B8B608B8B8B3C8B8B608B8B608B8B60
310
8B8B608B8B3C8B8B8B608B8B608B8B608B8B608B8B3C8B8B8B608B8B608B8B608B8B608B8B3C8B8B608B8B8B608B8B608B8B608B8B3C8B8B608B8B8B608B8B608B8B608B8B3C8B8B608B8B608B8B8B608B8B608B8B3C8B8B608B608B8B608B8B608B8B608B8B3C8B8B8B608B8B608B8B608B8B608B8B3C8B8B608B8B8B608B
310
8B608B8B608B8B3C8B8B608B8B8B608B8B608B8B608B8B3C8B8B608B8B608B8B8B608B8B608B8B3C8B8B608B8B608B8B8B608B8B608B8B3C8B8B608B8B608B8B608B8B8B608B8B3C8B8B608B8B608B8B608B8B8B608B8B3C8B8B608B8B608B8B608B8B608B8B8B3C8B8B608B8B608B8B608B8B608B8B8B3C8B8B608B8B608B
310
8B608B8B608B8B3C8B8B8B608B8B608B8B608B8B608B8B3C8B8B8B608B8B608B8B608B8B608B8B3C8B8B608B8B8B608B8B608B8B608B8B3C8B8B608B8B8B608B8B608B8B608B8B3C8B8B608B8B608B8B8B608B8B608B8B3C8B8B60606060606060606060606060603C6060606060606060606060606060603C606060606060
310
6060606060606060603C6060606060606060606060606060603C6060606060606060606060606060603C6060606060606060606060606060603C6060606060606060606060606060603C6060606060606060606060606060603C6060606060606060606060606060603C6060606060606060606060606060603C6060606060
310
6060606060606060603C6060606060606060606060606060603C6060606060606060606060606060603C6060606060606060606060606060603C6060606060606060606060606060603C6060606060606060606060606060603C6060608B608B8B608B8B608B8B608B8B3C8B8B8B608B8B608B8B608B8B608B8B3C8B8B608B
310
8B8B608B8B608B8B608B8B3C8B8B608B8B8B608B8B608B8B608B8B3C8B8B608B8B608B8B8B608B8B608B8B3C8B8B608B8B608B8B8B608B8B608B8B3C8B8B608B8B608B8B608B8B8B608B8B3C8B8B608B8B608B8B608B8B8B608B8B3C8B8B608B8B608B8B608B8B608B8B8B3C8B8B608B8B608B8B608B8B608B8B8B3C8B8B60
310
8B8B608B8B608B8B608B8B3C8B8B8B608B8B608B8B608B8B608B8B3C8B8B8B608B8B608B8B608B8B608B8B3C8B8B608B8B8B608B8B608B8B608B8B3C8B8B608B8B8B608B8B608B8B608B8B3C8B8B608B8B608B8B8B608B8B608B8B3C8B8B608B608B8B608B8B608B8B608B8B3C8B8B8B608B8B608B8B608B8B608B8B3C8B8B
310
608B8B8B608B8B608B8B608B8B3C8B8B608B8B8B608B8B608B8B608B8B3C8B8B608B8B608B8B8B608B8B608B8B3C8B8B608B8B608B8B8B608B8B608B8B3C8B8B608B8B608B8B608B8B8B608B8B3C8B8B608B8B608B8B608B8B8B608B8B3C8B8B608B8B608B8B608B8B608B8B8B3C8B8B608B8B608B8B608B8B608B8B8B3C8B
310
8B608B8B608B8B608B8B608B8B3C8B8B8B608B8B608B8B608B8B608B8B3C8B8B8B608B8B608B8B608B8B608B8B3C8B8B608B8B8B608B8B608B8B608B8B3C8B8B608B8B8B608B8B608B8B608B8B3C8B8B608B8B608B8B8B608B8B608B8B3C8B8B603C3C3C3C3C3C3C3C3C3C3C3C3C3C3C3C3C3C3C3C3C3C3C3C3C3C3C3C3C3C
310
3C3C3C3C3C3C3C3C3C3C3C3C3C3C3C3C3C3C3C3C3C3C3C3C3C3C3C3C3C3C3C3C3C3C3C3C3C3C3C3C3C3C3C3C3C3C3C3C3C3C3C3C3C3C3C3C3C3C3C3C3C3C3C3C3C3C3C3C3C3C3C3C3C3C3C3C3C3C3C3C3C3C3C3C3C3C3C3C3C3C3C3C3C3C3C3C3C3C3C3C3C3C3C3C3C3C3C3C3C3C3C3C3C3C3C3C3C3C3C3C3C3C3C3C3C3C3C
310
3C3C3C3C3C3C3C3C3C3C3C3C3C3C3C3C3C3C3C3C3C3C3C3C3C3C3C3C3C3C3C3C3C3C3C3C3C3C3C3C3C3C3C3C3C3C3C3C3C3C3C3C3C3C3C3C3C3C3C3C3C3C3C3C3C3C3C3C3C3C3C3C3C3C3C3C3C3C3C3C3C3C3C3C3C3C3C3C3C3C3C3C3C3C3C3C3C3C3C8B608B8B608B8B608B8B608B8B3C8B8B8B608B8B608B8B608B8B608B
310
8B3C8B8B608B8B8B608B8B608B8B608B8B3C8B8B608B8B8B608B8B608B8B608B8B3C8B8B608B8B608B8B8B608B8B608B8B3C8B8B608B8B608B8B8B608B8B608B8B3C8B8B608B8B608B8B608B8B8B608B8B3C8B8B608B8B608B8B608B8B8B608B8B3C8B8B608B8B608B8B608B8B608B8B8B3C8B8B608B8B608B8B608B8B608B
310
8B8B3C8B8B608B8B608B8B608B8B608B8B3C8B8B8B608B8B608B8B608B8B608B8B3C8B8B8B608B8B608B8B608B8B608B8B3C8B8B608B8B8B608B8B608B8B608B8B3C8B8B608B8B8B608B8B608B8B608B8B3C8B8B608B8B608B8B8B608B8B608B8B3C8B8B608B608B8B608B8B608B8B608B8B3C8B8B8B608B8B608B8B608B8B
310
608B8B3C8B8B608B8B8B608B8B608B8B608B8B3C8B8B608B8B8B608B8B608B8B608B8B3C8B8B608B8B608B8B8B608B8B608B8B3C8B8B608B8B608B8B8B608B8B608B8B3C8B8B608B8B608B8B608B8B8B608B8B3C8B8B608B8B608B8B608B8B8B608B8B3C8B8B608B8B608B8B608B8B608B8B8B3C8B8B608B8B608B8B608B8B
310
608B8B8B3C8B8B608B8B608B8B608B8B608B8B3C8B8B8B608B8B608B8B608B8B608B8B3C8B8B8B608B8B608B8B608B8B608B8B3C8B8B608B8B8B608B8B608B8B608B8B3C8B8B608B8B8B608B8B608B8B608B8B3C8B8B608B8B608B8B8B608B8B608B8B3C8B8B60606060606060606060606060603C60606060606060606060
310
60606060603C6060606060606060606060606060603C6060606060606060606060606060603C6060606060606060606060606060603C6060606060606060606060606060603C6060606060606060606060606060603C6060606060606060606060606060603C6060606060606060606060606060603C606060606060606060
310
6060606060603C60606060606060606060606060603C6060606060606060606060606060603C6060606060606060606060606060603C6060606060606060606060606060603C6060606060606060606060606060603C6060606060606060606060606060603C6060608B608B8B608B8B608B8B608B8B3C8B8B8B608B8B608B
310
8B608B8B608B8B3C8B8B608B8B8B608B8B608B8B608B8B3C8B8B608B8B8B608B8B608B8B608B8B3C8B8B608B8B608B8B8B608B8B608B8B3C8B8B608B8B608B8B8B608B8B608B8B3C8B8B608B8B608B8B608B8B8B608B8B3C8B8B608B8B608B8B608B8B8B608B8B3C8B8B608B8B608B8B608B8B608B8B8B3C8B8B608B8B608B
310
8B608B8B608B8B8B3C8B8B608B8B608B8B608B8B608B8B3C8B8B8B608B8B608B8B608B8B608B8B3C8B8B8B608B8B608B8B608B8B608B8B3C8B8B608B8B8B608B8B608B8B608B8B3C8B8B608B8B8B608B8B608B8B608B8B3C8B8B608B8B608B8B8B608B8B608B8B3C8B8B608B608B8B608B8B608B8B608B8B3C8B8B8B608B8B
310
608B8B608B8B608B8B3C8B8B608B8B8B608B8B608B8B608B8B3C8B8B608B8B8B608B8B608B8B608B8B3C8B8B608B8B608B8B8B608B8B608B8B3C8B8B608B8B608B8B8B608B8B608B8B3C8B8B608B8B608B8B608B8B8B608B8B3C8B8B608B8B608B8B608B8B8B608B8B3C8B8B608B8B608B8B608B8B608B8B8B3C8B8B608B8B
310
608B8B608B8B608B8B8B3C8B8B608B8B608B8B608B8B608B8B3C8B8B8B608B8B608B8B608B8B608B8B3C8B8B8B608B8B608B8B608B8B608B8B3C8B8B608B8B8B608B8B608B8B608B8B3C8B8B608B8B8B608B8B608B8B608B8B3C8B8B608B8B608B8B8B608B8B608B8B3C8B8B60606060606060606060606060603C60606060
310
60606060606060606060603C6060606060606060606060606060603C6060606060606060606060606060603C6060606060606060606060606060603C6060606060606060606060606060603C6060606060606060606060606060603C6060606060606060606060606060603C6060606060606060606060606060603C606060
310
6060606060606060606060603C60606060606060606060606060603C6060606060606060606060606060603C6060606060606060606060606060603C6060606060606060606060606060603C6060606060606060606060606060603C6060606060606060606060606060603C6060608B608B8B608B8B608B8B608B8B3C8B8B
310
8B608B8B608B8B608B8B608B8B3C8B8B608B8B8B608B8B608B8B608B8B3C8B8B608B8B8B608B8B608B8B608B8B3C8B8B608B8B608B8B8B608B8B608B8B3C8B8B608B8B608B8B8B608B8B608B8B3C8B8B608B8B608B8B608B8B8B608B8B3C8B8B608B8B608B8B608B8B8B608B8B3C8B8B608B8B608B8B608B8B608B8B8B3C8B
310
8B608B8B608B8B608B8B608B8B8B3C8B8B608B8B608B8B608B8B608B8B3C8B8B8B608B8B608B8B608B8B608B8B3C8B8B8B608B8B608B8B608B8B608B8B3C8B8B608B8B8B608B8B608B8B608B8B3C8B8B608B8B8B608B8B608B8B608B8B3C8B8B608B8B608B8B8B608B8B608B8B3C8B8B608B608B8B608B8B608B8B608B8B3C
310
8B8B8B608B8B608B8B608B8B608B8B3C8B8B608B8B8B608B8B608B8B608B8B3C8B8B608B8B8B608B8B608B8B608B8B3C8B8B608B8B608B8B8B608B8B608B8B3C8B8B608B8B608B8B8B608B8B608B8B3C8B8B608B8B608B8B608B8B8B608B8B3C8B8B608B8B608B8B608B8B8B608B8B3C8B8B608B8B608B8B608B8B608B8B8B
310
3C8B8B608B8B608B8B608B8B608B8B8B3C8B8B608B8B608B8B608B8B608B8B3C8B8B8B608B8B608B8B608B8B608B8B3C8B8B8B608B8B608B8B608B8B608B8B3C8B8B608B8B8B608B8B608B8B608B8B3C8B8B608B8B8B608B8B608B8B608B8B3C8B8B608B8B608B8B8B608B8B608B8B3C8B8B60606060606060606060606060
310
603C6060606060606060606060606060603C6060606060606060606060606060603C6060606060606060606060606060603C6060606060606060606060606060603C6060606060606060606060606060603C6060606060606060606060606060603C6060606060606060606060606060603C60606060606060606060606060
310
60603C6060606060606060606060606060603C60606060606060606060606060603C6060606060606060606060606060603C6060606060606060606060606060603C6060606060606060606060606060603C6060606060606060606060606060603C6060606060606060606060606060603C6060608B608B8B608B8B608B8B
310
608B8B3C8B8B8B608B8B608B8B608B8B608B8B3C8B8B608B8B8B608B8B608B8B608B8B3C8B8B608B8B8B608B8B608B8B608B8B3C8B8B608B8B608B8B8B608B8B608B8B3C8B8B608B8B608B8B8B608B8B608B8B3C8B8B608B8B608B8B608B8B8B608B8B3C8B8B608B8B608B8B608B8B8B608B8B3C8B8B608B8B608B8B608B8B
310
608B8B8B3C8B8B608B8B608B8B608B8B608B8B8B3C8B8B608B8B608B8B608B8B608B8B3C8B8B8B608B8B608B8B608B8B608B8B3C8B8B8B608B8B608B8B608B8B608B8B3C8B8B608B8B8B608B8B608B8B608B8B3C8B8B608B8B8B608B8B608B8B608B8B3C8B8B608B8B608B8B8B608B8B608B8B3C8B8B608B608B8B608B8B60
310
8B8B608B8B3C8B8B8B608B8B608B8B608B8B608B8B3C8B8B608B8B8B608B8B608B8B608B8B3C8B8B608B8B8B608B8B608B8B608B8B3C8B8B608B8B608B8B8B608B8B608B8B3C8B8B608B8B608B8B8B608B8B608B8B3C8B8B608B8B608B8B608B8B8B608B8B3C8B8B608B8B608B8B608B8B8B608B8B3C8B8B608B8B608B8B60
310
8B8B608B8B8B3C8B8B608B8B608B8B608B8B608B8B8B3C8B8B608B8B608B8B608B8B608B8B3C8B8B8B608B8B608B8B608B8B608B8B3C8B8B8B608B8B608B8B608B8B608B8B3C8B8B608B8B8B608B8B608B8B608B8B3C8B8B608B8B8B608B8B608B8B608B8B3C8B8B608B8B608B8B8B608B8B608B8B3C8B8B60606060606060
310
606060606060603C6060606060606060606060606060603C6060606060606060606060606060603C6060606060606060606060606060603C6060606060606060606060606060603C6060606060606060606060606060603C6060606060606060606060606060603C6060606060606060606060606060603C60606060606060
310
60606060606060603C6060606060606060606060606060603C60606060606060606060606060603C6060606060606060606060606060603C6060606060606060606060606060603C6060606060606060606060606060603C6060606060606060606060606060603C6060606060606060606060606060603C6060608B608B8B
310
608B8B608B8B608B8B3C8B8B8B608B8B608B8B608B8B608B8B3C8B8B608B8B8B608B8B608B8B608B8B3C8B8B608B8B8B608B8B608B8B608B8B3C8B8B608B8B608B8B8B608B8B608B8B3C8B8B608B8B608B8B8B608B8B608B8B3C8B8B608B8B608B8B608B8B8B608B8B3C8B8B608B8B608B8B608B8B8B608B8B3C8B8B608B8B
310
608B8B608B8B608B8B8B3C8B8B608B8B608B8B608B8B608B8B8B3C8B8B608B8B608B8B608B8B608B8B3C8B8B8B608B8B608B8B608B8B608B8B3C8B8B8B608B8B608B8B608B8B608B8B3C8B8B608B8B8B608B8B608B8B608B8B3C8B8B608B8B8B608B8B608B8B608B8B3C8B8B608B8B608B8B8B608B8B608B8B3C8B8B608B60
310
8B8B608B8B608B8B608B8B3C8B8B8B608B8B608B8B608B8B608B8B3C8B8B608B8B8B608B8B608B8B608B8B3C8B8B608B8B8B608B8B608B8B608B8B3C8B8B608B8B608B8B8B608B8B608B8B3C8B8B608B8B608B8B8B608B8B608B8B3C8B8B608B8B608B8B608B8B8B608B8B3C8B8B608B8B608B8B608B8B8B608B8B3C8B8B60
310
8B8B608B8B608B8B608B8B8B3C8B8B608B8B608B8B608B8B608B8B8B3C8B8B608B8B608B8B608B8B608B8B3C8B8B8B608B8B608B8B608B8B608B8B3C8B8B8B608B8B608B8B608B8B608B8B3C8B8B608B8B8B608B8B608B8B608B8B3C8B8B608B8B8B608B8B608B8B608B8B3C8B8B608B8B608B8B8B608B8B608B8B3C8B8B60
310
8B608B8B608B8B608B8B608B8B3C8B8B8B608B8B608B8B608B8B608B8B3C8B8B608B8B8B608B8B608B8B608B8B3C8B8B608B8B8B608B8B608B8B608B8B3C8B8B608B8B608B8B8B608B8B608B8B3C8B8B608B8B608B8B8B608B8B608B8B3C8B8B608B8B608B8B608B8B8B608B8B3C8B8B608B8B608B8B608B8B8B608B8B3C8B
310
8B608B8B608B8B608B8B608B8B8B3C8B8B608B8B608B8B608B8B608B8B8B3C8B8B608B8B608B8B608B8B608B8B3C8B8B8B608B8B608B8B608B8B608B8B3C8B8B8B608B8B608B8B608B8B608B8B3C8B8B608B8B8B608B8B608B8B608B8B3C8B8B608B8B8B608B8B608B8B608B8B3C8B8B608B8B608B8B8B608B8B608B8B3C8B
310
8B603C3C3C3C3C3C3C3C3C3C3C3C3C3C3C3C3C3C3C3C3C3C3C3C3C3C3C3C3C3C3C3C3C3C3C3C3C3C3C3C3C3C3C3C3C3C3C3C3C3C3C3C3C3C3C3C3C3C3C3C3C3C3C3C3C3C3C3C3C3C3C3C3C3C3C3C3C3C3C3C3C3C3C3C3C3C3C3C3C3C3C3C3C3C3C3C3C3C3C3C3C3C3C3C3C3C3C3C3C3C3C3C3C3C3C3C3C3C3C3C3C3C3C3C3C
310
3C3C3C3C3C3C3C3C3C3C3C3C3C3C3C3C3C3C3C3C3C3C3C3C3C3C3C3C3C3C3C3C3C3C3C3C3C3C3C3C3C3C3C3C3C3C3C3C3C3C3C3C3C3C3C3C3C3C3C3C3C3C3C3C3C3C3C3C3C3C3C3C3C3C3C3C3C3C3C3C3C3C3C3C3C3C3C3C3C3C3C3C3C3C3C3C3C3C3C3C3C3C3C3C3C3C3C3C3C3C3C3C3C3C3C3C3C3C3C3C3C3C3C3C3C3C3C
310
3C3C3C3C8B608B8B608B8B608B8B608B8B3C8B8B8B608B8B608B8B608B8B608B8B3C8B8B608B8B8B608B8B608B8B608B8B3C8B8B608B8B8B608B8B608B8B608B8B3C8B8B608B8B608B8B8B608B8B608B8B3C8B8B608B8B608B8B8B608B8B608B8B3C8B8B608B8B608B8B608B8B8B608B8B3C8B8B608B8B608B8B608B8B8B60
310
8B8B3C8B8B608B8B608B8B608B8B608B8B8B3C8B8B608B8B608B8B608B8B608B8B8B3C8B8B608B8B608B8B608B8B608B8B3C8B8B8B608B8B608B8B608B8B608B8B3C8B8B8B608B8B608B8B608B8B608B8B3C8B8B608B8B8B608B8B608B8B608B8B3C8B8B608B8B8B608B8B608B8B608B8B3C8B8B608B8B608B8B8B608B8B60
310
8B8B3C8B8B608B608B8B608B8B608B8B608B8B3C8B8B8B608B8B608B8B608B8B608B8B3C8B8B608B8B8B608B8B608B8B608B8B3C8B8B608B8B8B608B8B608B8B608B8B3C8B8B608B8B608B8B8B608B8B608B8B3C8B8B608B8B608B8B8B608B8B608B8B3C8B8B608B8B608B8B608B8B8B608B8B3C8B8B608B8B608B8B608B8B
310
8B608B8B3C8B8B608B8B608B8B608B8B608B8B8B3C8B8B608B8B608B8B608B8B608B8B8B3C8B8B608B8B608B8B608B8B608B8B3C8B8B8B608B8B608B8B608B8B608B8B3C8B8B8B608B8B608B8B608B8B608B8B3C8B8B608B8B8B608B8B608B8B608B8B3C8B8B608B8B8B608B8B608B8B608B8B3C8B8B608B8B608B8B8B608B
310
8B608B8B3C8B8B60606060606060606060606060603C6060606060606060606060606060603C6060606060606060606060606060603C6060606060606060606060606060603C6060606060606060606060606060603C6060606060606060606060606060603C6060606060606060606060606060603C606060606060606060
310
6060606060603C6060606060606060606060606060603C6060606060606060606060606060603C60606060606060606060606060603C6060606060606060606060606060603C6060606060606060606060606060603C6060606060606060606060606060603C6060606060606060606060606060603C606060606060606060
310
6060606060603C6060608B608B8B608B8B608B8B608B8B3C8B8B8B608B8B608B8B608B8B608B8B3C8B8B608B8B8B608B8B608B8B608B8B3C8B8B608B8B8B608B8B608B8B608B8B3C8B8B608B8B608B8B8B608B8B608B8B3C8B8B608B8B608B8B8B608B8B608B8B3C8B8B608B8B608B8B608B8B8B608B8B3C8B8B608B8B608B
310
8B608B8B8B608B8B3C8B8B608B8B608B8B608B8B608B8B8B3C8B8B608B8B608B8B608B8B608B8B8B3C8B8B608B8B608B8B608B8B608B8B3C8B8B8B608B8B608B8B608B8B608B8B3C8B8B8B608B8B608B8B608B8B608B8B3C8B8B608B8B8B608B8B608B8B608B8B3C8B8B608B8B8B608B8B608B8B608B8B3C8B8B608B8B608B
310
8B8B608B8B608B8B3C8B8B608B608B8B608B8B608B8B608B8B3C8B8B8B608B8B608B8B608B8B608B8B3C8B8B608B8B8B608B8B608B8B608B8B3C8B8B608B8B8B608B8B608B8B608B8B3C8B8B608B8B608B8B8B608B8B608B8B3C8B8B608B8B608B8B8B608B8B608B8B3C8B8B608B8B608B8B608B8B8B608B8B3C8B8B608B8B
310
608B8B608B8B8B608B8B3C8B8B608B8B608B8B608B8B608B8B8B3C8B8B608B8B608B8B608B8B608B8B8B3C8B8B608B8B608B8B608B8B608B8B3C8B8B8B608B8B608B8B608B8B608B8B3C8B8B8B608B8B608B8B608B8B608B8B3C8B8B608B8B8B608B8B608B8B608B8B3C8B8B608B8B8B608B8B608B8B608B8B3C8B8B608B8B
310
608B8B8B608B8B608B8B3C8B8B60606060606060606060606060603C6060606060606060606060606060603C6060606060606060606060606060603C6060606060606060606060606060603C6060606060606060606060606060603C6060606060606060606060606060603C6060606060606060606060606060603C606060
310
6060606060606060606060603C6060606060606060606060606060603C6060606060606060606060606060603C60606060606060606060606060603C6060606060606060606060606060603C6060606060606060606060606060603C6060606060606060606060606060603C6060606060606060606060606060603C606060
310
6060606060606060606060603C6060608B608B8B608B8B608B8B608B8B3C8B8B8B608B8B608B8B608B8B608B8B3C8B8B608B8B8B608B8B608B8B608B8B3C8B8B608B8B8B608B8B608B8B608B8B3C8B8B608B8B608B8B8B608B8B608B8B3C8B8B608B8B608B8B8B608B8B608B8B3C8B8B608B8B608B8B608B8B8B608B8B3C8B
310
8B608B8B608B8B608B8B8B608B8B3C8B8B608B8B608B8B608B8B608B8B8B3C8B8B608B8B608B8B608B8B608B8B8B3C8B8B608B8B608B8B608B8B608B8B3C8B8B8B608B8B608B8B608B8B608B8B3C8B8B8B608B8B608B8B608B8B608B8B3C8B8B608B8B8B608B8B608B8B608B8B3C8B8B608B8B8B608B8B608B8B608B8B3C8B
310
8B608B8B608B8B8B608B8B608B8B3C8B8B608B608B8B608B8B608B8B608B8B3C8B8B8B608B8B608B8B608B8B608B8B3C8B8B608B8B8B608B8B608B8B608B8B3C8B8B608B8B8B608B8B608B8B608B8B3C8B8B608B8B608B8B8B608B8B608B8B3C8B8B608B8B608B8B8B608B8B608B8B3C8B8B608B8B608B8B608B8B8B608B8B
310
3C8B8B608B8B608B8B608B8B8B608B8B3C8B8B608B8B608B8B608B8B608B8B8B3C8B8B608B8B608B8B608B8B608B8B8B3C8B8B608B8B608B8B608B8B608B8B3C8B8B8B608B8B608B8B608B8B608B8B3C8B8B8B608B8B608B8B608B8B608B8B3C8B8B608B8B8B608B8B608B8B608B8B3C8B8B608B8B8B608B8B608B8B608B8B
310
3C8B8B608B8B608B8B8B608B8B608B8B3C8B8B60606060606060606060606060603C6060606060606060606060606060603C6060606060606060606060606060603C6060606060606060606060606060603C6060606060606060606060606060603C6060606060606060606060606060603C60606060606060606060606060
310
60603C6060606060606060606060606060603C6060606060606060606060606060603C6060606060606060606060606060603C60606060606060606060606060603C6060606060606060606060606060603C6060606060606060606060606060603C6060606060606060606060606060603C60606060606060606060606060
310
60603C6060606060606060606060606060603C6060608B608B8B608B8B608B8B608B8B3C8B8B8B608B8B608B8B608B8B608B8B3C8B8B608B8B8B608B8B608B8B608B8B3C8B8B608B8B8B608B8B608B8B608B8B3C8B8B608B8B608B8B8B608B8B608B8B3C8B8B608B8B608B8B8B608B8B608B8B3C8B8B608B8B608B8B608B8B
310
8B608B8B3C8B8B608B8B608B8B608B8B8B608B8B3C8B8B608B8B608B8B608B8B608B8B8B3C8B8B608B8B608B8B608B8B608B8B8B3C8B8B608B8B608B8B608B8B608B8B3C8B8B8B608B8B608B8B608B8B608B8B3C8B8B8B608B8B608B8B608B8B608B8B3C8B8B608B8B8B608B8B608B8B608B8B3C8B8B608B8B8B608B8B608B
310
8B608B8B3C8B8B608B8B608B8B8B608B8B608B8B3C8B8B608B608B8B608B8B608B8B608B8B3C8B8B8B608B8B608B8B608B8B608B8B3C8B8B608B8B8B608B8B608B8B608B8B3C8B8B608B8B8B608B8B608B8B608B8B3C8B8B608B8B608B8B8B608B8B608B8B3C8B8B608B8B608B8B8B608B8B608B8B3C8B8B608B8B608B8B60
310
8B8B8B608B8B3C8B8B608B8B608B8B608B8B8B608B8B3C8B8B608B8B608B8B608B8B608B8B8B3C8B8B608B8B608B8B608B8B608B8B8B3C8B8B608B8B608B8B608B8B608B8B3C8B8B8B608B8B608B8B608B8B608B8B3C8B8B8B608B8B608B8B608B8B608B8B3C8B8B608B8B8B608B8B608B8B608B8B3C8B8B608B8B8B608B8B
310
608B8B608B8B3C8B8B608B8B608B8B8B608B8B608B8B3C8B8B60606060606060606060606060603C6060606060606060606060606060603C6060606060606060606060606060603C6060606060606060606060606060603C6060606060606060606060606060603C6060606060606060606060606060603C60606060606060
310
60606060606060603C6060606060606060606060606060603C6060606060606060606060606060603C6060606060606060606060606060603C60606060606060606060606060603C6060606060606060606060606060603C6060606060606060606060606060603C6060606060606060606060606060603C60606060606060
310
60606060606060603C6060606060606060606060606060603C6060608B608B8B608B8B608B8B608B8B3C8B8B8B608B8B608B8B608B8B608B8B3C8B8B608B8B8B608B8B608B8B608B8B3C8B8B608B8B8B608B8B608B8B608B8B3C8B8B608B8B608B8B8B608B8B608B8B3C8B8B608B8B608B8B8B608B8B608B8B3C8B8B608B8B
310
608B8B608B8B8B608B8B3C8B8B608B8B608B8B608B8B8B608B8B3C8B8B608B8B608B8B608B8B608B8B8B3C8B8B608B8B608B8B608B8B608B8B8B3C8B8B608B8B608B8B608B8B608B8B3C8B8B8B608B8B608B8B608B8B608B8B3C8B8B8B608B8B608B8B608B8B608B8B3C8B8B608B8B8B608B8B608B8B608B8B3C8B8B608B8B
310
8B608B8B608B8B608B8B3C8B8B608B8B608B8B8B608B8B608B8B3C8B8B608B608B8B608B8B608B8B608B8B3C8B8B8B608B8B608B8B608B8B608B8B3C8B8B608B8B8B608B8B608B8B608B8B3C8B8B608B8B8B608B8B608B8B608B8B3C8B8B608B8B608B8B8B608B8B608B8B3C8B8B608B8B608B8B8B608B8B608B8B3C8B8B60
310
8B8B608B8B608B8B8B608B8B3C8B8B608B8B608B8B608B8B8B608B8B3C8B8B608B8B608B8B608B8B608B8B8B3C8B8B608B8B608B8B608B8B608B8B8B3C8B8B608B8B608B8B608B8B608B8B3C8B8B8B608B8B608B8B608B8B608B8B3C8B8B8B608B8B608B8B608B8B608B8B3C8B8B608B8B8B608B8B608B8B608B8B3C8B8B60
310
8B8B8B608B8B608B8B608B8B3C8B8B608B8B608B8B8B608B8B608B8B3C8B8B603C3C3C3C3C3C3C3C3C3C3C3C3C3C3C3C3C3C3C3C3C3C3C3C3C3C3C3C3C3C3C3C3C3C3C3C3C3C3C3C3C3C3C3C3C3C3C3C3C3C3C3C3C3C3C3C3C3C3C3C3C3C3C3C3C3C3C3C3C3C3C3C3C3C3C3C3C3C3C3C3C3C3C3C3C3C3C3C3C3C3C3C3C3C3C
310
3C3C3C3C3C3C3C3C3C3C3C3C3C3C3C3C3C3C3C3C3C3C3C3C3C3C3C3C3C3C3C3C3C3C3C3C3C3C3C3C3C3C3C3C3C3C3C3C3C3C3C3C3C3C3C3C3C3C3C3C3C3C3C3C3C3C3C3C3C3C3C3C3C3C3C3C3C3C3C3C3C3C3C3C3C3C3C3C3C3C3C3C3C3C3C3C3C3C3C3C3C3C3C3C3C3C3C3C3C3C3C3C3C3C3C3C3C3C3C3C3C3C3C3C3C3C3C
310
3C3C3C3C3C3C3C3C3C3C3C3C3C3C3C3C3C3C3C3C3C3C3C3C3C3C3C3C3C3C3C3C3C3C8B608B8B608B8B608B8B608B8B3C8B8B8B608B8B608B8B608B8B608B8B3C8B8B608B8B8B608B8B608B8B608B8B3C8B8B608B8B8B608B8B608B8B608B8B3C8B8B608B8B608B8B8B608B8B608B8B3C8B8B608B8B608B8B8B608B8B608B8B
310
3C8B8B608B8B608B8B608B8B8B608B8B3C8B8B608B8B608B8B608B8B8B608B8B3C8B8B608B8B608B8B608B8B608B8B8B3C8B8B608B8B608B8B608B8B608B8B8B3C8B8B608B8B608B8B608B8B608B8B3C8B8B8B608B8B608B8B608B8B608B8B3C8B8B8B608B8B608B8B608B8B608B8B3C8B8B608B8B8B608B8B608B8B608B8B
310
3C8B8B608B8B8B608B8B608B8B608B8B3C8B8B608B8B608B8B8B608B8B608B8B3C8B8B608B608B8B608B8B608B8B608B8B3C8B8B8B608B8B608B8B608B8B608B8B3C8B8B608B8B8B608B8B608B8B608B8B3C8B8B608B8B8B608B8B608B8B608B8B3C8B8B608B8B608B8B8B608B8B608B8B3C8B8B608B8B608B8B8B608B8B60
310
8B8B3C8B8B608B8B608B8B608B8B8B608B8B3C8B8B608B8B608B8B608B8B8B608B8B3C8B8B608B8B608B8B608B8B608B8B8B3C8B8B608B8B608B8B608B8B608B8B8B3C8B8B608B8B608B8B608B8B608B8B3C8B8B8B608B8B608B8B608B8B608B8B3C8B8B8B608B8B608B8B608B8B608B8B3C8B8B608B8B8B608B8B608B8B60
310
8B8B3C8B8B608B8B8B608B8B608B8B608B8B3C8B8B608B8B608B8B8B608B8B608B8B3C8B8B608B608B8B608B8B608B8B608B8B3C8B8B8B608B8B608B8B608B8B608B8B3C8B8B608B8B8B608B8B608B8B608B8B3C8B8B608B8B8B608B8B608B8B608B8B3C8B8B608B8B608B8B8B608B8B608B8B3C8B8B608B8B608B8B8B608B
310
8B608B8B3C8B8B608B8B608B8B608B8B8B608B8B3C8B8B608B8B608B8B608B8B8B608B8B3C8B8B608B8B608B8B608B8B608B8B8B3C8B8B608B8B608B8B608B8B608B8B8B3C8B8B608B8B608B8B608B8B608B8B3C8B8B8B608B8B608B8B608B8B608B8B3C8B8B8B608B8B608B8B608B8B608B8B3C8B8B608B8B8B608B8B608B
310
8B608B8B3C8B8B608B8B8B608B8B608B8B608B8B3C8B8B608B8B608B8B8B608B8B608B8B3C8B8B60606060606060606060606060603C6060606060606060606060606060603C6060606060606060606060606060603C6060606060606060606060606060603C6060606060606060606060606060603C606060606060606060
310
6060606060603C6060606060606060606060606060603C6060606060606060606060606060603C6060606060606060606060606060603C6060606060606060606060606060603C60606060606060606060606060603C6060606060606060606060606060603C6060606060606060606060606060603C606060606060606060
310
6060606060603C6060606060606060606060606060603C6060606060606060606060606060603C6060608B608B8B608B8B608B8B608B8B3C8B8B8B608B8B608B8B608B8B608B8B3C8B8B608B8B8B608B8B608B8B608B8B3C8B8B608B8B8B608B8B608B8B608B8B3C8B8B608B8B608B8B8B608B8B608B8B3C8B8B608B8B608B
310
8B8B608B8B608B8B3C8B8B608B8B608B8B608B8B8B608B8B3C8B8B608B8B608B8B608B8B8B608B8B3C8B8B608B8B608B8B608B8B608B8B8B3C8B8B608B8B608B8B608B8B608B8B8B3C8B8B608B8B608B8B608B8B608B8B3C8B8B8B608B8B608B8B608B8B608B8B3C8B8B8B608B8B608B8B608B8B608B8B3C8B8B608B8B8B60
310
8B8B608B8B608B8B3C8B8B608B8B8B608B8B608B8B608B8B3C8B8B608B8B608B8B8B608B8B608B8B3C8B8B608B608B8B608B8B608B8B608B8B3C8B8B8B608B8B608B8B608B8B608B8B3C8B8B608B8B8B608B8B608B8B608B8B3C8B8B608B8B8B608B8B608B8B608B8B3C8B8B608B8B608B8B8B608B8B608B8B3C8B8B608B8B
310
608B8B8B608B8B608B8B3C8B8B608B8B608B8B608B8B8B608B8B3C8B8B608B8B608B8B608B8B8B608B8B3C8B8B608B8B608B8B608B8B608B8B8B3C8B8B608B8B608B8B608B8B608B8B8B3C8B8B608B8B608B8B608B8B608B8B3C8B8B8B608B8B608B8B608B8B608B8B3C8B8B8B608B8B608B8B608B8B608B8B3C8B8B608B8B
310
8B608B8B608B8B608B8B3C8B8B608B8B8B608B8B608B8B608B8B3C8B8B608B8B608B8B8B608B8B608B8B3C8B8B60606060606060606060606060603C6060606060606060606060606060603C6060606060606060606060606060603C6060606060606060606060606060603C6060606060606060606060606060603C606060
310
6060606060606060606060603C6060606060606060606060606060603C6060606060606060606060606060603C6060606060606060606060606060603C6060606060606060606060606060603C60606060606060606060606060603C6060606060606060606060606060603C6060606060606060606060606060603C606060
310
6060606060606060606060603C6060606060606060606060606060603C6060606060606060606060606060603C6060608B608B8B608B8B608B8B608B8B3C8B8B8B608B8B608B8B608B8B608B8B3C8B8B608B8B8B608B8B608B8B608B8B3C8B8B608B8B8B608B8B608B8B608B8B3C8B8B608B8B608B8B8B608B8B608B8B3C8B
310
8B608B8B608B8B8B608B8B608B8B3C8B8B608B8B608B8B608B8B8B608B8B3C8B8B608B8B608B8B608B8B8B608B8B3C8B8B608B8B608B8B608B8B608B8B8B3C8B8B608B8B608B8B608B8B608B8B8B3C8B8B608B8B608B8B608B8B608B8B3C8B8B8B608B8B608B8B608B8B608B8B3C8B8B8B608B8B608B8B608B8B608B8B3C8B
310
8B608B8B8B608B8B608B8B608B8B3C8B8B608B8B8B608B8B608B8B608B8B3C8B8B608B8B608B8B8B608B8B608B8B3C8B8B608B608B8B608B8B608B8B608B8B3C8B8B8B608B8B608B8B608B8B608B8B3C8B8B608B8B8B608B8B608B8B608B8B3C8B8B608B8B8B608B8B608B8B608B8B3C8B8B608B8B608B8B8B608B8B608B8B
310
3C8B8B608B8B608B8B8B608B8B608B8B3C8B8B608B8B608B8B608B8B8B608B8B3C8B8B608B8B608B8B608B8B8B608B8B3C8B8B608B8B608B8B608B8B608B8B8B3C8B8B608B8B608B8B608B8B608B8B8B3C8B8B608B8B608B8B608B8B608B8B3C8B8B8B608B8B608B8B608B8B608B8B3C8B8B8B608B8B608B8B608B8B608B8B
310
3C8B8B608B8B8B608B8B608B8B608B8B3C8B8B608B8B8B608B8B608B8B608B8B3C8B8B608B8B608B8B8B608B8B608B8B3C8B8B60606060606060606060606060603C6060606060606060606060606060603C6060606060606060606060606060603C6060606060606060606060606060603C60606060606060606060606060
310
60603C6060606060606060606060606060603C6060606060606060606060606060603C6060606060606060606060606060603C6060606060606060606060606060603C6060606060606060606060606060603C60606060606060606060606060603C6060606060606060606060606060603C60606060606060606060606060
310
60603C6060606060606060606060606060603C6060606060606060606060606060603C6060606060606060606060606060603C6060608B608B8B608B8B608B8B608B8B3C8B8B8B608B8B608B8B608B8B608B8B3C8B8B608B8B8B608B8B608B8B608B8B3C8B8B608B8B8B608B8B608B8B608B8B3C8B8B608B8B608B8B8B608B
310
8B608B8B3C8B8B608B8B608B8B8B608B8B608B8B3C8B8B608B8B608B8B608B8B8B608B8B3C8B8B608B8B608B8B608B8B8B608B8B3C8B8B608B8B608B8B608B8B608B8B8B3C8B8B608B8B608B8B608B8B608B8B8B3C8B8B608B8B608B8B608B8B608B8B3C8B8B8B608B8B608B8B608B8B608B8B3C8B8B8B608B8B608B8B608B
310
8B608B8B3C8B8B608B8B8B608B8B608B8B608B8B3C8B8B608B8B8B608B8B608B8B608B8B3C8B8B608B8B608B8B8B608B8B608B8B3C8B8B608B608B8B608B8B608B8B608B8B3C8B8B8B608B8B608B8B608B8B608B8B3C8B8B608B8B8B608B8B608B8B608B8B3C8B8B608B8B8B608B8B608B8B608B8B3C8B8B608B8B608B8B8B
310
608B8B608B8B3C8B8B608B8B608B8B8B608B8B608B8B3C8B8B608B8B608B8B608B8B8B608B8B3C8B8B608B8B608B8B608B8B8B608B8B3C8B8B608B8B608B8B608B8B608B8B8B3C8B8B608B8B608B8B608B8B608B8B8B3C8B8B608B8B608B8B608B8B608B8B3C8B8B8B608B8B608B8B608B8B608B8B3C8B8B8B608B8B608B8B
310
608B8B608B8B3C8B8B608B8B8B608B8B608B8B608B8B3C8B8B608B8B8B608B8B608B8B608B8B3C8B8B608B8B608B8B8B608B8B608B8B3C8B8B60606060606060606060606060603C6060606060606060606060606060603C6060606060606060606060606060603C6060606060606060606060606060603C60606060606060
310
60606060606060603C6060606060606060606060606060603C6060606060606060606060606060603C6060606060606060606060606060603C6060606060606060606060606060603C6060606060606060606060606060603C60606060606060606060606060603C6060606060606060606060606060603C60606060606060
310
60606060606060603C6060606060606060606060606060603C6060606060606060606060606060603C6060606060606060606060606060603C6060608B608B8B608B8B608B8B608B8B3C8B8B8B608B8B608B8B608B8B608B8B3C8B8B608B8B8B608B8B608B8B608B8B3C8B8B608B8B8B608B8B608B8B608B8B3C8B8B608B8B
310
608B8B8B608B8B608B8B3C8B8B608B8B608B8B8B608B8B608B8B3C8B8B608B8B608B8B608B8B8B608B8B3C8B8B608B8B608B8B608B8B8B608B8B3C8B8B608B8B608B8B608B8B608B8B8B3C8B8B608B8B608B8B608B8B608B8B8B3C8B8B608B8B608B8B608B8B608B8B3C8B8B8B608B8B608B8B608B8B608B8B3C8B8B8B608B
310
8B608B8B608B8B608B8B3C8B8B608B8B8B608B8B608B8B608B8B3C8B8B608B8B8B608B8B608B8B608B8B3C8B8B608B8B608B8B8B608B8B608B8B3C8B8B608B608B8B608B8B608B8B608B8B3C8B8B8B608B8B608B8B608B8B608B8B3C8B8B608B8B8B608B8B608B8B608B8B3C8B8B608B8B8B608B8B608B8B608B8B3C8B8B60
310
8B8B608B8B8B608B8B608B8B3C8B8B608B8B608B8B8B608B8B608B8B3C8B8B608B8B608B8B608B8B8B608B8B3C8B8B608B8B608B8B608B8B8B608B8B3C8B8B608B8B608B8B608B8B608B8B8B3C8B8B608B8B608B8B608B8B608B8B8B3C8B8B608B8B608B8B608B8B608B8B3C8B8B8B608B8B608B8B608B8B608B8B3C8B8B8B
310
608B8B608B8B608B8B608B8B3C8B8B608B8B8B608B8B608B8B608B8B3C8B8B608B8B8B608B8B608B8B608B8B3C8B8B608B8B608B8B8B608B8B608B8B3C8B8B603C3C3C3C3C3C3C3C3C3C3C3C3C3C3C3C3C3C3C3C3C3C3C3C3C3C3C3C3C3C3C3C3C3C3C3C3C3C3C3C3C3C3C3C3C3C3C3C3C3C3C3C3C3C3C3C3C3C3C3C3C3C3C
310
3C3C3C3C3C3C3C3C3C3C3C3C3C3C3C3C3C3C3C3C3C3C3C3C3C3C3C3C3C3C3C3C3C3C3C3C3C3C3C3C3C3C3C3C3C3C3C3C3C3C3C3C3C3C3C3C3C3C3C3C3C3C3C3C3C3C3C3C3C3C3C3C3C3C3C3C3C3C3C3C3C3C3C3C3C3C3C3C3C3C3C3C3C3C3C3C3C3C3C3C3C3C3C3C3C3C3C3C3C3C3C3C3C3C3C3C3C3C3C3C3C3C3C3C3C3C3C
310
3C3C3C3C3C3C3C3C3C3C3C3C3C3C3C3C3C3C3C3C3C3C3C3C3C3C3C3C3C3C3C3C3C3C3C3C3C3C3C3C3C3C3C3C3C3C3C3C3C3C3C3C3C3C3C3C3C3C3C3C3C3C3C3C3C3C
  0
XRECORD
  5
ABA
102
{ACAD_REACTORS
330
1F9
102
}
330
1F9
100
AcDbXrecord
280
     1
102
MATERIAL
148
0.0
149
0.0
149
0.0
 93
        0
 94
       63
282
     0
 72
     1
 77
     1
171
     1
175
     1
179
     1
273
     0
  0
XRECORD
  5
1FA
102
{ACAD_REACTORS
330
1F9
102
}
330
1F9
100
AcDbXrecord
280
     1
 70
     1
 90
429727718
  1
D62C5603-E3A1-4AEA-B7FB-FE5D8D0755AF
310
504B03040A0000080000CC70623B3DEE336E79000000790000001B0000006175746F6465736B2D64657369676E2D7061636B6167652E786D6C3C3F786D6C2076657273696F6E3D22312E302220656E636F64696E673D227574662D3822203F3E3C666F726D6174733E3C666F726D61743E687474703A2F2F736368656D612E
310
6175746F6465736B2E636F6D2F64657369676E2D7061636B6167652F323030393C2F666F726D61743E3C2F666F726D6174733E504B0304140006080800CC70623BD486FD9CA0000000F4000000130000005B436F6E74656E745F54797065735D2E786D6C7D8EC10E82300C865F65E91D8A1E8C310C0EEA1BF002731658846E
310
D98AC1B77784ABF1D8FE5FBFBF75BBCE937A534CCEB38643598122B6FEE978D0B0485F9C41B54DDD7D022595594E1A469170414C76A4D9A4D207E29CF43ECE46F218070CC6BECC4078ACAA135ACF422C856C0E68EA1BF5669944DDD7BCDE7B1F8E415D77AECB980613C2E4AC91FC167A2B244592486606FC29C8FD7F045B9A
310
EF7053A7E60B504B0304140006080800CC70623B853B8169EB0000007C01000008000000636F72652E786D6C8D90416EC3201045AF62CDB6C206821CC7C244919D9CA01740401C94182C03558F5F9C3852BBEB6A467FFE9B197D7EFC9E1EC5975982F5AE035262288C535E5B377690E21535501C055FBC8FBF6C503839990E
310
5619041F179FE64D52DE45E362569DD7661365082642A11EB9E920A89B99642953CC8E702F67A9EE7234257977194EC9EAE275C4EABCCF5EAD5940D4AC6F0E35A568B8F43562CD7046CD199FD07E60174276A7BE677B5EADB0E0D14EEFFB6A31321A0D82627C4084204C3F096B71DD52F6819B16635EADF63F509AF53FA164
310
5DDCD1EDDD17164090FCC8732078B56691CB33A85CD7DCC40F504B0304140006080800CC70623B55019EA25F0000007C00000007000000636E782E786D6C4DCB3B0E80201045D1AD90E915ED2CF8AC45050C11660C8261F98AB1B07AC9C97D42D718D865D3E909258CFD00CCE24AC6E326A164D74DC0B4128928FF32603847
310
2BA13128B1252AC747C6BAB984FC68F0B87FE8960A5C09FE86CFB69FBA01504B0304140006080800CC70623BDBABAAF470010000D40300000C0000006662782F636F72652E786D6CC553D16E823014FD95A6AF4B694182CC941A83FA05FB810A9511A125A5257EFE2E82712ECEB8A7F100CD39F7F69E734AF9FADC366850B6
310
AF8DCE7018308C942E4C59EB2AC3DE1D498AD15A706B8CFB56869196ADCAF00863C12B6B7C374385D14E6907A836A59A41D9F7CA615434B0C8705F7CAA5606D23BA8E84F41278B93AC54100640439DE0BDB320004D43C63716C7C399D30917DCFBBA9CD9BA8469F5B156168B24CED3F7248AC8769F27244EB73B92EED8862C
310
B7F13E0C179B3C8F979C8ECD82BBBABDAA2BAC924E9558448CBD9330242CFA08E3154B5651FCC6D215639C8EE5774DBE2B5F6CF2B5768B68963BB5F5588420E442FC700B1139D4CB01F450C1E918227C2E09DF070D8140C84E1E9AAB8F1340832A9CB13130A5F1376A908D57309505ECF2A0DF179C4E9D30F5B239B87E3823
310
7A79C6F31DE1A8A5AEC08474B03C7837EAE4938639B44E5932B833D2C6B6B279CDC613877FA26EE21F4A2A4C63EC7F29A2F301D1F9F7A0E37D145F504B0304140006080800CC70623B9C113CC27E0000009D0000000B0000006662782F636E782E786D6C4DCCDF0A83201C86E15B91DFB94BFB330DD428C8FB886521330DA7
310
6397BF1A1DECE883878F57749FCDA1B7892F1BBC047A23808C7F84D9FA55424E0BE6803A256208E9EF06C84F9B91703228B1C690F78B66B34CD9A5439DF5CF0BFBF65E35BCA1B8D6A5C6F540381E886698B5741C695F9503EBA150A2F8958E3DC3EA0B504B0304140006080800CC70623B7DF2F77C2A010000120200003100
310
00006662782F41393633353835312D344632462D344230382D423046372D3739314545314133324237412F636F72652E786D6C8D51DB8EC22014FC15C2939B0D2DB4B45643319AE817EC0F6041255A68B86CFCFC856D4D76DF7CE190393373060EDB3DC707F856CE6B6B7A480A0C81328395DA5C7B18C3057510EC3873D686
310
3F34088C18550F330C39BB3A1BA7051AAC09CA84841A2BD5020AEF55806078A44B0FFD7053A328440C89E1EFC52486BBB8AA8214A99D789CF9E05200300FC927E4FB4D5B375D43103D5527440FB843077C5AA3F5861C8F645F5787F59E95B390B318B55CE45AA638FAA2957BD7248B390B7A7CC51F9C124149C82B8C378810
310
84AB2F42B7B8DD56F413775B8C5999E9FF4471926F8AA236A1AE96B8B3CC434E5839373893369E1FAF30EA395917409EB7F26AF8801C171837A4A6AC9C89E9F9C9B1A58BA30FD6A5EF5DDDCF894B9AD9B6A59C957943A9FCAE2FD5BC4DFE03504B0304140006080800CC70623BAD7543B64E01000033030000300000006662
310
782F41393633353835312D344632462D344230382D423046372D3739314545314133324237412F636E782E786D6CD593CD6EC32010845F0571AD6CE3D48AD20813A9873E410FBD12D82434182C7EAAE6EDBB2424CD25871E7B41D6EC30B3FA84F9E67BB2E40B4234DE8DB46F1925E094D7C6ED479AD3AE5951B2113C789FEE
310
6C943839C1488B4C05DF079FE72A69D8C96C13AAD6B8631503449F83828872B949AC57D26200B826A308D316B4064D6E46FCDA41C05550DC9E483A00797BFD207EFB092A45DE9514C1BBD22178396BD39D891265658C238DEA00936C654E5E433CB65A26D9F6EDB5EBC14EBF49A45CB856E66048291F6939A9A81BB5C89177
310
38143CA680F4AA299D66A042CEB3354A2684DC9D8D178FE0D9B8B41CAAD720F880EE7EF93C0C18769E099ECC04D5A102C8049A8A05632F4DDF376CF1DE0F6BB65C2F8627B65A33C6BB62177CEBBDAD973006829F89F22E814B54F4BC2BE347F8AA8F681390B50FA73F804400B5F542E796F19FF974E7F78DB802FE05E20750
310
4B0304140006080800CC70623BE75B7789680500003C100000340000006662782F41393633353835312D344632462D344230382D423046372D3739314545314133324237412F6F626A656374732E786D6CAD575B8F9B3818FD2B887D06C22499CB8AA1CA655245D5B455A356FB305264C061D8018C6C3393D95FBFC7600890
310
A4CD5EF210B0B1BFEBF98E3F7B1FF6596ABC522E1296DF9BAE3D320D9A872C4AF2F8DE2CE5CEBA358D0FBEC719939D65A691938CDE9B6ADAF4BD98B3B2D05311DD91329583D9D5FC0F438434A7A611A644887B5384CF34233629258BA878B12322891DEFF6B66BD70BFB62634E8AE781D082709A4B588AF91C528CDA28B73F
310
1C998EEF39EABBEFA97FBD6A7C7E9553F9D3D79FE442923C3C523610337627CB87ABE99D359D4CC6D6E4FACAB5E6ABF9D2726FC6A3C5F56271377BB88362213924694B38DD99FE47C48627A1E7D49F5A8BB5E1A74C0A599ED3B0F21F1E56366B89112D681E218F0915D0D6F17AD41FBA2A369DCF6335D62ABBD39779D5DDD1
310
11D4D8DE3CBB96B2E04FB8202E41051754A1AA8E8F76B4C6DFE810B580B1547F4B84911149794252234D024EF8BBE963A95AE27B3D310A9D5C215C7960FAEE415ED75694C6AFB17BCACA5D99A60A9AA65F217B0BFC53292ACB92BF283FAD0D3621576592CB5BED907C2FA8E9DF794E35E97BEA31BED21FEB401ABB94C44839
310
DCACBF0E1C5DA8DA5B2F4DFFD32AD86F543D9E565E7056502E157C00AD2671CD534549AB752FCA9CDA00677A313F04E51B22FF19E57B300579E3C97EB29F682D92935CEC18CF901B7B54FD8C51F362B56FC72FE0B3C1EAE335EDCCBF5AEC39ADB17DC238973F804BA5E6F6BFE7AF1FB32E523BE9F3BD571418E3631DCA4D48
310
5250CF639223210A9446CA30052EDF057BD35F8329C1ECD84552BF0DC8D18BE7BCE23BFE6BD960AB4A7DE79923A103BEBD80F911CBAA2C60DB19B01CF164A5583B772EE6D3FFA56666CBCDA74DC97724A48F9A58967497E489C4D979006FD7A05E227A1EBDD0F737C623387A9C844D3709995625106D157315F8B8392CD4E0
310
A0B9A720C4BE9829CEF37EA1E13111214D53925356365ADA634861B52519DD27A00AEB808EAF0628E6F435519D446F45CF2C9CF5214F0A15B2F6D06B79DA3EE3CBF7F56780D2F4E7EF73A0F5E5B02A38D07DC852C6B7C1FBB6664213E0C39E3EBA7FF4E1AD23EA2829407C85E586727488B751B2DB9502BC7B228A3FD68B6E
310
A65A22397E690AA8D158D7E404EC8CDA235CC3B7D1898680131CEC2CDF2638C65196279577750F15884AEE19F94199155B92B13297978469D4F8D358DF0AEF7631E28DC8F0D9F437D5D39A83B2231A1D52D543813A824EF8D44BCFF2FA6A31BD1E8DAD87F1CCB526B3879935BF59CDADD5C37479BB1CDD4CA7B3556B516589
310
EF352754B706114D9C885EC9131DE6EFEB43D99AFE2391C2F958179413D7CFEF6B1B6DB1E7600F00DE6E5C67454A339A4BA2E0FBA85ED26F045D454F463DBFCE484C2F90F2E5E3666003662ED8F755951A7D1BECD5B30B550B2785C8E7320B7292A4838DDA71BBC863ED7613CAF659337A3354231D4FF4A182A54904C2898C
310
98B28C4AD0CE056CCF332A80986E571EE9DBC305BB5FEB7E509220A58D25CF042D712A806AC0AD0C657FDEF80D2D9CEAA2EE4D1C76F60BFE74219A06527D6F82DF6412526107381E55E353090704D085B52408A8913C4ED159D79BDA71BB4BC506F4831350EB6F975CD22D69BF7AC49B91A2C0A9DDA3D5CA36AD20FC478E37
310
E61844E2352865EBCB61A275A65283CAAA9DD27703B4102F5AF51EF5F573B75CBB5AD38BC845F7A49F82A0966A49C2E3EA5EA0ECD326CD965F1DB402C6FA8B51A4658C5C5E2EC9E214602E55810345408596591009A82E7E7FFACA19EEA299B14A0081A705CB3296EBC14CDF658DCD336EA6D1136881AAEB87B81AB9EE53D5
310
F5EB8BC8362082DA24122F98680A4E7930C01A0079749CEA14382A0783E5EBA5A10F8C098456A03D6A4AEB6BB881E2513747552A5DB22C7EDAF83BD5528081A365F7FF06504B0304140006080000CC70623B000000000000000000000000350000006662782F41393633353835312D344632462D344230382D423046372D37
310
39314545314133324237412F76657274696365732E62696E504B0304140006080800CC70623BF270F1330600000004000000360000006662782F41393633353835312D344632462D344230382D423046372D3739314545314133324237412F747269616E676C65732E62696E636660600000504B0304140006080000CC7062
310
3B000000000000000000000000370000006662782F41393633353835312D344632462D344230382D423046372D3739314545314133324237412F617474726962757465732E62696E504B0304140006080800CC70623B08DA0BD19000000041010000360000006662782F41393633353835312D344632462D344230382D4230
310
46372D3739314545314133324237412F6469726563746F72792E786D6C858F410AC3201045AF22B36F53E9A60B35CBEEBAE80D244E44489C6234F4F835464A48035D0DF398FF9F8AF63D0E6CC63039F212F8F9020C7D47C6792B21C5FE7403D62A1188E2E60C98D7234A5830286103A55745067B9D86B8A3CF9C7F90C11DE6
310
07FB144396D7B6A82D282E9A152AD114D5EF2CB866EEE831B8EEA07A7BB5A8D7D61A2BAAEB7FD5F70921FF497D00504B0304140006080800CC70623BEDD1DC58FD000000A00100003B0000006662782F41393633353835312D344632462D344230382D423046372D3739314545314133324237412F7265736F75726365732F
310
636F72652E786D6C8D504B6E833010BD0A9A6D65B00922041947112427E8052C33A156828DFCA97AFC9A40A576D7CDCCE87D344F8F9FBFE667F689CE6B6B3A6039850C8DB2A336530731DC4903D95970676DF82583CCC8193B5861107C72362E3BA4AC096842428D1D7107A5F7182053CF7474E0D507CE32973124857FE48B
310
540F3961CEF244279DE03EB81420DB9EAC1384436FA353E879B1B182C7A8C75DA3C7F453DF353A1075D537A7BA6464B8F535A99AE14A9A2BBD90E350DD183B5CFABE3AF262350B1EF4FC9351399401471025A527C218A1E53BAB5A5AB765F5469B96525EACF23FA6B88CFF34456DC2A1DCE36E360F82A5202F42F062ED2BAD
310
579969AFDD8A6F504B010214000A0000080000CC70623B3DEE336E79000000790000001B00000000000000000000000000000000006175746F6465736B2D64657369676E2D7061636B6167652E786D6C504B01021400140006080800CC70623BD486FD9CA0000000F40000001300000000000000000000000000B20000005B
310
436F6E74656E745F54797065735D2E786D6C504B01021400140006080800CC70623B853B8169EB0000007C010000080000000000000000000000000083010000636F72652E786D6C504B01021400140006080800CC70623B55019EA25F0000007C000000070000000000000000000000000094020000636E782E786D6C504B
310
01021400140006080800CC70623BDBABAAF470010000D40300000C00000000000000000000000000180300006662782F636F72652E786D6C504B01021400140006080800CC70623B9C113CC27E0000009D0000000B00000000000000000000000000B20400006662782F636E782E786D6C504B01021400140006080800CC70
310
623B7DF2F77C2A010000120200003100000000000000000000000000590500006662782F41393633353835312D344632462D344230382D423046372D3739314545314133324237412F636F72652E786D6C504B01021400140006080800CC70623BAD7543B64E010000330300003000000000000000000000000000D2060000
310
6662782F41393633353835312D344632462D344230382D423046372D3739314545314133324237412F636E782E786D6C504B01021400140006080800CC70623BE75B7789680500003C10000034000000000000000000000000006E0800006662782F41393633353835312D344632462D344230382D423046372D3739314545
310
314133324237412F6F626A656374732E786D6C504B01021400140006080000CC70623B0000000000000000000000003500000000000000000000000000280E00006662782F41393633353835312D344632462D344230382D423046372D3739314545314133324237412F76657274696365732E62696E504B01021400140006
310
080800CC70623BF270F133060000000400000036000000000000000000000000007B0E00006662782F41393633353835312D344632462D344230382D423046372D3739314545314133324237412F747269616E676C65732E62696E504B01021400140006080000CC70623B0000000000000000000000003700000000000000
310
000000000000D50E00006662782F41393633353835312D344632462D344230382D423046372D3739314545314133324237412F617474726962757465732E62696E504B01021400140006080800CC70623B08DA0BD1900000004101000036000000000000000000000000002A0F00006662782F41393633353835312D344632
310
462D344230382D423046372D3739314545314133324237412F6469726563746F72792E786D6C504B01021400140006080800CC70623BEDD1DC58FD000000A00100003B000000000000000000000000000E1000006662782F41393633353835312D344632462D344230382D423046372D3739314545314133324237412F7265
310
736F75726365732F636F72652E786D6C504B0506000000000E000E0080040000641100000000
  0
XRECORD
  5
AB9
102
{ACAD_REACTORS
330
1F7
102
}
330
1F7
100
AcDbXrecord
280
     1
102
MATERIAL
148
0.0
149
0.0
149
0.0
 93
        0
 94
       63
282
     0
 72
     1
 77
     1
171
     1
175
     1
179
     1
273
     0
  0
XRECORD
  5
1F8
102
{ACAD_REACTORS
330
1F7
102
}
330
1F7
100
AcDbXrecord
280
     1
 70
     1
 90
429727718
  1
30362254-06B7-45E0-A893-8CFA70E3D6BC
310
504B03040A0000080000CC70623B3DEE336E79000000790000001B0000006175746F6465736B2D64657369676E2D7061636B6167652E786D6C3C3F786D6C2076657273696F6E3D22312E302220656E636F64696E673D227574662D3822203F3E3C666F726D6174733E3C666F726D61743E687474703A2F2F736368656D612E
310
6175746F6465736B2E636F6D2F64657369676E2D7061636B6167652F323030393C2F666F726D61743E3C2F666F726D6174733E504B0304140006080800CC70623BD486FD9CA0000000F4000000130000005B436F6E74656E745F54797065735D2E786D6C7D8EC10E82300C865F65E91D8A1E8C310C0EEA1BF002731658846E
310
D98AC1B77784ABF1D8FE5FBFBF75BBCE937A534CCEB38643598122B6FEE978D0B0485F9C41B54DDD7D022595594E1A469170414C76A4D9A4D207E29CF43ECE46F218070CC6BECC4078ACAA135ACF422C856C0E68EA1BF5669944DDD7BCDE7B1F8E415D77AECB980613C2E4AC91FC167A2B244592486606FC29C8FD7F045B9A
310
EF7053A7E60B504B0304140006080800CC70623B1EC5D7A3EB0000007C01000008000000636F72652E786D6C8D90416EC3201045AF82665B6103C6756C6122AB4D4ED00B204C5C94182C03558F5F9C3852BBEB6A467FFE9B197D71FC9E6FE8CBACC17AD7032D0820E3B41FAD9B7A48F1820F808E52ACDEC75F36404ECDA687
310
4D0629A6D5A76597B477D1B89855E747B38B2A041301E95B6E7A08FAD3CCAA50296647B8168BD2573599823EBB0CA76447F43862C7BCCF5EAC59410E4DDD9C7973C2755553CCCFA4C603E3040F1565ED3B1FDE4E432BCA0D9622DAF9795FAF464533826484B498524CD807E51D79ED187F21878E10516EF63F505AC67F42C9
310
BA58B1FDDD071640D2FCC87D2045B96591CB3DA85CB7DCE40F504B0304140006080800CC70623B55019EA25F0000007C00000007000000636E782E786D6C4DCB3B0E80201045D1AD90E915ED2CF8AC45050C11660C8261F98AB1B07AC9C97D42D718D865D3E909258CFD00CCE24AC6E326A164D74DC0B4128928FF32603847
310
2BA13128B1252AC747C6BAB984FC68F0B87FE8960A5C09FE86CFB69FBA01504B0304140006080800CC70623B8C9102E971010000D40300000C0000006662782F636F72652E786D6CC5535B6E833010BC8AE5DF0A6C08340F1947A84D4ED00B38C6A128602363A31CBFCB234A53A551FA553EC09AD9F5CE8C31DB9E9B1AF5CA
310
7695D1198E428A91D2D214952E33ECDD315861B4E5CC1AE3BE9561A445A3323CC098B3D21ADFCE9034DA29ED00D5A6503328BA4E398C640D8B0C77F253352214DE4145770A5B214FA2546114020D759C75CE8200340D19DE981F0F6746269C33EFAB6266AB02A655C74A59CCF365BADC27CB5D902ED22848F6340DF238A141
310
BE88E2F57B92BFEDF23523433367AE6A2EEAA455C2A902F398D2751045018D3FA264435F3771F242571B4A1919CA6F9A7C5B3CD9E42BED16F12C776AEB308F40C848FC700B1139D4891EF410CEC810227CC6846F8386402064270EF5C5C709A05E49676C024C61FC95EA45ED154CA5211D1FF4FB8291A913A68E9B83EBBB33
310
E2A7673CDE118E5AE8124C0807CB8377834E366998436B950D7A7746DAD846D4CFD978E0F04FD455FC5D49D2D4C6FE9722321F10997F0F32DC47FE05504B0304140006080800CC70623BFFEA85907E0000009D0000000B0000006662782F636E782E786D6C4DCCD10A83201886E15B91FFDC95D95A811AB6F23E625948A6C3
310
E9D8E5AF46073BFAE0E1E365ED67B3E8ADC3CB78C7815C7240DA3DFC64DCC221C519D7805AC182F7F1EF06C88D9BE6703008B6049F9E274D7A1E938DBB5AE3D6131B2589BA0D3D965551E0B2EA732C9B9A624AAEB41E3A557677029960D9AFB4EF11165F504B0304140006080800CC70623B4FEEA4082C0100001202000031
310
0000006662782F39464131463745442D413632322D343644302D413938332D3331353338454246344243312F636F72652E786D6C8D515B6EC32010BC0AE2AB55850DD871ED0813254D72825EC00192A2C460F1A872FC42ED48ED5F7E00CDCECCCEB26C731F6FE05B39AFADE921293004CA082BB5B9F43086336A21D870E6AC
310
0D7F68109861543DCC30E4ECE26C9C164858139409093556AA051CBC570102714B8F1E7AF1A5C6A11862480C7F2DA6415C878B2A4891CA89C7990F2E050073937C42DE1DB7E4F87ED8A36D4329AA9B3D46DBAEAD504556557BD81DEBDD0761E52CE42C462D17B996298E3E6BE59E35C962CE821E1FF18553435012728A7187
310
0841987E927A8D9B35ADDF70BBC6989599FE4F1427F9A4286A132ABAC49D651EF234CD5CE04CDA78BA3DC2A8FB645D00B9DF8B57E215725C60BCA2A463E54C4CE327C7A65E1C7DB02E7DEFCBF594B864C5CA6CDBD49C957943E9FA5D5FBAF336F90F504B0304140006080800CC70623BAD7543B64E01000033030000300000
310
006662782F39464131463745442D413632322D343644302D413938332D3331353338454246344243312F636E782E786D6CD593CD6EC32010845F0571AD6CE3D48AD20813A9873E410FBD12D82434182C7EAAE6EDBB2424CD25871E7B41D6EC30B3FA84F9E67BB2E40B4234DE8DB46F1925E094D7C6ED479AD3AE5951B2113C
310
789FEE6C943839C1488B4C05DF079FE72A69D8C96C13AAD6B8631503449F83828872B949AC57D26200B826A308D316B4064D6E46FCDA41C05550DC9E483A00797BFD207EFB092A45DE9514C1BBD22178396BD39D891265658C238DEA00936C654E5E433CB65A26D9F6EDB5EBC14EBF49A45CB856E66048291F6939A9A81BB5
310
C8917738143CA680F4AA299D66A042CEB3354A2684DC9D8D178FE0D9B8B41CAAD720F880EE7EF93C0C18769E099ECC04D5A102C8049A8A05632F4DDF376CF1DE0F6BB65C2F8627B65A33C6BB62177CEBBDAD973006829F89F22E814B54F4BC2BE347F8AA8F681390B50FA73F804400B5F542E796F19FF974E7F78DB802FE05
310
E207504B0304140006080800CC70623B16AB87BA640500003C100000340000006662782F39464131463745442D413632322D343644302D413938332D3331353338454246344243312F6F626A656374732E786D6CAD575B6FA33818FD2B887DE6924B3BED8A326A92B68A663B534DD4D13E548A0C38942D60649B369D5FBFC7
310
600890A493BDE42160637FD7F31D7FF63E6FB3D478A55C242CBF3247B66B1A340F5994E4F19559CA8D75611A9F7D8F33263BCB4C232719BD32D5B4E97B316765A1A722BA21652A07B3B7B33F0D11D29C9A46981221AE4C113ED38CD8A4942CA2E2C58E882476BCD9DA23BB5ED8171B73523C0F841684D35CC252CCE79062D4
310
468DFA43D7747CCF51DF7D4FFDEB5593E3AB9CCA9FBEFE241792E4E19EB28198C968BAB8199F5D5A67D3E9C49A9E8F47D6EC76B6B0469F26EEFC7C3EBFBCBEB98462213924694B38DD98FE1D62C393D073EA4FADC5DAF04326852CCF6958F90F0F2B9BB5C48816348F90C7840A68EB78EDF68723159BCEE7891A6B95DDE9D3
310
BCEAEEE8086A6C6F9E5D4B59F0175C10A7A0820BAA5055C7473B5AE3CFDD452D602CD5DF12616444529E90D448938013FE6EFA58AA96F85E4F8C42275708571E98FE6827AF6B2B4AE3D7D83D64E5A64C53054DD3AF90BD06FEA9149565C94FCA0F6B834DC85599E4F2423B24DF0B6AFA979E534DFA9E7A4CC6FA631D486393
310
921829879BF5D781A373557BCB85E97FB90DB62B558F8795179C15944B051F40AB495CF35451D26A4727654E6D8033BD98EF82F21D91FF8AF2DD9982BCF1643BDD4EB516C9492E368C67C88DED563FC36D5EACF66DFF057C3658BDBFA69DF9578B3DA735B64F18C7F20770A9D45CFCF7FCF563D6456A277DBEF78A02637CA2
310
43B90A490AEAB94F72244481D24819A6C0E59B606BFA4B3025981DBB48EAB701D97BF19C577CC77F2D1B6C55A9EF3C732474C0B727303F625995056C3B02963D9EAC146BE78EC5FCEC7FA999EBC5EACBAAE41B12D27B4D2C0BBA49F244E2ECDC81B76B502F113D8F5EE8FB1BE3111CDD4FC2AA9B844CAB1288B68AB90A7CDC
310
1C166AB0D3DC5310625FCC14E779BFD0709F8890A629C9292B1B2DED31A4B0DA928CEE135085754027E3018A397D4D5427D15BD1330B677DC8934285AC3DF45A9EB68FF8F2B8FC0A509AFEECFD0FF2DE25CC6047F7214B195F07EFEB9A094D800F7BFAE8FED187B78EA8A3A400F115961BCAD1215E47C966530AF0EE8128FE
310
58CEBB996A8964FFA529A046635D9353B0336A8F700DDF46271A024E70B0B37C9DE01847591E54DED53D54202AB947E4076556AC49C6CA5C9E1226B7F1A7B1BE15DEED62C41B91E1B3E9AFAAA735036547343A925075041DF0A9979E893B391F8FCFA6967B3EFB644DCF6E5CEBFAE272625DCC6FAF3FB93793C5F90CE1EF57
310
407342756B10D1C489E8953CD1617E5CEECAD6F4EF8914CE5D5D504E5C3F1F9736DA62CFC11E00BCDDB8CC8A9466349744C1F75EBDA4DF09BA8A9E8C7A7E9991989E20E5DBDD6A6003664ED8F7A04A8DBE0DF6EAD9B9AA858342E47399053949D2C146EDB85DE4B176BB0965FBAC19BD19AA918E27FA50C1D22402E144464C
310
59462568E704B6E71915404CB72B8FF4EDE184DDAF753F284990D2C6926782963815403548A70C657FDEF80D2D9CEAA2AE4C1C76F60BFE74219A06527D6582DF6412526107381E55E353090704D085B52408D0933C4ED159D79BDA71BB4BC506F4831350EB6F979CD22D69BF7AC49B91A2C0A9DDA3D5CA36AD20FC478E37E6
310
1844E2352865EBCB6EA275A652E3836BE04EFB400BF1A2556F515F1FBB35B2AB35BD889C744FFA1004B5544B121E57F70215746DD2F5E2C1412B602CBF19455AC6C8E5E9922C4E01E65215385004546899059180EAFCF7A707CE7017CD8CDB0410789AB32C63B91E5CEBBBACB17AC6CD347A022D5075FD106377347AAABA7E
310
7D11590744509B44E205134DC1290F06580320F78E537D3D73540E06CB970B431F185308AD40BBD794D6D77003C5A36E8EAA54BA64597CD8F83BD552A080A365F7FF06504B0304140006080000CC70623B000000000000000000000000350000006662782F39464131463745442D413632322D343644302D413938332D3331
310
353338454246344243312F76657274696365732E62696E504B0304140006080800CC70623BF270F1330600000004000000360000006662782F39464131463745442D413632322D343644302D413938332D3331353338454246344243312F747269616E676C65732E62696E636660600000504B0304140006080000CC70623B
310
000000000000000000000000370000006662782F39464131463745442D413632322D343644302D413938332D3331353338454246344243312F617474726962757465732E62696E504B0304140006080800CC70623B08DA0BD19000000041010000360000006662782F39464131463745442D413632322D343644302D413938
310
332D3331353338454246344243312F6469726563746F72792E786D6C858F410AC3201045AF22B36F53E9A60B35CBEEBAE80D244E44489C6234F4F835464A48035D0DF398FF9F8AF63D0E6CC63039F212F8F9020C7D47C6792B21C5FE7403D62A1188E2E60C98D7234A5830286103A55745067B9D86B8A3CF9C7F90C11DE607
310
FB144396D7B6A82D282E9A152AD114D5EF2CB866EEE831B8EEA07A7BB5A8D7D61A2BAAEB7FD5F70921FF497D00504B0304140006080800CC70623B0D6EF93BFE000000A00100003B0000006662782F39464131463745442D413632322D343644302D413938332D3331353338454246344243312F7265736F75726365732F63
310
6F72652E786D6C8D50596E833010BD0A9ADFCA60B334011947A8694ED00B586642AC041B79A97AFC9A40A5F6AF3F33A3B7689E1E3F7DCD8FEC139DD7D6F4C0720A191A65476DA61E62B892236427C19DB5E1970C322367EC618541F0C9D9B8EC90B226A009093576C41D94DE63804C3DD2D18357379C652E63480A7FCF17A9
310
EE72C29CE5894E3AC17D702940B63D59270887DE46A7D0F36263058F518FBB468FE9A7BE6A7420864373B8D4873369AA8691FA421B3294352543C5CAF65C0F6FEF43CB8BD52C78D0F34F46E550061C419494B6843142CB0F5677F4B52BEB177AEC28E5C52AFF638ACBF84F53D42654E51E77B379102C05791282176B5F693D
310
CB4C7BED567C03504B010214000A0000080000CC70623B3DEE336E79000000790000001B00000000000000000000000000000000006175746F6465736B2D64657369676E2D7061636B6167652E786D6C504B01021400140006080800CC70623BD486FD9CA0000000F40000001300000000000000000000000000B20000005B
310
436F6E74656E745F54797065735D2E786D6C504B01021400140006080800CC70623B1EC5D7A3EB0000007C010000080000000000000000000000000083010000636F72652E786D6C504B01021400140006080800CC70623B55019EA25F0000007C000000070000000000000000000000000094020000636E782E786D6C504B
310
01021400140006080800CC70623B8C9102E971010000D40300000C00000000000000000000000000180300006662782F636F72652E786D6C504B01021400140006080800CC70623BFFEA85907E0000009D0000000B00000000000000000000000000B30400006662782F636E782E786D6C504B01021400140006080800CC70
310
623B4FEEA4082C0100001202000031000000000000000000000000005A0500006662782F39464131463745442D413632322D343644302D413938332D3331353338454246344243312F636F72652E786D6C504B01021400140006080800CC70623BAD7543B64E010000330300003000000000000000000000000000D5060000
310
6662782F39464131463745442D413632322D343644302D413938332D3331353338454246344243312F636E782E786D6C504B01021400140006080800CC70623B16AB87BA640500003C1000003400000000000000000000000000710800006662782F39464131463745442D413632322D343644302D413938332D3331353338
310
454246344243312F6F626A656374732E786D6C504B01021400140006080000CC70623B0000000000000000000000003500000000000000000000000000270E00006662782F39464131463745442D413632322D343644302D413938332D3331353338454246344243312F76657274696365732E62696E504B01021400140006
310
080800CC70623BF270F133060000000400000036000000000000000000000000007A0E00006662782F39464131463745442D413632322D343644302D413938332D3331353338454246344243312F747269616E676C65732E62696E504B01021400140006080000CC70623B0000000000000000000000003700000000000000
310
000000000000D40E00006662782F39464131463745442D413632322D343644302D413938332D3331353338454246344243312F617474726962757465732E62696E504B01021400140006080800CC70623B08DA0BD190000000410100003600000000000000000000000000290F00006662782F39464131463745442D413632
310
322D343644302D413938332D3331353338454246344243312F6469726563746F72792E786D6C504B01021400140006080800CC70623B0D6EF93BFE000000A00100003B000000000000000000000000000D1000006662782F39464131463745442D413632322D343644302D413938332D3331353338454246344243312F7265
310
736F75726365732F636F72652E786D6C504B0506000000000E000E0080040000641100000000
  0
XRECORD
  5
ABB
102
{ACAD_REACTORS
330
173
102
}
330
173
100
AcDbXrecord
280
     1
102
MATERIAL
148
0.0
149
0.0
149
0.0
 93
        0
 94
       63
282
     0
 72
     1
 77
     1
171
     1
175
     1
179
     1
273
     0
  0
XRECORD
  5
175
102
{ACAD_REACTORS
330
173
102
}
330
173
100
AcDbXrecord
280
     1
270
     1
271
     1
  0
XRECORD
  5
174
102
{ACAD_REACTORS
330
173
102
}
330
173
100
AcDbXrecord
280
     1
270
     1
271
     1
  0
XRECORD
  5
1FB
102
{ACAD_REACTORS
330
173
102
}
330
173
100
AcDbXrecord
280
     1
 70
     0
 90
1673772943
  1
ECE7A1D2-D628-4531-984C-D00F80459256
310
504B03040A0000080000CC70623B3DEE336E79000000790000001B0000006175746F6465736B2D64657369676E2D7061636B6167652E786D6C3C3F786D6C2076657273696F6E3D22312E302220656E636F64696E673D227574662D3822203F3E3C666F726D6174733E3C666F726D61743E687474703A2F2F736368656D612E
310
6175746F6465736B2E636F6D2F64657369676E2D7061636B6167652F323030393C2F666F726D61743E3C2F666F726D6174733E504B0304140006080800CC70623BD486FD9CA0000000F4000000130000005B436F6E74656E745F54797065735D2E786D6C7D8EC10E82300C865F65E91D8A1E8C310C0EEA1BF002731658846E
310
D98AC1B77784ABF1D8FE5FBFBF75BBCE937A534CCEB38643598122B6FEE978D0B0485F9C41B54DDD7D022595594E1A469170414C76A4D9A4D207E29CF43ECE46F218070CC6BECC4078ACAA135ACF422C856C0E68EA1BF5669944DDD7BCDE7B1F8E415D77AECB980613C2E4AC91FC167A2B244592486606FC29C8FD7F045B9A
310
EF7053A7E60B504B0304140006080800CC70623BD9DDAED0EC0000007C01000008000000636F72652E786D6C8D90416EC3201045AF82665B61836D9CD8C2444DD39CA01740405C94182C03558F5F9C3852BBEB6A467FFE9B197D7EF89E6EE8CB2CC17A37002D0820E394D7D68D03A478C17B4007C117EFE32F1B20272733C0
310
2A83E0E3E2D3BC49CABB685CCCAAF3DA6CA20CC14440EA969B0182FA34932C648AD911AEC52CD5558EA6A0CF2EC329598D1E47ACCEFBECC59A050463A7EA5833865FEBDD0E37353BE3EE8DBDE3F6786A48D375FBF6CC78B9C282473B3DEFABC5C86834888A900E538A49F5419B9EB47DD5BC907D4F082F57FB1F28CDFA9F50
310
B22ED6D5F6EE030B20687EE43E10BC5CB3C8E51E54AE6B6EE207504B0304140006080800CC70623B55019EA25F0000007C00000007000000636E782E786D6C4DCB3B0E80201045D1AD90E915ED2CF8AC45050C11660C8261F98AB1B07AC9C97D42D718D865D3E909258CFD00CCE24AC6E326A164D74DC0B4128928FF326038
310
472BA13128B1252AC747C6BAB984FC68F0B87FE8960A5C09FE86CFB69FBA01504B0304140006080800CC70623BA24EB22D72010000D40300000C0000006662782F636F72652E786D6CC5535B6E833010BC8AE5DF0A6C5E49888CA3A6694ED00B38E05014B091B1518EDFE511A5A9D228FD2A1F60CDEC7A67C6986DCE4D8D7A
310
69BA4AAB0C073EC548AA5C17952A33ECECD15B61B4E1CC686DBF9561A44423333CC098B3D268D7CE50AE9595CA02AA74216750749DB418E5352C32DCE59FB211BE70162ABA93DF8AFC244AE9073ED050C759670D0840D390E18DF9F1706664C23973AE2A66B62A605A75ACA4C13C4976E1364A12EF355A2EBD384AF65EFA96
310
BC7B8BED2EA6719AAE16FB8491A199335B351775B991C2CA02F390D2D40B028F861F41BCA68B7518BFD0D59A524686F29B26D7164F36B94AD9289CE54E6D1DE6010819891F6E21228B3AD1831EC219194284CF98F06DD01008846CC5A1BEF83801D4CBDC6A1303536877A57A513B0953A94FC707FDBE6064EA84A9E3E6E0FA
310
EE8CF0E9198F7784A316AA0413C2C2F2E0ECA0934D1AE6D05A69BCDE9E91D2A611F573361E38FC1375157F5752AE6B6DFE4B11990F88CCBF0719EE23FF02504B0304140006080800CC70623B408A7D3B7C0000009D0000000B0000006662782F636E782E786D6C4DCCD10A83201886E15B91FFDC552A92A0064DBC8F581632
310
D3703A76F9ABD1C18E3E78F878E5F0D9027ABBFCF2292AE86E2D20171F69F6715550CB827B40839639A5F2770314A7CD293819B45C73AAFB45B35BA61ACAA1C1C7E7855C58C15BC331339661262CC762340413D68D77DA5B42298546CBE6573AF60CEB2F504B0304140006080800CC70623B449FB9BD290100001202000031
310
0000006662782F36394639363044362D344446342D343946362D394244322D3234314243333846323333332F636F72652E786D6C8D515B6EC32010BC0AE22B55850D98B871848994463E412FE002495162B07854397EA176A4F62F3F2C9A9D991D587EB84F37F0AD7D30CEF6905418026DA553C65E7A98E219ED203808EE9D
310
8B7F6810D871D23D2C3014FCE25D9A57483A1BB58D19B54EE9151C43D0110279CB971E06F9A5A7B11A53CC8C70ADE6515EC78BAE4895DB992778883E0700CB907242D17643D7E2538BD869608875438BBAE38922CAC8F1BDD90DB4691A5E2F42C153326A951B95E398B3D1FE599322163C9AE9115F7A3D46ADA0A018778810
310
84E907617BDCEE297BC5BB3DC6BC2EF47FA234AB2745C9D8D8D035EE220B50105E2F0DC1954B9FB747187D9F9D8FA0CCDB042D5FA0C015C65B42DF78BD10F3F3B363CB56C7109DCFDFBBB97E662ED92EB62D13BC2E1BCAE5777DB9966D8A1F504B0304140006080800CC70623BAD7543B64E01000033030000300000006662
310
782F36394639363044362D344446342D343946362D394244322D3234314243333846323333332F636E782E786D6CD593CD6EC32010845F0571AD6CE3D48AD20813A9873E410FBD12D82434182C7EAAE6EDBB2424CD25871E7B41D6EC30B3FA84F9E67BB2E40B4234DE8DB46F1925E094D7C6ED479AD3AE5951B2113C789FEE
310
6C943839C1488B4C05DF079FE72A69D8C96C13AAD6B8631503449F83828872B949AC57D26200B826A308D316B4064D6E46FCDA41C05550DC9E483A00797BFD207EFB092A45DE9514C1BBD22178396BD39D891265658C238DEA00936C654E5E433CB65A26D9F6EDB5EBC14EBF49A45CB856E66048291F6939A9A81BB5C89177
310
38143CA680F4AA299D66A042CEB3354A2684DC9D8D178FE0D9B8B41CAAD720F880EE7EF93C0C18769E099ECC04D5A102C8049A8A05632F4DDF376CF1DE0F6BB65C2F8627B65A33C6BB62177CEBBDAD973006829F89F22E814B54F4BC2BE347F8AA8F681390B50FA73F804400B5F542E796F19FF974E7F78DB802FE05E20750
310
4B0304140006080800CC70623B8D05915C650500003B100000340000006662782F36394639363044362D344446342D343946362D394244322D3234314243333846323333332F6F626A656374732E786D6CAD575B6FA33814FE2B887D06429276DA1565D4266D158D3A339A6846FB502932E050B66023DB74D2FDF5FB190C01
310
9276B2973C046C8ECFF53B17071F77456EBD502133CEAE6CDF9DD81665314F32965ED995DA3A17B6F5310C04E7AA47665B8C14F4CAD6DB7618A48257A5D94AE89654B91AEDDEDDFC61C998326A5B714EA4BCB265FC440BE2924AF184CA6737218AB8E976E7FA6E4338649B0A523E8D98964450A6A029F619B8588D52FE7039
310
B1BD30F0F4F730D0FF866AF6369557DB33949F31A9088B0F848DD8CCFCF9F2767A76E99CCDE733677E3EF59D9BBB9BA5E37F984D16E78BC5E5F5ED25044B25C0C96822E8D60EEFE11B91C581D77CEA34368A1F5329E68CD1B8B61F16D63A1B8E092D294B10C78C4A48EB593D192E7DED9BDEE7995E1B91FDEDD3ACEA9FE831
310
6A756F9F7D4D79F4274C90A7A04248AA51D5F8C718DAE06FB2F75AC4796EBE65D22A88A22223B995679120E2D50E41AA49C260C046A35368846B0BECD0DFF3EBEB8AD4F835768F69B9ADF25C43D30E6B646F807FAA64AD59F61715C7A54127C4AACA98BA3006A9D792DAE165E0D59B61A01FB3A9F9D838D2DAE62445C86166
310
F37564E842E7DE6A69879FEEA2DD5AE7E371E1A5E025154AC307D06A03D73EB5978C58FFA4C8E9033066E0F3BD53BEC1F39F91BE7B55103791EDE6BBB991A2046172CB4581D8B893FA674DDA17A77B3B7C413D1B511FD2743BFF8A38F03A658705E3ADF8015C3A3417FF3D7E439FF591DA0B5F18BC20C1B8981957AE6392A3
310
F43C640C01D1A0B4728E2DD4F26DB4B3C3152A252A3B4E913CEC1C72F012782FF88EFF8637AA552DBEF76408E8A8DE9E50F9E1CB3A2DA0DB1B6039A893B56063DC5B3E3FFB5F72E67AB9FEB4AEC496C4F4C1149625DD662C53E89D7BF0F6151A046260D1337DFDC94502430F83B0EE07A130A224BCAD7DAE1D9FB6CD422FF6
310
920702629C4BB9AE79C12F243C6432A6794E18E5552BA56B431AAB5D91317302B2B071E86C3A42B1A02F999E24061403B5D0EB639195DA655DD3EBEAB4FB862DDF579F014AD0E73C22F99E28DA57FB98E75C6CA2D74D53086D600F4786E0FE3144B771A8A7B900F03594DB8A633CBC49B2EDB69228BB479CF863B5E807AAAB
310
23872F6DFEB4129B949CA33823F58830E86D65621E10047D9DB34D862E8EAC3C2ABC2F7B2C40D67CDFE01F5545B92105AF983AC54D93D69E56FB8E797F88913F898A9FEC705D3F9D1B54EC8426FB500D40A03BD0119B06E1B95DDC7EB8F6975367793EBD70E66733DFB9BC982F9CE564727731999F5D4ECFCE3B8D6A4DC2A0
310
6D50FD148437D110834A64C6CDDF57FBACB5C307A2A477DFE4939736CFEF2B175371E0E10CF0DD1D5C15654E0BCA14D1E87DD02FF93782A162C0A3D95F1524A52770F972BF1EE9809D13CE7DD599467F8ECE9ADD85CE85A34CD45355448C64F9E8A031DC2D596ACC6E5DD93D9B82DE2EF5CAF81363A8E47996A0DE24564A79
310
4115AACE09C55E14540231FDA13C319787134EBF34E3A022514E5B4D9E0826E25C02D5805B15ABE1BEF51B26383D445DD9E875EE33FE4C22DA16427D65A3BCA92CA6D28DD01DF5DC53330704308475351050232CCD31583787BA75774AFB06E5070DD0C8EF484E19968C5D83BA5B90B244D31E54D55A372320FE4786B7EA58
310
44E135AA5467CB7EA333A61683CC6A8C3257034C10CF46F40EF9F5BE59BE5BD30C3C72D235E95D10345C1D45445A5F0BB47E46A5EBE5570F9380B5FA629579952296A773720405982B9DE04011506178964401AA8BDF1FBF0A8EAB6861DD6580C0E38217056766716DAEB2D6FA0917D3E4116581EADB879C4E7CFFB11EFACD
310
3D641311495D92C8676CB409A72D18610D803CE8A626049E8EC1887CB5B44CC39883690DDA8399B4B9855B481E7D71D4A9D22F96E5BB73BF5793020C02137BF837504B0304140006080000CC70623B000000000000000000000000350000006662782F36394639363044362D344446342D343946362D394244322D32343142
310
43333846323333332F76657274696365732E62696E504B0304140006080800CC70623BF270F1330600000004000000360000006662782F36394639363044362D344446342D343946362D394244322D3234314243333846323333332F747269616E676C65732E62696E636660600000504B0304140006080000CC70623B0000
310
00000000000000000000370000006662782F36394639363044362D344446342D343946362D394244322D3234314243333846323333332F617474726962757465732E62696E504B0304140006080800CC70623B08DA0BD19000000041010000360000006662782F36394639363044362D344446342D343946362D394244322D
310
3234314243333846323333332F6469726563746F72792E786D6C858F410AC3201045AF22B36F53E9A60B35CBEEBAE80D244E44489C6234F4F835464A48035D0DF398FF9F8AF63D0E6CC63039F212F8F9020C7D47C6792B21C5FE7403D62A1188E2E60C98D7234A5830286103A55745067B9D86B8A3CF9C7F90C11DE607FB14
310
4396D7B6A82D282E9A152AD114D5EF2CB866EEE831B8EEA07A7BB5A8D7D61A2BAAEB7FD5F70921FF497D00504B0304140006080800CC70623BCA768048FE000000A00100003B0000006662782F36394639363044362D344446342D343946362D394244322D3234314243333846323333332F7265736F75726365732F636F72
310
652E786D6C8D50596E833010BD0A9ADFCA60D600328E9AA639412F609909B1126CE4A5EAF16B0295DABFFECC8CDEA2797AECF8353F924FB44E193D409E5248504B332A3D0D10FC95B4901C39B3C6F85F3248B49871801506CE266BC2B243D2688FDA47549B11775038871E12F988C7004EDE7016A9083E2ADC3D5D84BC8B09
310
D33C8D74D471E6BC8D0192EDC93A815B742658898E651BCB59086ADC356A8C3FD555A1055ED7E7E254D615792D0F075295F585746FF53B694EE78A565DD736979A65AB9933AFE69F8CD2A2F038022F28ED489E135A7CE4554F9BBEA85E68DB53CAB255FEC71496F19FA6A0B42F8B3DEE6673C0F318E4497096AD7DC5F52C33
310
EEB55BFE0D504B010214000A0000080000CC70623B3DEE336E79000000790000001B00000000000000000000000000000000006175746F6465736B2D64657369676E2D7061636B6167652E786D6C504B01021400140006080800CC70623BD486FD9CA0000000F40000001300000000000000000000000000B20000005B436F
310
6E74656E745F54797065735D2E786D6C504B01021400140006080800CC70623BD9DDAED0EC0000007C010000080000000000000000000000000083010000636F72652E786D6C504B01021400140006080800CC70623B55019EA25F0000007C000000070000000000000000000000000095020000636E782E786D6C504B0102
310
1400140006080800CC70623BA24EB22D72010000D40300000C00000000000000000000000000190300006662782F636F72652E786D6C504B01021400140006080800CC70623B408A7D3B7C0000009D0000000B00000000000000000000000000B50400006662782F636E782E786D6C504B01021400140006080800CC70623B
310
449FB9BD290100001202000031000000000000000000000000005A0500006662782F36394639363044362D344446342D343946362D394244322D3234314243333846323333332F636F72652E786D6C504B01021400140006080800CC70623BAD7543B64E010000330300003000000000000000000000000000D20600006662
310
782F36394639363044362D344446342D343946362D394244322D3234314243333846323333332F636E782E786D6C504B01021400140006080800CC70623B8D05915C650500003B10000034000000000000000000000000006E0800006662782F36394639363044362D344446342D343946362D394244322D32343142433338
310
46323333332F6F626A656374732E786D6C504B01021400140006080000CC70623B0000000000000000000000003500000000000000000000000000250E00006662782F36394639363044362D344446342D343946362D394244322D3234314243333846323333332F76657274696365732E62696E504B010214001400060808
310
00CC70623BF270F13306000000040000003600000000000000000000000000780E00006662782F36394639363044362D344446342D343946362D394244322D3234314243333846323333332F747269616E676C65732E62696E504B01021400140006080000CC70623B00000000000000000000000037000000000000000000
310
00000000D20E00006662782F36394639363044362D344446342D343946362D394244322D3234314243333846323333332F617474726962757465732E62696E504B01021400140006080800CC70623B08DA0BD190000000410100003600000000000000000000000000270F00006662782F36394639363044362D344446342D
310
343946362D394244322D3234314243333846323333332F6469726563746F72792E786D6C504B01021400140006080800CC70623BCA768048FE000000A00100003B000000000000000000000000000B1000006662782F36394639363044362D344446342D343946362D394244322D3234314243333846323333332F7265736F
310
75726365732F636F72652E786D6C504B0506000000000E000E0080040000621100000000
  0
XRECORD
  5
176
102
{ACAD_REACTORS
330
173
102
}
330
173
100
AcDbXrecord
280
     1
270
     1
271
     1
  0
XRECORD
  5
177
102
{ACAD_REACTORS
330
173
102
}
330
173
100
AcDbXrecord
280
     1
270
     1
271
     1
  0
XRECORD
  5
AAB
102
{ACAD_REACTORS
330
AAA
102
}
330
AAA
100
AcDbXrecord
280
     1
102
ACAD_ROUNDTRIP_2012_MLEADER_STYLE
298
     1
  0
XRECORD
  5
AA9
102
{ACAD_REACTORS
330
AA8
102
}
330
AA8
100
AcDbXrecord
280
     1
102
ACAD_ROUNDTRIP_2012_MLEADER_STYLE
298
     1
  0
CELLSTYLEMAP
  5
AA7
102
{ACAD_REACTORS
330
162
102
}
330
162
100
AcDbCellStyleMap
 90
        3
300
CELLSTYLE
  1
TABLEFORMAT_BEGIN
 90
        5
170
     1
 91
        0
 92
    32768
 62
   257
 93
        1
300
CONTENTFORMAT
  1
CONTENTFORMAT_BEGIN
 90
        0
 91
        0
 92
      512
 93
        0
300

 40
0.0
140
1.0
 94
        5
 62
     0
340
11
144
6.0
309
CONTENTFORMAT_END
171
     1
301
MARGIN
  1
CELLMARGIN_BEGIN
 40
1.5
 40
1.5
 40
1.5
 40
1.5
 40
4.5
 40
4.5
309
CELLMARGIN_END
 94
        6
 95
        1
302
GRIDFORMAT
  1
GRIDFORMAT_BEGIN
 90
        0
 91
        1
 62
     0
 92
       -2
340
14
 93
        0
 40
1.125
309
GRIDFORMAT_END
 95
        2
302
GRIDFORMAT
  1
GRIDFORMAT_BEGIN
 90
        0
 91
        1
 62
     0
 92
       -2
340
14
 93
        0
 40
1.125
309
GRIDFORMAT_END
 95
        4
302
GRIDFORMAT
  1
GRIDFORMAT_BEGIN
 90
        0
 91
        1
 62
     0
 92
       -2
340
14
 93
        0
 40
1.125
309
GRIDFORMAT_END
 95
        8
302
GRIDFORMAT
  1
GRIDFORMAT_BEGIN
 90
        0
 91
        1
 62
     0
 92
       -2
340
14
 93
        0
 40
1.125
309
GRIDFORMAT_END
 95
       16
302
GRIDFORMAT
  1
GRIDFORMAT_BEGIN
 90
        0
 91
        1
 62
     0
 92
       -2
340
14
 93
        0
 40
1.125
309
GRIDFORMAT_END
 95
       32
302
GRIDFORMAT
  1
GRIDFORMAT_BEGIN
 90
        0
 91
        1
 62
     0
 92
       -2
340
14
 93
        0
 40
1.125
309
GRIDFORMAT_END
309
TABLEFORMAT_END
  1
CELLSTYLE_BEGIN
 90
        1
 91
        1
300
_TITLE
309
CELLSTYLE_END
300
CELLSTYLE
  1
TABLEFORMAT_BEGIN
 90
        5
170
     1
 91
        0
 92
        0
 62
   257
 93
        1
300
CONTENTFORMAT
  1
CONTENTFORMAT_BEGIN
 90
        0
 91
        0
 92
      512
 93
        0
300

 40
0.0
140
1.0
 94
        5
 62
     0
340
11
144
4.5
309
CONTENTFORMAT_END
171
     1
301
MARGIN
  1
CELLMARGIN_BEGIN
 40
1.5
 40
1.5
 40
1.5
 40
1.5
 40
4.5
 40
4.5
309
CELLMARGIN_END
 94
        6
 95
        1
302
GRIDFORMAT
  1
GRIDFORMAT_BEGIN
 90
        0
 91
        1
 62
     0
 92
       -2
340
14
 93
        0
 40
1.125
309
GRIDFORMAT_END
 95
        2
302
GRIDFORMAT
  1
GRIDFORMAT_BEGIN
 90
        0
 91
        1
 62
     0
 92
       -2
340
14
 93
        0
 40
1.125
309
GRIDFORMAT_END
 95
        4
302
GRIDFORMAT
  1
GRIDFORMAT_BEGIN
 90
        0
 91
        1
 62
     0
 92
       -2
340
14
 93
        0
 40
1.125
309
GRIDFORMAT_END
 95
        8
302
GRIDFORMAT
  1
GRIDFORMAT_BEGIN
 90
        0
 91
        1
 62
     0
 92
       -2
340
14
 93
        0
 40
1.125
309
GRIDFORMAT_END
 95
       16
302
GRIDFORMAT
  1
GRIDFORMAT_BEGIN
 90
        0
 91
        1
 62
     0
 92
       -2
340
14
 93
        0
 40
1.125
309
GRIDFORMAT_END
 95
       32
302
GRIDFORMAT
  1
GRIDFORMAT_BEGIN
 90
        0
 91
        1
 62
     0
 92
       -2
340
14
 93
        0
 40
1.125
309
GRIDFORMAT_END
309
TABLEFORMAT_END
  1
CELLSTYLE_BEGIN
 90
        2
 91
        1
300
_HEADER
309
CELLSTYLE_END
300
CELLSTYLE
  1
TABLEFORMAT_BEGIN
 90
        5
170
     1
 91
        0
 92
        0
 62
   257
 93
        1
300
CONTENTFORMAT
  1
CONTENTFORMAT_BEGIN
 90
        0
 91
        0
 92
      512
 93
        0
300

 40
0.0
140
1.0
 94
        2
 62
     0
340
11
144
4.5
309
CONTENTFORMAT_END
171
     1
301
MARGIN
  1
CELLMARGIN_BEGIN
 40
1.5
 40
1.5
 40
1.5
 40
1.5
 40
4.5
 40
4.5
309
CELLMARGIN_END
 94
        6
 95
        1
302
GRIDFORMAT
  1
GRIDFORMAT_BEGIN
 90
        0
 91
        1
 62
     0
 92
       -2
340
14
 93
        0
 40
1.125
309
GRIDFORMAT_END
 95
        2
302
GRIDFORMAT
  1
GRIDFORMAT_BEGIN
 90
        0
 91
        1
 62
     0
 92
       -2
340
14
 93
        0
 40
1.125
309
GRIDFORMAT_END
 95
        4
302
GRIDFORMAT
  1
GRIDFORMAT_BEGIN
 90
        0
 91
        1
 62
     0
 92
       -2
340
14
 93
        0
 40
1.125
309
GRIDFORMAT_END
 95
        8
302
GRIDFORMAT
  1
GRIDFORMAT_BEGIN
 90
        0
 91
        1
 62
     0
 92
       -2
340
14
 93
        0
 40
1.125
309
GRIDFORMAT_END
 95
       16
302
GRIDFORMAT
  1
GRIDFORMAT_BEGIN
 90
        0
 91
        1
 62
     0
 92
       -2
340
14
 93
        0
 40
1.125
309
GRIDFORMAT_END
 95
       32
302
GRIDFORMAT
  1
GRIDFORMAT_BEGIN
 90
        0
 91
        1
 62
     0
 92
       -2
340
14
 93
        0
 40
1.125
309
GRIDFORMAT_END
309
TABLEFORMAT_END
  1
CELLSTYLE_BEGIN
 90
        3
 91
        2
300
_DATA
309
CELLSTYLE_END
  0
XRECORD
  5
AB4
102
{ACAD_REACTORS
330
162
102
}
330
162
100
AcDbXrecord
280
     1
102
ACAD_ROUNDTRIP_PRE2007_TABLESTYLE
 90
      512
 91
        0
  1

 92
      512
 93
        0
  2

 94
      512
 95
        0
  3

  0
XRECORD
  5
AC7
102
{ACAD_REACTORS
330
AC6
102
}
330
AC6
100
AcDbXrecord
280
     1
102
RTVSPropertyOp0
 70
     1
102
RTVSPropertyOp1
 70
     1
102
RTVSPropertyOp2
 70
     1
102
RTVSPropertyOp3
 70
     1
102
RTVSPropertyOp4
 70
     1
102
RTVSPropertyOp5
 70
     1
102
RTVSPropertyOp6
 70
     1
102
RTVSPropertyOp7
 70
     1
102
RTVSPropertyOp8
 70
     1
102
RTVSPropertyOp9
 70
     1
102
RTVSPropertyOp10
 70
     1
102
RTVSPropertyOp11
 70
     1
102
RTVSPropertyOp12
 70
     1
102
RTVSPropertyOp13
 70
     1
102
RTVSPropertyOp14
 70
     1
102
RTVSPropertyOp15
 70
     1
102
RTVSPropertyOp16
 70
     1
102
RTVSPropertyOp17
 70
     1
102
RTVSPropertyOp18
 70
     1
102
RTVSPropertyOp19
 70
     1
102
RTVSPropertyOp20
 70
     1
102
RTVSPropertyOp21
 70
     1
102
RTVSPropertyOp22
 70
     1
102
RTVSPropertyOp23
 70
     1
102
RTVSPropertyOp24
 70
     1
102
RTVSPropertyOp25
 70
     1
102
RTVSPropertyOp26
 70
     1
102
RTVSPropertyOp27
 70
     1
102
RTVSPropertyOp28
 70
     1
102
RTVSPropertyOp29
 70
     1
102
RTVSPropertyOp30
 70
     1
102
RTVSPropertyOp31
 70
     1
102
RTVSPropertyOp32
 70
     1
  0
XRECORD
  5
AEF
102
{ACAD_REACTORS
330
AEE
102
}
330
AEE
100
AcDbXrecord
280
     1
102
RTVSPropertyOp0
 70
     1
102
RTVSPropertyOp1
 70
     1
102
RTVSPropertyOp2
 70
     1
102
RTVSPropertyOp3
 70
     1
102
RTVSPropertyOp4
 70
     1
102
RTVSPropertyOp5
 70
     1
102
RTVSPropertyOp6
 70
     1
102
RTVSPropertyOp7
 70
     1
102
RTVSPropertyOp8
 70
     1
102
RTVSPropertyOp9
 70
     1
102
RTVSPropertyOp10
 70
     1
102
RTVSPropertyOp11
 70
     1
102
RTVSPropertyOp12
 70
     1
102
RTVSPropertyOp13
 70
     1
102
RTVSPropertyOp14
 70
     1
102
RTVSPropertyOp15
 70
     1
102
RTVSPropertyOp16
 70
     1
102
RTVSPropertyOp17
 70
     1
102
RTVSPropertyOp18
 70
     1
102
RTVSPropertyOp19
 70
     1
102
RTVSPropertyOp20
 70
     1
102
RTVSPropertyOp21
 70
     1
102
RTVSPropertyOp22
 70
     1
102
RTVSPropertyOp23
 70
     1
102
RTVSPropertyOp24
 70
     1
102
RTVSPropertyOp25
 70
     1
102
RTVSPropertyOp26
 70
     1
102
RTVSPropertyOp27
 70
     1
102
RTVSPropertyOp28
 70
     1
102
RTVSPropertyOp29
 70
     1
102
RTVSPropertyOp30
 70
     1
102
RTVSPropertyOp31
 70
     1
102
RTVSPropertyOp32
 70
     1
  0
XRECORD
  5
AED
102
{ACAD_REACTORS
330
AEC
102
}
330
AEC
100
AcDbXrecord
280
     1
102
RTVSPropertyOp0
 70
     1
102
RTVSPropertyOp1
 70
     1
102
RTVSPropertyOp2
 70
     1
102
RTVSPropertyOp3
 70
     1
102
RTVSPropertyOp4
 70
     1
102
RTVSPropertyOp5
 70
     1
102
RTVSPropertyOp6
 70
     1
102
RTVSPropertyOp7
 70
     1
102
RTVSPropertyOp8
 70
     1
102
RTVSPropertyOp9
 70
     1
102
RTVSPropertyOp10
 70
     1
102
RTVSPropertyOp11
 70
     1
102
RTVSPropertyOp12
 70
     1
102
RTVSPropertyOp13
 70
     1
102
RTVSPropertyOp14
 70
     1
102
RTVSPropertyOp15
 70
     1
102
RTVSPropertyOp16
 70
     1
102
RTVSPropertyOp17
 70
     1
102
RTVSPropertyOp18
 70
     1
102
RTVSPropertyOp19
 70
     1
102
RTVSPropertyOp20
 70
     1
102
RTVSPropertyOp21
 70
     1
102
RTVSPropertyOp22
 70
     1
102
RTVSPropertyOp23
 70
     1
102
RTVSPropertyOp24
 70
     1
102
RTVSPropertyOp25
 70
     1
102
RTVSPropertyOp26
 70
     1
102
RTVSPropertyOp27
 70
     1
102
RTVSPropertyOp28
 70
     1
102
RTVSPropertyOp29
 70
     1
102
RTVSPropertyOp30
 70
     1
102
RTVSPropertyOp31
 70
     1
102
RTVSPropertyOp32
 70
     1
  0
XRECORD
  5
AC5
102
{ACAD_REACTORS
330
AC4
102
}
330
AC4
100
AcDbXrecord
280
     1
102
RTVSPropertyOp0
 70
     1
102
RTVSPropertyOp1
 70
     1
102
RTVSPropertyOp2
 70
     1
102
RTVSPropertyOp3
 70
     1
102
RTVSPropertyOp4
 70
     1
102
RTVSPropertyOp5
 70
     1
102
RTVSPropertyOp6
 70
     1
102
RTVSPropertyOp7
 70
     1
102
RTVSPropertyOp8
 70
     1
102
RTVSPropertyOp9
 70
     1
102
RTVSPropertyOp10
 70
     1
102
RTVSPropertyOp11
 70
     1
102
RTVSPropertyOp12
 70
     1
102
RTVSPropertyOp13
 70
     1
102
RTVSPropertyOp14
 70
     1
102
RTVSPropertyOp15
 70
     1
102
RTVSPropertyOp16
 70
     1
102
RTVSPropertyOp17
 70
     1
102
RTVSPropertyOp18
 70
     1
102
RTVSPropertyOp19
 70
     1
102
RTVSPropertyOp20
 70
     1
102
RTVSPropertyOp21
 70
     1
102
RTVSPropertyOp22
 70
     1
102
RTVSPropertyOp23
 70
     1
102
RTVSPropertyOp24
 70
     1
102
RTVSPropertyOp25
 70
     1
102
RTVSPropertyOp26
 70
     1
102
RTVSPropertyOp27
 70
     1
102
RTVSPropertyOp28
 70
     1
102
RTVSPropertyOp29
 70
     1
102
RTVSPropertyOp30
 70
     1
102
RTVSPropertyOp31
 70
     1
102
RTVSPropertyOp32
 70
     1
  0
XRECORD
  5
AD3
102
{ACAD_REACTORS
330
AD2
102
}
330
AD2
100
AcDbXrecord
280
     1
102
RTVSPropertyOp0
 70
     1
102
RTVSPropertyOp1
 70
     1
102
RTVSPropertyOp2
 70
     1
102
RTVSPropertyOp3
 70
     1
102
RTVSPropertyOp4
 70
     1
102
RTVSPropertyOp5
 70
     1
102
RTVSPropertyOp6
 70
     1
102
RTVSPropertyOp7
 70
     1
102
RTVSPropertyOp8
 70
     1
102
RTVSPropertyOp9
 70
     1
102
RTVSPropertyOp10
 70
     1
102
RTVSPropertyOp11
 70
     1
102
RTVSPropertyOp12
 70
     1
102
RTVSPropertyOp13
 70
     1
102
RTVSPropertyOp14
 70
     1
102
RTVSPropertyOp15
 70
     1
102
RTVSPropertyOp16
 70
     1
102
RTVSPropertyOp17
 70
     1
102
RTVSPropertyOp18
 70
     1
102
RTVSPropertyOp19
 70
     1
102
RTVSPropertyOp20
 70
     1
102
RTVSPropertyOp21
 70
     1
102
RTVSPropertyOp22
 70
     1
102
RTVSPropertyOp23
 70
     1
102
RTVSPropertyOp24
 70
     1
102
RTVSPropertyOp25
 70
     1
102
RTVSPropertyOp26
 70
     1
102
RTVSPropertyOp27
 70
     1
102
RTVSPropertyOp28
 70
     1
102
RTVSPropertyOp29
 70
     1
102
RTVSPropertyOp30
 70
     1
102
RTVSPropertyOp31
 70
     1
102
RTVSPropertyOp32
 70
     1
  0
XRECORD
  5
ADB
102
{ACAD_REACTORS
330
ADA
102
}
330
ADA
100
AcDbXrecord
280
     1
102
RTVSPropertyOp0
 70
     1
102
RTVSPropertyOp1
 70
     1
102
RTVSPropertyOp2
 70
     1
102
RTVSPropertyOp3
 70
     1
102
RTVSPropertyOp4
 70
     1
102
RTVSPropertyOp5
 70
     1
102
RTVSPropertyOp6
 70
     1
102
RTVSPropertyOp7
 70
     1
102
RTVSPropertyOp8
 70
     1
102
RTVSPropertyOp9
 70
     1
102
RTVSPropertyOp10
 70
     1
102
RTVSPropertyOp11
 70
     1
102
RTVSPropertyOp12
 70
     1
102
RTVSPropertyOp13
 70
     1
102
RTVSPropertyOp14
 70
     1
102
RTVSPropertyOp15
 70
     1
102
RTVSPropertyOp16
 70
     1
102
RTVSPropertyOp17
 70
     1
102
RTVSPropertyOp18
 70
     1
102
RTVSPropertyOp19
 70
     1
102
RTVSPropertyOp20
 70
     1
102
RTVSPropertyOp21
 70
     1
102
RTVSPropertyOp22
 70
     1
102
RTVSPropertyOp23
 70
     1
102
RTVSPropertyOp24
 70
     1
102
RTVSPropertyOp25
 70
     1
102
RTVSPropertyOp26
 70
     1
102
RTVSPropertyOp27
 70
     1
102
RTVSPropertyOp28
 70
     1
102
RTVSPropertyOp29
 70
     1
102
RTVSPropertyOp30
 70
     1
102
RTVSPropertyOp31
 70
     1
102
RTVSPropertyOp32
 70
     1
  0
XRECORD
  5
ACD
102
{ACAD_REACTORS
330
ACC
102
}
330
ACC
100
AcDbXrecord
280
     1
102
RTVSPropertyOp0
 70
     1
102
RTVSPropertyOp1
 70
     1
102
RTVSPropertyOp2
 70
     1
102
RTVSPropertyOp3
 70
     1
102
RTVSPropertyOp4
 70
     1
102
RTVSPropertyOp5
 70
     1
102
RTVSPropertyOp6
 70
     1
102
RTVSPropertyOp7
 70
     1
102
RTVSPropertyOp8
 70
     1
102
RTVSPropertyOp9
 70
     1
102
RTVSPropertyOp10
 70
     1
102
RTVSPropertyOp11
 70
     1
102
RTVSPropertyOp12
 70
     1
102
RTVSPropertyOp13
 70
     1
102
RTVSPropertyOp14
 70
     1
102
RTVSPropertyOp15
 70
     1
102
RTVSPropertyOp16
 70
     1
102
RTVSPropertyOp17
 70
     1
102
RTVSPropertyOp18
 70
     1
102
RTVSPropertyOp19
 70
     1
102
RTVSPropertyOp20
 70
     1
102
RTVSPropertyOp21
 70
     1
102
RTVSPropertyOp22
 70
     1
102
RTVSPropertyOp23
 70
     1
102
RTVSPropertyOp24
 70
     1
102
RTVSPropertyOp25
 70
     1
102
RTVSPropertyOp26
 70
     1
102
RTVSPropertyOp27
 70
     1
102
RTVSPropertyOp28
 70
     1
102
RTVSPropertyOp29
 70
     1
102
RTVSPropertyOp30
 70
     1
102
RTVSPropertyOp31
 70
     1
102
RTVSPropertyOp32
 70
     1
  0
XRECORD
  5
AD1
102
{ACAD_REACTORS
330
AD0
102
}
330
AD0
100
AcDbXrecord
280
     1
102
RTVSPropertyOp0
 70
     1
102
RTVSPropertyOp1
 70
     1
102
RTVSPropertyOp2
 70
     1
102
RTVSPropertyOp3
 70
     1
102
RTVSPropertyOp4
 70
     1
102
RTVSPropertyOp5
 70
     1
102
RTVSPropertyOp6
 70
     1
102
RTVSPropertyOp7
 70
     1
102
RTVSPropertyOp8
 70
     1
102
RTVSPropertyOp9
 70
     1
102
RTVSPropertyOp10
 70
     1
102
RTVSPropertyOp11
 70
     1
102
RTVSPropertyOp12
 70
     1
102
RTVSPropertyOp13
 70
     1
102
RTVSPropertyOp14
 70
     1
102
RTVSPropertyOp15
 70
     1
102
RTVSPropertyOp16
 70
     1
102
RTVSPropertyOp17
 70
     1
102
RTVSPropertyOp18
 70
     1
102
RTVSPropertyOp19
 70
     1
102
RTVSPropertyOp20
 70
     1
102
RTVSPropertyOp21
 70
     1
102
RTVSPropertyOp22
 70
     1
102
RTVSPropertyOp23
 70
     1
102
RTVSPropertyOp24
 70
     1
102
RTVSPropertyOp25
 70
     1
102
RTVSPropertyOp26
 70
     1
102
RTVSPropertyOp27
 70
     1
102
RTVSPropertyOp28
 70
     1
102
RTVSPropertyOp29
 70
     1
102
RTVSPropertyOp30
 70
     1
102
RTVSPropertyOp31
 70
     1
102
RTVSPropertyOp32
 70
     1
  0
XRECORD
  5
AE1
102
{ACAD_REACTORS
330
AE0
102
}
330
AE0
100
AcDbXrecord
280
     1
102
RTVSPropertyOp0
 70
     0
102
RTVSPropertyOp1
 70
     0
102
RTVSPropertyOp2
 70
     0
102
RTVSPropertyOp3
 70
     0
102
RTVSPropertyOp4
 70
     0
102
RTVSPropertyOp5
 70
     0
102
RTVSPropertyOp6
 70
     0
102
RTVSPropertyOp7
 70
     0
102
RTVSPropertyOp8
 70
     0
102
RTVSPropertyOp9
 70
     0
102
RTVSPropertyOp10
 70
     0
102
RTVSPropertyOp11
 70
     0
102
RTVSPropertyOp12
 70
     0
102
RTVSPropertyOp13
 70
     0
102
RTVSPropertyOp14
 70
     2
102
RTVSPropertyOp15
 70
     0
102
RTVSPropertyOp16
 70
     0
102
RTVSPropertyOp17
 70
     0
102
RTVSPropertyOp18
 70
     0
102
RTVSPropertyOp19
 70
     0
102
RTVSPropertyOp20
 70
     0
102
RTVSPropertyOp21
 70
     0
102
RTVSPropertyOp22
 70
     0
102
RTVSPropertyOp23
 70
     0
102
RTVSPropertyOp24
 70
     0
102
RTVSPropertyOp25
 70
     0
102
RTVSPropertyOp26
 70
     0
102
RTVSPropertyOp27
 70
     0
102
RTVSPropertyOp28
 70
     1
102
RTVSPropertyOp29
 70
     1
102
RTVSPropertyOp30
 70
     1
102
RTVSPropertyOp31
 70
     1
102
RTVSPropertyOp32
 70
     1
  0
XRECORD
  5
AD9
102
{ACAD_REACTORS
330
AD8
102
}
330
AD8
100
AcDbXrecord
280
     1
102
RTVSPropertyOp0
 70
     1
102
RTVSPropertyOp1
 70
     1
102
RTVSPropertyOp2
 70
     1
102
RTVSPropertyOp3
 70
     1
102
RTVSPropertyOp4
 70
     1
102
RTVSPropertyOp5
 70
     1
102
RTVSPropertyOp6
 70
     1
102
RTVSPropertyOp7
 70
     1
102
RTVSPropertyOp8
 70
     1
102
RTVSPropertyOp9
 70
     1
102
RTVSPropertyOp10
 70
     1
102
RTVSPropertyOp11
 70
     1
102
RTVSPropertyOp12
 70
     1
102
RTVSPropertyOp13
 70
     1
102
RTVSPropertyOp14
 70
     1
102
RTVSPropertyOp15
 70
     1
102
RTVSPropertyOp16
 70
     1
102
RTVSPropertyOp17
 70
     1
102
RTVSPropertyOp18
 70
     1
102
RTVSPropertyOp19
 70
     1
102
RTVSPropertyOp20
 70
     1
102
RTVSPropertyOp21
 70
     1
102
RTVSPropertyOp22
 70
     1
102
RTVSPropertyOp23
 70
     1
102
RTVSPropertyOp24
 70
     1
102
RTVSPropertyOp25
 70
     1
102
RTVSPropertyOp26
 70
     1
102
RTVSPropertyOp27
 70
     1
102
RTVSPropertyOp28
 70
     1
102
RTVSPropertyOp29
 70
     1
102
RTVSPropertyOp30
 70
     1
102
RTVSPropertyOp31
 70
     1
102
RTVSPropertyOp32
 70
     1
  0
XRECORD
  5
ABD
102
{ACAD_REACTORS
330
ABC
102
}
330
ABC
100
AcDbXrecord
280
     1
102
RTVSPropertyOp0
 70
     1
102
RTVSPropertyOp1
 70
     1
102
RTVSPropertyOp2
 70
     1
102
RTVSPropertyOp3
 70
     1
102
RTVSPropertyOp4
 70
     1
102
RTVSPropertyOp5
 70
     1
102
RTVSPropertyOp6
 70
     1
102
RTVSPropertyOp7
 70
     1
102
RTVSPropertyOp8
 70
     1
102
RTVSPropertyOp9
 70
     1
102
RTVSPropertyOp10
 70
     1
102
RTVSPropertyOp11
 70
     1
102
RTVSPropertyOp12
 70
     1
102
RTVSPropertyOp13
 70
     1
102
RTVSPropertyOp14
 70
     1
102
RTVSPropertyOp15
 70
     1
102
RTVSPropertyOp16
 70
     1
102
RTVSPropertyOp17
 70
     1
102
RTVSPropertyOp18
 70
     1
102
RTVSPropertyOp19
 70
     1
102
RTVSPropertyOp20
 70
     1
102
RTVSPropertyOp21
 70
     1
102
RTVSPropertyOp22
 70
     1
102
RTVSPropertyOp23
 70
     1
102
RTVSPropertyOp24
 70
     1
102
RTVSPropertyOp25
 70
     1
102
RTVSPropertyOp26
 70
     1
102
RTVSPropertyOp27
 70
     1
102
RTVSPropertyOp28
 70
     1
102
RTVSPropertyOp29
 70
     1
102
RTVSPropertyOp30
 70
     1
102
RTVSPropertyOp31
 70
     1
102
RTVSPropertyOp32
 70
     1
  0
XRECORD
  5
ABF
102
{ACAD_REACTORS
330
ABE
102
}
330
ABE
100
AcDbXrecord
280
     1
102
RTVSPropertyOp0
 70
     1
102
RTVSPropertyOp1
 70
     1
102
RTVSPropertyOp2
 70
     1
102
RTVSPropertyOp3
 70
     1
102
RTVSPropertyOp4
 70
     1
102
RTVSPropertyOp5
 70
     1
102
RTVSPropertyOp6
 70
     1
102
RTVSPropertyOp7
 70
     1
102
RTVSPropertyOp8
 70
     1
102
RTVSPropertyOp9
 70
     1
102
RTVSPropertyOp10
 70
     1
102
RTVSPropertyOp11
 70
     1
102
RTVSPropertyOp12
 70
     1
102
RTVSPropertyOp13
 70
     1
102
RTVSPropertyOp14
 70
     1
102
RTVSPropertyOp15
 70
     1
102
RTVSPropertyOp16
 70
     1
102
RTVSPropertyOp17
 70
     1
102
RTVSPropertyOp18
 70
     1
102
RTVSPropertyOp19
 70
     1
102
RTVSPropertyOp20
 70
     1
102
RTVSPropertyOp21
 70
     1
102
RTVSPropertyOp22
 70
     1
102
RTVSPropertyOp23
 70
     1
102
RTVSPropertyOp24
 70
     1
102
RTVSPropertyOp25
 70
     1
102
RTVSPropertyOp26
 70
     1
102
RTVSPropertyOp27
 70
     1
102
RTVSPropertyOp28
 70
     1
102
RTVSPropertyOp29
 70
     1
102
RTVSPropertyOp30
 70
     1
102
RTVSPropertyOp31
 70
     1
102
RTVSPropertyOp32
 70
     1
  0
XRECORD
  5
AC1
102
{ACAD_REACTORS
330
AC0
102
}
330
AC0
100
AcDbXrecord
280
     1
102
RTVSPropertyOp0
 70
     1
102
RTVSPropertyOp1
 70
     1
102
RTVSPropertyOp2
 70
     1
102
RTVSPropertyOp3
 70
     1
102
RTVSPropertyOp4
 70
     1
102
RTVSPropertyOp5
 70
     1
102
RTVSPropertyOp6
 70
     1
102
RTVSPropertyOp7
 70
     1
102
RTVSPropertyOp8
 70
     1
102
RTVSPropertyOp9
 70
     1
102
RTVSPropertyOp10
 70
     1
102
RTVSPropertyOp11
 70
     1
102
RTVSPropertyOp12
 70
     1
102
RTVSPropertyOp13
 70
     1
102
RTVSPropertyOp14
 70
     1
102
RTVSPropertyOp15
 70
     1
102
RTVSPropertyOp16
 70
     1
102
RTVSPropertyOp17
 70
     1
102
RTVSPropertyOp18
 70
     1
102
RTVSPropertyOp19
 70
     1
102
RTVSPropertyOp20
 70
     1
102
RTVSPropertyOp21
 70
     1
102
RTVSPropertyOp22
 70
     1
102
RTVSPropertyOp23
 70
     1
102
RTVSPropertyOp24
 70
     1
102
RTVSPropertyOp25
 70
     1
102
RTVSPropertyOp26
 70
     1
102
RTVSPropertyOp27
 70
     1
102
RTVSPropertyOp28
 70
     1
102
RTVSPropertyOp29
 70
     1
102
RTVSPropertyOp30
 70
     1
102
RTVSPropertyOp31
 70
     1
102
RTVSPropertyOp32
 70
     1
  0
XRECORD
  5
AC3
102
{ACAD_REACTORS
330
AC2
102
}
330
AC2
100
AcDbXrecord
280
     1
102
RTVSPropertyOp0
 70
     1
102
RTVSPropertyOp1
 70
     1
102
RTVSPropertyOp2
 70
     1
102
RTVSPropertyOp3
 70
     1
102
RTVSPropertyOp4
 70
     1
102
RTVSPropertyOp5
 70
     1
102
RTVSPropertyOp6
 70
     1
102
RTVSPropertyOp7
 70
     1
102
RTVSPropertyOp8
 70
     1
102
RTVSPropertyOp9
 70
     1
102
RTVSPropertyOp10
 70
     1
102
RTVSPropertyOp11
 70
     1
102
RTVSPropertyOp12
 70
     1
102
RTVSPropertyOp13
 70
     1
102
RTVSPropertyOp14
 70
     1
102
RTVSPropertyOp15
 70
     1
102
RTVSPropertyOp16
 70
     1
102
RTVSPropertyOp17
 70
     1
102
RTVSPropertyOp18
 70
     1
102
RTVSPropertyOp19
 70
     1
102
RTVSPropertyOp20
 70
     1
102
RTVSPropertyOp21
 70
     1
102
RTVSPropertyOp22
 70
     1
102
RTVSPropertyOp23
 70
     1
102
RTVSPropertyOp24
 70
     1
102
RTVSPropertyOp25
 70
     1
102
RTVSPropertyOp26
 70
     1
102
RTVSPropertyOp27
 70
     1
102
RTVSPropertyOp28
 70
     1
102
RTVSPropertyOp29
 70
     1
102
RTVSPropertyOp30
 70
     1
102
RTVSPropertyOp31
 70
     1
102
RTVSPropertyOp32
 70
     1
  0
XRECORD
  5
ACB
102
{ACAD_REACTORS
330
ACA
102
}
330
ACA
100
AcDbXrecord
280
     1
102
RTVSPropertyOp0
 70
     1
102
RTVSPropertyOp1
 70
     1
102
RTVSPropertyOp2
 70
     1
102
RTVSPropertyOp3
 70
     1
102
RTVSPropertyOp4
 70
     1
102
RTVSPropertyOp5
 70
     1
102
RTVSPropertyOp6
 70
     1
102
RTVSPropertyOp7
 70
     1
102
RTVSPropertyOp8
 70
     1
102
RTVSPropertyOp9
 70
     1
102
RTVSPropertyOp10
 70
     1
102
RTVSPropertyOp11
 70
     1
102
RTVSPropertyOp12
 70
     1
102
RTVSPropertyOp13
 70
     1
102
RTVSPropertyOp14
 70
     1
102
RTVSPropertyOp15
 70
     1
102
RTVSPropertyOp16
 70
     1
102
RTVSPropertyOp17
 70
     1
102
RTVSPropertyOp18
 70
     1
102
RTVSPropertyOp19
 70
     1
102
RTVSPropertyOp20
 70
     1
102
RTVSPropertyOp21
 70
     1
102
RTVSPropertyOp22
 70
     1
102
RTVSPropertyOp23
 70
     1
102
RTVSPropertyOp24
 70
     1
102
RTVSPropertyOp25
 70
     1
102
RTVSPropertyOp26
 70
     1
102
RTVSPropertyOp27
 70
     1
102
RTVSPropertyOp28
 70
     1
102
RTVSPropertyOp29
 70
     1
102
RTVSPropertyOp30
 70
     1
102
RTVSPropertyOp31
 70
     1
102
RTVSPropertyOp32
 70
     1
  0
XRECORD
  5
ADD
102
{ACAD_REACTORS
330
ADC
102
}
330
ADC
100
AcDbXrecord
280
     1
102
RTVSPropertyOp0
 70
     0
102
RTVSPropertyOp1
 70
     0
102
RTVSPropertyOp2
 70
     0
102
RTVSPropertyOp3
 70
     0
102
RTVSPropertyOp4
 70
     0
102
RTVSPropertyOp5
 70
     0
102
RTVSPropertyOp6
 70
     0
102
RTVSPropertyOp7
 70
     0
102
RTVSPropertyOp8
 70
     0
102
RTVSPropertyOp9
 70
     0
102
RTVSPropertyOp10
 70
     0
102
RTVSPropertyOp11
 70
     0
102
RTVSPropertyOp12
 70
     0
102
RTVSPropertyOp13
 70
     0
102
RTVSPropertyOp14
 70
     2
102
RTVSPropertyOp15
 70
     0
102
RTVSPropertyOp16
 70
     0
102
RTVSPropertyOp17
 70
     0
102
RTVSPropertyOp18
 70
     0
102
RTVSPropertyOp19
 70
     0
102
RTVSPropertyOp20
 70
     0
102
RTVSPropertyOp21
 70
     0
102
RTVSPropertyOp22
 70
     0
102
RTVSPropertyOp23
 70
     0
102
RTVSPropertyOp24
 70
     0
102
RTVSPropertyOp25
 70
     0
102
RTVSPropertyOp26
 70
     0
102
RTVSPropertyOp27
 70
     0
102
RTVSPropertyOp28
 70
     1
102
RTVSPropertyOp29
 70
     1
102
RTVSPropertyOp30
 70
     1
102
RTVSPropertyOp31
 70
     1
102
RTVSPropertyOp32
 70
     1
  0
XRECORD
  5
AD7
102
{ACAD_REACTORS
330
AD6
102
}
330
AD6
100
AcDbXrecord
280
     1
102
RTVSPropertyOp0
 70
     1
102
RTVSPropertyOp1
 70
     1
102
RTVSPropertyOp2
 70
     1
102
RTVSPropertyOp3
 70
     1
102
RTVSPropertyOp4
 70
     1
102
RTVSPropertyOp5
 70
     1
102
RTVSPropertyOp6
 70
     1
102
RTVSPropertyOp7
 70
     1
102
RTVSPropertyOp8
 70
     1
102
RTVSPropertyOp9
 70
     1
102
RTVSPropertyOp10
 70
     1
102
RTVSPropertyOp11
 70
     1
102
RTVSPropertyOp12
 70
     1
102
RTVSPropertyOp13
 70
     1
102
RTVSPropertyOp14
 70
     1
102
RTVSPropertyOp15
 70
     1
102
RTVSPropertyOp16
 70
     1
102
RTVSPropertyOp17
 70
     1
102
RTVSPropertyOp18
 70
     1
102
RTVSPropertyOp19
 70
     1
102
RTVSPropertyOp20
 70
     1
102
RTVSPropertyOp21
 70
     1
102
RTVSPropertyOp22
 70
     1
102
RTVSPropertyOp23
 70
     1
102
RTVSPropertyOp24
 70
     1
102
RTVSPropertyOp25
 70
     1
102
RTVSPropertyOp26
 70
     1
102
RTVSPropertyOp27
 70
     1
102
RTVSPropertyOp28
 70
     1
102
RTVSPropertyOp29
 70
     1
102
RTVSPropertyOp30
 70
     1
102
RTVSPropertyOp31
 70
     1
102
RTVSPropertyOp32
 70
     1
  0
XRECORD
  5
ADF
102
{ACAD_REACTORS
330
ADE
102
}
330
ADE
100
AcDbXrecord
280
     1
102
RTVSPropertyOp0
 70
     0
102
RTVSPropertyOp1
 70
     0
102
RTVSPropertyOp2
 70
     0
102
RTVSPropertyOp3
 70
     0
102
RTVSPropertyOp4
 70
     0
102
RTVSPropertyOp5
 70
     0
102
RTVSPropertyOp6
 70
     0
102
RTVSPropertyOp7
 70
     0
102
RTVSPropertyOp8
 70
     0
102
RTVSPropertyOp9
 70
     0
102
RTVSPropertyOp10
 70
     0
102
RTVSPropertyOp11
 70
     0
102
RTVSPropertyOp12
 70
     0
102
RTVSPropertyOp13
 70
     0
102
RTVSPropertyOp14
 70
     2
102
RTVSPropertyOp15
 70
     0
102
RTVSPropertyOp16
 70
     0
102
RTVSPropertyOp17
 70
     0
102
RTVSPropertyOp18
 70
     0
102
RTVSPropertyOp19
 70
     0
102
RTVSPropertyOp20
 70
     0
102
RTVSPropertyOp21
 70
     0
102
RTVSPropertyOp22
 70
     0
102
RTVSPropertyOp23
 70
     0
102
RTVSPropertyOp24
 70
     0
102
RTVSPropertyOp25
 70
     0
102
RTVSPropertyOp26
 70
     0
102
RTVSPropertyOp27
 70
     0
102
RTVSPropertyOp28
 70
     1
102
RTVSPropertyOp29
 70
     1
102
RTVSPropertyOp30
 70
     1
102
RTVSPropertyOp31
 70
     1
102
RTVSPropertyOp32
 70
     1
  0
XRECORD
  5
ACF
102
{ACAD_REACTORS
330
ACE
102
}
330
ACE
100
AcDbXrecord
280
     1
102
RTVSPropertyOp0
 70
     1
102
RTVSPropertyOp1
 70
     1
102
RTVSPropertyOp2
 70
     1
102
RTVSPropertyOp3
 70
     1
102
RTVSPropertyOp4
 70
     1
102
RTVSPropertyOp5
 70
     1
102
RTVSPropertyOp6
 70
     1
102
RTVSPropertyOp7
 70
     1
102
RTVSPropertyOp8
 70
     1
102
RTVSPropertyOp9
 70
     1
102
RTVSPropertyOp10
 70
     1
102
RTVSPropertyOp11
 70
     1
102
RTVSPropertyOp12
 70
     1
102
RTVSPropertyOp13
 70
     1
102
RTVSPropertyOp14
 70
     1
102
RTVSPropertyOp15
 70
     1
102
RTVSPropertyOp16
 70
     1
102
RTVSPropertyOp17
 70
     1
102
RTVSPropertyOp18
 70
     1
102
RTVSPropertyOp19
 70
     1
102
RTVSPropertyOp20
 70
     1
102
RTVSPropertyOp21
 70
     1
102
RTVSPropertyOp22
 70
     1
102
RTVSPropertyOp23
 70
     1
102
RTVSPropertyOp24
 70
     1
102
RTVSPropertyOp25
 70
     1
102
RTVSPropertyOp26
 70
     1
102
RTVSPropertyOp27
 70
     1
102
RTVSPropertyOp28
 70
     1
102
RTVSPropertyOp29
 70
     1
102
RTVSPropertyOp30
 70
     1
102
RTVSPropertyOp31
 70
     1
102
RTVSPropertyOp32
 70
     1
  0
XRECORD
  5
AEB
102
{ACAD_REACTORS
330
AEA
102
}
330
AEA
100
AcDbXrecord
280
     1
102
RTVSPropertyOp0
 70
     1
102
RTVSPropertyOp1
 70
     1
102
RTVSPropertyOp2
 70
     1
102
RTVSPropertyOp3
 70
     1
102
RTVSPropertyOp4
 70
     1
102
RTVSPropertyOp5
 70
     1
102
RTVSPropertyOp6
 70
     1
102
RTVSPropertyOp7
 70
     1
102
RTVSPropertyOp8
 70
     1
102
RTVSPropertyOp9
 70
     1
102
RTVSPropertyOp10
 70
     1
102
RTVSPropertyOp11
 70
     1
102
RTVSPropertyOp12
 70
     1
102
RTVSPropertyOp13
 70
     1
102
RTVSPropertyOp14
 70
     1
102
RTVSPropertyOp15
 70
     1
102
RTVSPropertyOp16
 70
     1
102
RTVSPropertyOp17
 70
     1
102
RTVSPropertyOp18
 70
     1
102
RTVSPropertyOp19
 70
     1
102
RTVSPropertyOp20
 70
     1
102
RTVSPropertyOp21
 70
     1
102
RTVSPropertyOp22
 70
     1
102
RTVSPropertyOp23
 70
     1
102
RTVSPropertyOp24
 70
     1
102
RTVSPropertyOp25
 70
     1
102
RTVSPropertyOp26
 70
     1
102
RTVSPropertyOp27
 70
     1
102
RTVSPropertyOp28
 70
     1
102
RTVSPropertyOp29
 70
     1
102
RTVSPropertyOp30
 70
     1
102
RTVSPropertyOp31
 70
     1
102
RTVSPropertyOp32
 70
     1
  0
XRECORD
  5
AE9
102
{ACAD_REACTORS
330
AE8
102
}
330
AE8
100
AcDbXrecord
280
     1
102
RTVSPropertyOp0
 70
     1
102
RTVSPropertyOp1
 70
     1
102
RTVSPropertyOp2
 70
     1
102
RTVSPropertyOp3
 70
     1
102
RTVSPropertyOp4
 70
     1
102
RTVSPropertyOp5
 70
     1
102
RTVSPropertyOp6
 70
     1
102
RTVSPropertyOp7
 70
     1
102
RTVSPropertyOp8
 70
     1
102
RTVSPropertyOp9
 70
     1
102
RTVSPropertyOp10
 70
     1
102
RTVSPropertyOp11
 70
     1
102
RTVSPropertyOp12
 70
     1
102
RTVSPropertyOp13
 70
     1
102
RTVSPropertyOp14
 70
     1
102
RTVSPropertyOp15
 70
     1
102
RTVSPropertyOp16
 70
     1
102
RTVSPropertyOp17
 70
     1
102
RTVSPropertyOp18
 70
     1
102
RTVSPropertyOp19
 70
     1
102
RTVSPropertyOp20
 70
     1
102
RTVSPropertyOp21
 70
     1
102
RTVSPropertyOp22
 70
     1
102
RTVSPropertyOp23
 70
     1
102
RTVSPropertyOp24
 70
     1
102
RTVSPropertyOp25
 70
     1
102
RTVSPropertyOp26
 70
     1
102
RTVSPropertyOp27
 70
     1
102
RTVSPropertyOp28
 70
     1
102
RTVSPropertyOp29
 70
     1
102
RTVSPropertyOp30
 70
     1
102
RTVSPropertyOp31
 70
     1
102
RTVSPropertyOp32
 70
     1
  0
XRECORD
  5
AE3
102
{ACAD_REACTORS
330
AE2
102
}
330
AE2
100
AcDbXrecord
280
     1
102
RTVSPropertyOp0
 70
     1
102
RTVSPropertyOp1
 70
     1
102
RTVSPropertyOp2
 70
     1
102
RTVSPropertyOp3
 70
     1
102
RTVSPropertyOp4
 70
     1
102
RTVSPropertyOp5
 70
     1
102
RTVSPropertyOp6
 70
     1
102
RTVSPropertyOp7
 70
     1
102
RTVSPropertyOp8
 70
     1
102
RTVSPropertyOp9
 70
     1
102
RTVSPropertyOp10
 70
     1
102
RTVSPropertyOp11
 70
     1
102
RTVSPropertyOp12
 70
     1
102
RTVSPropertyOp13
 70
     1
102
RTVSPropertyOp14
 70
     1
102
RTVSPropertyOp15
 70
     1
102
RTVSPropertyOp16
 70
     1
102
RTVSPropertyOp17
 70
     1
102
RTVSPropertyOp18
 70
     1
102
RTVSPropertyOp19
 70
     1
102
RTVSPropertyOp20
 70
     1
102
RTVSPropertyOp21
 70
     1
102
RTVSPropertyOp22
 70
     1
102
RTVSPropertyOp23
 70
     1
102
RTVSPropertyOp24
 70
     1
102
RTVSPropertyOp25
 70
     1
102
RTVSPropertyOp26
 70
     1
102
RTVSPropertyOp27
 70
     1
102
RTVSPropertyOp28
 70
     1
102
RTVSPropertyOp29
 70
     1
102
RTVSPropertyOp30
 70
     1
102
RTVSPropertyOp31
 70
     1
102
RTVSPropertyOp32
 70
     1
  0
XRECORD
  5
AE5
102
{ACAD_REACTORS
330
AE4
102
}
330
AE4
100
AcDbXrecord
280
     1
102
RTVSPropertyOp0
 70
     1
102
RTVSPropertyOp1
 70
     1
102
RTVSPropertyOp2
 70
     1
102
RTVSPropertyOp3
 70
     1
102
RTVSPropertyOp4
 70
     1
102
RTVSPropertyOp5
 70
     1
102
RTVSPropertyOp6
 70
     1
102
RTVSPropertyOp7
 70
     1
102
RTVSPropertyOp8
 70
     1
102
RTVSPropertyOp9
 70
     1
102
RTVSPropertyOp10
 70
     1
102
RTVSPropertyOp11
 70
     1
102
RTVSPropertyOp12
 70
     1
102
RTVSPropertyOp13
 70
     1
102
RTVSPropertyOp14
 70
     1
102
RTVSPropertyOp15
 70
     1
102
RTVSPropertyOp16
 70
     1
102
RTVSPropertyOp17
 70
     1
102
RTVSPropertyOp18
 70
     1
102
RTVSPropertyOp19
 70
     1
102
RTVSPropertyOp20
 70
     1
102
RTVSPropertyOp21
 70
     1
102
RTVSPropertyOp22
 70
     1
102
RTVSPropertyOp23
 70
     1
102
RTVSPropertyOp24
 70
     1
102
RTVSPropertyOp25
 70
     1
102
RTVSPropertyOp26
 70
     1
102
RTVSPropertyOp27
 70
     1
102
RTVSPropertyOp28
 70
     1
102
RTVSPropertyOp29
 70
     1
102
RTVSPropertyOp30
 70
     1
102
RTVSPropertyOp31
 70
     1
102
RTVSPropertyOp32
 70
     1
  0
XRECORD
  5
AD5
102
{ACAD_REACTORS
330
AD4
102
}
330
AD4
100
AcDbXrecord
280
     1
102
RTVSPropertyOp0
 70
     1
102
RTVSPropertyOp1
 70
     1
102
RTVSPropertyOp2
 70
     1
102
RTVSPropertyOp3
 70
     1
102
RTVSPropertyOp4
 70
     1
102
RTVSPropertyOp5
 70
     1
102
RTVSPropertyOp6
 70
     1
102
RTVSPropertyOp7
 70
     1
102
RTVSPropertyOp8
 70
     1
102
RTVSPropertyOp9
 70
     1
102
RTVSPropertyOp10
 70
     1
102
RTVSPropertyOp11
 70
     1
102
RTVSPropertyOp12
 70
     1
102
RTVSPropertyOp13
 70
     1
102
RTVSPropertyOp14
 70
     1
102
RTVSPropertyOp15
 70
     1
102
RTVSPropertyOp16
 70
     1
102
RTVSPropertyOp17
 70
     1
102
RTVSPropertyOp18
 70
     1
102
RTVSPropertyOp19
 70
     1
102
RTVSPropertyOp20
 70
     1
102
RTVSPropertyOp21
 70
     1
102
RTVSPropertyOp22
 70
     1
102
RTVSPropertyOp23
 70
     1
102
RTVSPropertyOp24
 70
     1
102
RTVSPropertyOp25
 70
     1
102
RTVSPropertyOp26
 70
     1
102
RTVSPropertyOp27
 70
     1
102
RTVSPropertyOp28
 70
     1
102
RTVSPropertyOp29
 70
     1
102
RTVSPropertyOp30
 70
     1
102
RTVSPropertyOp31
 70
     1
102
RTVSPropertyOp32
 70
     1
  0
XRECORD
  5
AC9
102
{ACAD_REACTORS
330
AC8
102
}
330
AC8
100
AcDbXrecord
280
     1
102
RTVSPropertyOp0
 70
     1
102
RTVSPropertyOp1
 70
     1
102
RTVSPropertyOp2
 70
     1
102
RTVSPropertyOp3
 70
     1
102
RTVSPropertyOp4
 70
     1
102
RTVSPropertyOp5
 70
     1
102
RTVSPropertyOp6
 70
     1
102
RTVSPropertyOp7
 70
     1
102
RTVSPropertyOp8
 70
     1
102
RTVSPropertyOp9
 70
     1
102
RTVSPropertyOp10
 70
     1
102
RTVSPropertyOp11
 70
     1
102
RTVSPropertyOp12
 70
     1
102
RTVSPropertyOp13
 70
     1
102
RTVSPropertyOp14
 70
     1
102
RTVSPropertyOp15
 70
     1
102
RTVSPropertyOp16
 70
     1
102
RTVSPropertyOp17
 70
     1
102
RTVSPropertyOp18
 70
     1
102
RTVSPropertyOp19
 70
     1
102
RTVSPropertyOp20
 70
     1
102
RTVSPropertyOp21
 70
     1
102
RTVSPropertyOp22
 70
     1
102
RTVSPropertyOp23
 70
     1
102
RTVSPropertyOp24
 70
     1
102
RTVSPropertyOp25
 70
     1
102
RTVSPropertyOp26
 70
     1
102
RTVSPropertyOp27
 70
     1
102
RTVSPropertyOp28
 70
     1
102
RTVSPropertyOp29
 70
     1
102
RTVSPropertyOp30
 70
     1
102
RTVSPropertyOp31
 70
     1
102
RTVSPropertyOp32
 70
     1
  0
XRECORD
  5
AE7
102
{ACAD_REACTORS
330
AE6
102
}
330
AE6
100
AcDbXrecord
280
     1
102
RTVSPropertyOp0
 70
     1
102
RTVSPropertyOp1
 70
     1
102
RTVSPropertyOp2
 70
     1
102
RTVSPropertyOp3
 70
     1
102
RTVSPropertyOp4
 70
     1
102
RTVSPropertyOp5
 70
     1
102
RTVSPropertyOp6
 70
     1
102
RTVSPropertyOp7
 70
     1
102
RTVSPropertyOp8
 70
     1
102
RTVSPropertyOp9
 70
     1
102
RTVSPropertyOp10
 70
     1
102
RTVSPropertyOp11
 70
     1
102
RTVSPropertyOp12
 70
     1
102
RTVSPropertyOp13
 70
     1
102
RTVSPropertyOp14
 70
     1
102
RTVSPropertyOp15
 70
     1
102
RTVSPropertyOp16
 70
     1
102
RTVSPropertyOp17
 70
     1
102
RTVSPropertyOp18
 70
     1
102
RTVSPropertyOp19
 70
     1
102
RTVSPropertyOp20
 70
     1
102
RTVSPropertyOp21
 70
     1
102
RTVSPropertyOp22
 70
     1
102
RTVSPropertyOp23
 70
     1
102
RTVSPropertyOp24
 70
     1
102
RTVSPropertyOp25
 70
     1
102
RTVSPropertyOp26
 70
     1
102
RTVSPropertyOp27
 70
     1
102
RTVSPropertyOp28
 70
     1
102
RTVSPropertyOp29
 70
     1
102
RTVSPropertyOp30
 70
     1
102
RTVSPropertyOp31
 70
     1
102
RTVSPropertyOp32
 70
     1
  0
ENDSEC
  0
EOF
