  0
SECTION
  2
HEADER
  9
$ACADVER
  1
AC1015
  9
$ACADMAINTVER
 70
    20
  9
$DWGCODEPAGE
  3
ANSI_1252
  9
$INSBASE
 10
0.0
 20
0.0
 30
0.0
  9
$EXTMIN
 10
1964.587246591326
 20
1053.094598620546
 30
0.0
  9
$EXTMAX
 10
3214.453434296884
 20
1945.073199277564
 30
0.0
  9
$LIMMIN
 10
0.0
 20
0.0
  9
$LIMMAX
 10
420.0
 20
297.0
  9
$ORTHOMODE
 70
     1
  9
$REGENMODE
 70
     1
  9
$FILLMODE
 70
     1
  9
$QTEXTMODE
 70
     0
  9
$MIRRTEXT
 70
     0
  9
$LTSCALE
 40
1.0
  9
$ATTMODE
 70
     1
  9
$TEXTSIZE
 40
2.5
  9
$TRACEWID
 40
1.0
  9
$TEXTSTYLE
  7
STANDARD
  9
$CLAYER
  8
0
  9
$CELTYPE
  6
ByLayer
  9
$CECOLOR
 62
   256
  9
$CELTSCALE
 40
1.0
  9
$DISPSILH
 70
     0
  9
$DIMSCALE
 40
1.0
  9
$DIMASZ
 40
3.5
  9
$DIMEXO
 40
1.0
  9
$DIMDLI
 40
10.0
  9
$DIMRND
 40
0.0
  9
$DIMDLE
 40
0.0
  9
$DIMEXE
 40
1.0
  9
$DIMTP
 40
0.1
  9
$DIMTM
 40
0.1
  9
$DIMTXT
 40
3.5
  9
$DIMCEN
 40
0.0
  9
$DIMTSZ
 40
0.0
  9
$DIMTOL
 70
     0
  9
$DIMLIM
 70
     0
  9
$DIMTIH
 70
     0
  9
$DIMTOH
 70
     0
  9
$DIMSE1
 70
     0
  9
$DIMSE2
 70
     0
  9
$DIMTAD
 70
     1
  9
$DIMZIN
 70
     8
  9
$DIMBLK
  1

  9
$DIMASO
 70
     1
  9
$DIMSHO
 70
     1
  9
$DIMPOST
  1

  9
$DIMAPOST
  1
"
  9
$DIMALT
 70
     0
  9
$DIMALTD
 70
     2
  9
$DIMALTF
 40
0.0393701
  9
$DIMLFAC
 40
1.0
  9
$DIMTOFL
 70
     1
  9
$DIMTVP
 40
0.0
  9
$DIMTIX
 70
     0
  9
$DIMSOXD
 70
     0
  9
$DIMSAH
 70
     0
  9
$DIMBLK1
  1

  9
$DIMBLK2
  1

  9
$DIMSTYLE
  2
AM_DIN
  9
$DIMCLRD
 70
   256
  9
$DIMCLRE
 70
   256
  9
$DIMCLRT
 70
     2
  9
$DIMTFAC
 40
0.71
  9
$DIMGAP
 40
1.5
  9
$DIMJUST
 70
     0
  9
$DIMSD1
 70
     0
  9
$DIMSD2
 70
     0
  9
$DIMTOLJ
 70
     0
  9
$DIMTZIN
 70
     8
  9
$DIMALTZ
 70
     0
  9
$DIMALTTZ
 70
     0
  9
$DIMUPT
 70
     0
  9
$DIMDEC
 70
     2
  9
$DIMTDEC
 70
     3
  9
$DIMALTU
 70
     2
  9
$DIMALTTD
 70
     4
  9
$DIMTXSTY
  7
STANDARD
  9
$DIMAUNIT
 70
     0
  9
$DIMADEC
 70
     0
  9
$DIMALTRND
 40
0.0
  9
$DIMAZIN
 70
     2
  9
$DIMDSEP
 70
    46
  9
$DIMATFIT
 70
     3
  9
$DIMFRAC
 70
     0
  9
$DIMLDRBLK
  1

  9
$DIMLUNIT
 70
     2
  9
$DIMLWD
 70
    -1
  9
$DIMLWE
 70
    -1
  9
$DIMTMOVE
 70
     0
  9
$LUNITS
 70
     2
  9
$LUPREC
 70
     2
  9
$SKETCHINC
 40
1.0
  9
$FILLETRAD
 40
2.5
  9
$AUNITS
 70
     0
  9
$AUPREC
 70
     0
  9
$MENU
  1
.
  9
$ELEVATION
 40
0.0
  9
$PELEVATION
 40
0.0
  9
$THICKNESS
 40
0.0
  9
$LIMCHECK
 70
     0
  9
$CHAMFERA
 40
2.5
  9
$CHAMFERB
 40
2.5
  9
$CHAMFERC
 40
0.0
  9
$CHAMFERD
 40
0.0
  9
$SKPOLY
 70
     0
  9
$TDCREATE
 40
2456514.304821181
  9
$TDUCREATE
 40
2456514.221487847
  9
$TDUPDATE
 40
2456567.489007581
  9
$TDUUPDATE
 40
2456567.405674248
  9
$TDINDWG
 40
0.0092920255
  9
$TDUSRTIMER
 40
0.0092911921
  9
$USRTIMER
 70
     1
  9
$ANGBASE
 50
0.0
  9
$ANGDIR
 70
     0
  9
$PDMODE
 70
     0
  9
$PDSIZE
 40
0.0
  9
$PLINEWID
 40
0.0
  9
$SPLFRAME
 70
     0
  9
$SPLINETYPE
 70
     6
  9
$SPLINESEGS
 70
     8
  9
$HANDSEED
  5
872
  9
$SURFTAB1
 70
     6
  9
$SURFTAB2
 70
     6
  9
$SURFTYPE
 70
     6
  9
$SURFU
 70
     6
  9
$SURFV
 70
     6
  9
$UCSBASE
  2

  9
$UCSNAME
  2

  9
$UCSORG
 10
0.0
 20
0.0
 30
0.0
  9
$UCSXDIR
 10
1.0
 20
0.0
 30
0.0
  9
$UCSYDIR
 10
0.0
 20
1.0
 30
0.0
  9
$UCSORTHOREF
  2

  9
$UCSORTHOVIEW
 70
     0
  9
$UCSORGTOP
 10
0.0
 20
0.0
 30
0.0
  9
$UCSORGBOTTOM
 10
0.0
 20
0.0
 30
0.0
  9
$UCSORGLEFT
 10
0.0
 20
0.0
 30
0.0
  9
$UCSORGRIGHT
 10
0.0
 20
0.0
 30
0.0
  9
$UCSORGFRONT
 10
0.0
 20
0.0
 30
0.0
  9
$UCSORGBACK
 10
0.0
 20
0.0
 30
0.0
  9
$PUCSBASE
  2

  9
$PUCSNAME
  2

  9
$PUCSORG
 10
0.0
 20
0.0
 30
0.0
  9
$PUCSXDIR
 10
1.0
 20
0.0
 30
0.0
  9
$PUCSYDIR
 10
0.0
 20
1.0
 30
0.0
  9
$PUCSORTHOREF
  2

  9
$PUCSORTHOVIEW
 70
     0
  9
$PUCSORGTOP
 10
0.0
 20
0.0
 30
0.0
  9
$PUCSORGBOTTOM
 10
0.0
 20
0.0
 30
0.0
  9
$PUCSORGLEFT
 10
0.0
 20
0.0
 30
0.0
  9
$PUCSORGRIGHT
 10
0.0
 20
0.0
 30
0.0
  9
$PUCSORGFRONT
 10
0.0
 20
0.0
 30
0.0
  9
$PUCSORGBACK
 10
0.0
 20
0.0
 30
0.0
  9
$USERI1
 70
     0
  9
$USERI2
 70
     0
  9
$USERI3
 70
     0
  9
$USERI4
 70
     0
  9
$USERI5
 70
     0
  9
$USERR1
 40
0.0
  9
$USERR2
 40
0.0
  9
$USERR3
 40
0.0
  9
$USERR4
 40
0.0
  9
$USERR5
 40
0.0
  9
$WORLDVIEW
 70
     1
  9
$SHADEDGE
 70
     3
  9
$SHADEDIF
 70
    70
  9
$TILEMODE
 70
     1
  9
$MAXACTVP
 70
    64
  9
$PINSBASE
 10
0.0
 20
0.0
 30
0.0
  9
$PLIMCHECK
 70
     0
  9
$PEXTMIN
 10
0.0
 20
0.0
 30
0.0
  9
$PEXTMAX
 10
0.0
 20
0.0
 30
0.0
  9
$PLIMMIN
 10
0.0
 20
0.0
  9
$PLIMMAX
 10
12.0
 20
9.0
  9
$UNITMODE
 70
     0
  9
$VISRETAIN
 70
     1
  9
$PLINEGEN
 70
     0
  9
$PSLTSCALE
 70
     1
  9
$TREEDEPTH
 70
  3020
  9
$CMLSTYLE
  2
Standard
  9
$CMLJUST
 70
     0
  9
$CMLSCALE
 40
20.0
  9
$PROXYGRAPHICS
 70
     1
  9
$MEASUREMENT
 70
     1
  9
$CELWEIGHT
370
    -1
  9
$ENDCAPS
280
     0
  9
$JOINSTYLE
280
     0
  9
$LWDISPLAY
290
     0
  9
$INSUNITS
 70
     4
  9
$HYPERLINKBASE
  1

  9
$STYLESHEET
  1

  9
$XEDIT
290
     1
  9
$CEPSNTYPE
380
     0
  9
$PSTYLEMODE
290
     1
  9
$FINGERPRINTGUID
  2
{0D284FCA-CF40-4E79-BCAD-1270EC3CC71A}
  9
$VERSIONGUID
  2
{53E4ABA0-8E1C-467A-905D-39272017228A}
  9
$EXTNAMES
290
     1
  9
$PSVPSCALE
 40
0.0
  9
$OLESTARTUP
290
     0
  0
ENDSEC
  0
SECTION
  2
CLASSES
  0
CLASS
  1
ACDBDICTIONARYWDFLT
  2
AcDbDictionaryWithDefault
  3
ObjectDBX Classes
 90
        0
280
     0
281
     0
  0
CLASS
  1
ACDBPLACEHOLDER
  2
AcDbPlaceHolder
  3
ObjectDBX Classes
 90
        0
280
     0
281
     0
  0
CLASS
  1
LAYOUT
  2
AcDbLayout
  3
ObjectDBX Classes
 90
        0
280
     0
281
     0
  0
CLASS
  1
DICTIONARYVAR
  2
AcDbDictionaryVar
  3
ObjectDBX Classes
 90
        0
280
     0
281
     0
  0
CLASS
  1
TABLESTYLE
  2
AcDbTableStyle
  3
ObjectDBX Classes
 90
     4095
280
     0
281
     0
  0
CLASS
  1
MATERIAL
  2
AcDbMaterial
  3
ObjectDBX Classes
 90
     1153
280
     0
281
     0
  0
CLASS
  1
VISUALSTYLE
  2
AcDbVisualStyle
  3
ObjectDBX Classes
 90
     4095
280
     0
281
     0
  0
CLASS
  1
SCALE
  2
AcDbScale
  3
ObjectDBX Classes
 90
     1153
280
     0
281
     0
  0
CLASS
  1
MLEADERSTYLE
  2
AcDbMLeaderStyle
  3
ACDB_MLEADERSTYLE_CLASS
 90
     4095
280
     0
281
     0
  0
CLASS
  1
CELLSTYLEMAP
  2
AcDbCellStyleMap
  3
ObjectDBX Classes
 90
     1152
280
     0
281
     0
  0
CLASS
  1
EXACXREFPANELOBJECT
  2
ExAcXREFPanelObject
  3
EXAC_ESW
 90
     1025
280
     0
281
     0
  0
CLASS
  1
NPOCOLLECTION
  2
AcDbImpNonPersistentObjectsCollection
  3
ObjectDBX Classes
 90
     1153
280
     0
281
     0
  0
CLASS
  1
LAYER_INDEX
  2
AcDbLayerIndex
  3
ObjectDBX Classes
 90
    32768
280
     0
281
     0
  0
CLASS
  1
SPATIAL_INDEX
  2
AcDbSpatialIndex
  3
ObjectDBX Classes
 90
    32768
280
     0
281
     0
  0
CLASS
  1
IDBUFFER
  2
AcDbIdBuffer
  3
ObjectDBX Classes
 90
    32768
280
     0
281
     0
  0
CLASS
  1
ACME_DOCUMENT
  2
AcMeDbDoc
  3
AcMeServices
 90
     1024
280
     0
281
     0
  0
CLASS
  1
ACMESCOPE
  2
AcMeScope
  3
AcMeServices
 90
     1024
280
     0
281
     0
  0
CLASS
  1
ACMECOMMANDHISTORY
  2
AcMeCommandHistory
  3
AcMeServices
 90
     1024
280
     0
281
     0
  0
CLASS
  1
ACIMSYSVARMAN
  2
AcImSysVarManager
  3
AcMeServices
 90
     1024
280
     0
281
     0
  0
CLASS
  1
ACIMINTSYSVAR
  2
AcImIntSysVar
  3
AcMeServices
 90
     1024
280
     0
281
     0
  0
CLASS
  1
ACMESTATEMGR
  2
AcMeStateMgr
  3
AcMeServices
 90
     1024
280
     0
281
     0
  0
CLASS
  1
ACDBENTITYCACHE
  2
AcMeEntityCache
  3
AcMeServices
 90
     1024
280
     0
281
     0
  0
CLASS
  1
ACGREFMASTER
  2
AcGrefMaster
  3
AcAttribServices
 90
     1024
280
     0
281
     0
  0
CLASS
  1
ACME_DATABASE
  2
AcMeDbDatabase
  3
AcMeServices
 90
     1024
280
     0
281
     0
  0
CLASS
  1
ACRFINSADJUSTERMGR
  2
AcRfInsAdjusterMgr
  3
AcMeServices
 90
     1024
280
     0
281
     0
  0
CLASS
  1
ACGREFACADMASTER
  2
AcGrefacadMaster
  3
AcGrefServices
 90
     1024
280
     0
281
     0
  0
CLASS
  1
AMDTMENUSTATEMGR
  2
AmdtMenuStateMgr
  3
McadcomServices
 90
     1024
280
     0
281
     0
  0
CLASS
  1
AMDTMCOMMENUSTATE
  2
AmdtMcomMenuState
  3
McadcomServices
 90
     1024
280
     0
281
     0
  0
CLASS
  1
AMIMASTER
  2
AmiMaster
  3
AmiServices
 90
     1024
280
     0
281
     0
  0
CLASS
  1
AMGSETTINGSOBJ
  2
AmgSettingsObj
  3
"AcadM|Product Description: AutoCAD Mechanical|Company: Autodesk, Inc."
 90
     1024
280
     0
281
     0
  0
CLASS
  1
MAPIAMMOUDLE
  2
MApiAmModule
  3
MApiAmServices
 90
     1024
280
     0
281
     0
  0
CLASS
  1
ACIMSTRSYSVAR
  2
AcImStrSysVar
  3
AcMeServices
 90
     1024
280
     0
281
     0
  0
CLASS
  1
AMDTAMMENUSTATE
  2
AmdtAmMenuState
  3
DesignerAssemblies
 90
     1024
280
     0
281
     0
  0
CLASS
  1
ACAMPROJECT
  2
AcAmProject
  3
DesignerAssemblies
 90
     1024
280
     0
281
     0
  0
CLASS
  1
ACAMGRCOMPDEF
  2
AcAmGrCompDef
  3
DesignerAssemblies
 90
     1024
280
     0
281
     0
  0
CLASS
  1
ACAMCOMPDEF
  2
AcAmCompDef
  3
DesignerAssemblies
 90
     1024
280
     0
281
     0
  0
CLASS
  1
ACAMCOMPDEFMGR
  2
AcAmCompDefMgr
  3
DesignerAssemblies
 90
     1024
280
     0
281
     0
  0
CLASS
  1
AMCONTEXTMGR
  2
AcAmContextMgr
  3
DesignerAssemblies
 90
     1024
280
     0
281
     0
  0
CLASS
  1
ACAMCONTEXTMODELER
  2
AcAmContextModeler
  3
DesignerAssemblies
 90
     1024
280
     0
281
     0
  0
CLASS
  1
ACMDATADICTIONARY
  2
AcmDataDictionary
  3
"AcmSymBB|Product Description: AutoCAD Mechanical|Company: Autodesk, Inc."
 90
     1024
280
     0
281
     0
  0
CLASS
  1
ACMSTANDARDDIN
  2
AcmStandardDIN
  3
"Amdt_StdImp|Product Description: AutoCAD Mechanical|Company: Autodesk, Inc."
 90
     1024
280
     0
281
     0
  0
CLASS
  1
AMDTEDGESTANDARDDIN13715
  2
AmdtEdgeStdDIN13715
  3
"Amdt_StdImp|Product Description: AutoCAD Mechanical|Company: Autodesk, Inc."
 90
     1024
280
     0
281
     0
  0
CLASS
  1
ACMSURFSTANDARDDIN2002
  2
AcmSurfTextStdDIN2002
  3
"Amdt_StdImp|Product Description: AutoCAD Mechanical|Company: Autodesk, Inc."
 90
     1024
280
     0
281
     0
  0
CLASS
  1
ACMFCFSTANDARDDIN2008
  2
AcmFCFStdDIN2008
  3
"Amdt_StdImp|Product Description: AutoCAD Mechanical|Company: Autodesk, Inc."
 90
     1024
280
     0
281
     0
  0
CLASS
  1
ACMWELDSTANDARDDIN
  2
AcmWeldingStdDIN
  3
"Amdt_StdImp|Product Description: AutoCAD Mechanical|Company: Autodesk, Inc."
 90
     1024
280
     0
281
     0
  0
CLASS
  1
ACMIDSTANDARDDIN2008
  2
AcmIdStdDIN2008
  3
"Amdt_StdImp|Product Description: AutoCAD Mechanical|Company: Autodesk, Inc."
 90
     1024
280
     0
281
     0
  0
CLASS
  1
ACMDATUMSTANDARDDIN
  2
AcmDatumStdDIN
  3
"Amdt_StdImp|Product Description: AutoCAD Mechanical|Company: Autodesk, Inc."
 90
     1024
280
     0
281
     0
  0
CLASS
  1
ACMBOMSTANDARDDIN
  2
AcmBOMStdDIN
  3
"Amdt_StdImp|Product Description: AutoCAD Mechanical|Company: Autodesk, Inc."
 90
     1024
280
     0
281
     0
  0
CLASS
  1
ACMDETAILSTANDARDDIN
  2
AmdtDetailSymStdDIN
  3
"Amdt_StdImp|Product Description: AutoCAD Mechanical|Company: Autodesk, Inc."
 90
     1024
280
     0
281
     0
  0
CLASS
  1
ACMSECTIONSTANDARDDIN
  2
AmdtSectionSymStdDIN
  3
"Amdt_StdImp|Product Description: AutoCAD Mechanical|Company: Autodesk, Inc."
 90
     1024
280
     0
281
     0
  0
CLASS
  1
ACMCENTERLINESTANDARDDIN
  2
AmdtCenterLineStdDIN
  3
"Amdt_StdImp|Product Description: AutoCAD Mechanical|Company: Autodesk, Inc."
 90
     1024
280
     0
281
     0
  0
CLASS
  1
ACMTHREADLINESTANDARDDIN
  2
AmdtThreadLineStdDIN
  3
"Amdt_StdImp|Product Description: AutoCAD Mechanical|Company: Autodesk, Inc."
 90
     1024
280
     0
281
     0
  0
CLASS
  1
ACMNOTESTANDARDDIN
  2
AmdtNoteStdDIN
  3
"Amdt_StdImp|Product Description: AutoCAD Mechanical|Company: Autodesk, Inc."
 90
     1024
280
     0
281
     0
  0
CLASS
  1
ACMTAPERSTANDARDDIN
  2
AcmTaperStdDIN
  3
"Amdt_StdImp|Product Description: AutoCAD Mechanical|Company: Autodesk, Inc."
 90
     1024
280
     0
281
     0
  0
CLASS
  1
ACMANOOTATIONVIEWSTANDARDDIN
  2
AmdtAnViewStdDIN
  3
"Amdt_StdImp|Product Description: AutoCAD Mechanical|Company: Autodesk, Inc."
 90
     1024
280
     0
281
     0
  0
CLASS
  1
ACAMGLAYSTD
  2
AcAmgLayStd
  3
"AmgLay|Product Description: AutoCAD Mechanical|Company: Autodesk, Inc."
 90
     1024
280
     0
281
     0
  0
CLASS
  1
ACAMGDIMSTD
  2
AcAmgDimStd
  3
"AmgDim|Product Description: AutoCAD Mechanical|Company: Autodesk, Inc."
 90
     1024
280
     0
281
     0
  0
CLASS
  1
AMGOBJPROPCFG
  2
AmgObjPropCfg
  3
"AmgLay|Product Description: AutoCAD Mechanical|Company: Autodesk, Inc."
 90
     1025
280
     0
281
     0
  0
CLASS
  1
ACAMGHOLECHARTSTDDIN
  2
AcAmgHoleChartStdDIN
  3
AmgDim|Product Description: AutoCAD Mechanical|Company: Autodesk, Inc.
 90
     1024
280
     0
281
     0
  0
CLASS
  1
ACAMGTITLESTD
  2
AcAmgTitleStd
  3
"AmgTitle|Product Description: AutoCAD Mechanical|Company: Autodesk, Inc."
 90
     4095
280
     0
281
     0
  0
CLASS
  1
AMDTNOTETEMPLATEDB
  2
AmdtNoteTemplateDB
  3
AcmSymBB|Product Description: AutoCAD Mechanical|Company: Autodesk, Inc.
 90
     1024
280
     0
281
     0
  0
CLASS
  1
ACAMGRCOMPDEFSET
  2
AcAmGrCompDefSet
  3
DesignerAssemblies
 90
     1024
280
     0
281
     0
  0
CLASS
  1
AMDTBROWSERDBTAB
  2
AmdtBrowserDbTab
  3
McadcomServices
 90
     1024
280
     0
281
     0
  0
CLASS
  1
CBROWSERAPPOBJECT
  2
CBrowserAppObject
  3
McadcomServices
 90
     1024
280
     0
281
     0
  0
CLASS
  1
DM_PLACEHOLDER
  2
AcDmSelsetPlaceholder
  3
McadcomServices
 90
     1024
280
     0
281
     0
  0
CLASS
  1
ACAMGFILTERDAT
  2
AcAmgFilterDat
  3
"AcadM|Product Description: AutoCAD Mechanical|Company: Autodesk, Inc."
 90
    33792
280
     0
281
     0
  0
CLASS
  1
SORTENTSTABLE
  2
AcDbSortentsTable
  3
ObjectDBX Classes
 90
        0
280
     0
281
     0
  0
CLASS
  1
DIMASSOC
  2
AcDbDimAssoc
  3
"AcDbDimAssoc|Product Desc:     AcDim ARX App For Dimension|Company:          Autodesk, Inc.|WEB Address:      www.autodesk.com"
 90
        0
280
     0
281
     0
  0
ENDSEC
  0
SECTION
  2
TABLES
  0
TABLE
  2
VPORT
  5
8
330
0
100
AcDbSymbolTable
 70
     1
  0
VPORT
  5
EA
330
8
100
AcDbSymbolTableRecord
100
AcDbViewportTableRecord
  2
*Active
 70
     0
 10
0.0
 20
0.0
 11
1.0
 21
1.0
 12
2561.789319066328
 22
1432.350999463583
 13
0.0
 23
0.0
 14
2.5
 24
2.5
 15
10.0
 25
10.0
 16
0.0
 26
0.0
 36
1.0
 17
0.0
 27
0.0
 37
0.0
 40
1301.965834672744
 41
2.003984063745019
 42
50.0
 43
0.0
 44
0.0
 50
0.0
 51
0.0
 71
     0
 72
  1000
 73
     1
 74
     3
 75
     0
 76
     1
 77
     0
 78
     0
281
     0
 65
     0
110
0.0
120
0.0
130
0.0
111
1.0
121
0.0
131
0.0
112
0.0
122
1.0
132
0.0
 79
     0
146
0.0
1001
ACAD_NAV_VCDISPLAY
1070
     3
  0
ENDTAB
  0
TABLE
  2
LTYPE
  5
5
330
0
100
AcDbSymbolTable
 70
    20
  0
LTYPE
  5
14
330
5
100
AcDbSymbolTableRecord
100
AcDbLinetypeTableRecord
  2
ByBlock
 70
     0
  3

 72
    65
 73
     0
 40
0.0
  0
LTYPE
  5
15
330
5
100
AcDbSymbolTableRecord
100
AcDbLinetypeTableRecord
  2
ByLayer
 70
     0
  3

 72
    65
 73
     0
 40
0.0
  0
LTYPE
  5
16
330
5
100
AcDbSymbolTableRecord
100
AcDbLinetypeTableRecord
  2
Continuous
 70
     0
  3
Solid line
 72
    65
 73
     0
 40
0.0
  0
LTYPE
  5
228
330
5
100
AcDbSymbolTableRecord
100
AcDbLinetypeTableRecord
  2
HIDDEN
 70
     0
  3
Hidden __ __ __ __ __ __ __ __ __ __ __ __ __ __
 72
    65
 73
     2
 40
9.525
 49
6.349999999999998
 74
     0
 49
-3.174999999999998
 74
     0
  0
LTYPE
  5
229
330
5
100
AcDbSymbolTableRecord
100
AcDbLinetypeTableRecord
  2
PHANTOM2
 70
     0
  3
Phantom (.5x) ___ _ _ ___ _ _ ___ _ _ ___ _ _
 72
    65
 73
     6
 40
31.75
 49
15.875
 74
     0
 49
-3.174999999999998
 74
     0
 49
3.174999999999998
 74
     0
 49
-3.174999999999998
 74
     0
 49
3.174999999999998
 74
     0
 49
-3.174999999999998
 74
     0
  0
LTYPE
  5
22A
330
5
100
AcDbSymbolTableRecord
100
AcDbLinetypeTableRecord
  2
CENTER
 70
     0
  3
Center ____ _ ____ _ ____ _ ____ _ ____ _ ____
 72
    65
 73
     4
 40
50.8
 49
31.75
 74
     0
 49
-6.349999999999998
 74
     0
 49
6.349999999999998
 74
     0
 49
-6.349999999999998
 74
     0
  0
LTYPE
  5
263
330
5
100
AcDbSymbolTableRecord
100
AcDbLinetypeTableRecord
  2
AM_ISO02W050
 70
     0
  3
__ __ __ __ __ __ __ __ __ __ __ __ __ __ __
 72
    65
 73
     2
 40
7.5
 49
6.0
 74
     0
 49
-1.5
 74
     0
  0
LTYPE
  5
264
330
5
100
AcDbSymbolTableRecord
100
AcDbLinetypeTableRecord
  2
AM_ISO08W050
 70
     0
  3
____ . ____ . ____ . ____ . ____ . ____ . ____
 72
    65
 73
     4
 40
18.0
 49
12.0
 74
     0
 49
-1.5
 74
     0
 49
3.0
 74
     0
 49
-1.5
 74
     0
  0
LTYPE
  5
265
330
5
100
AcDbSymbolTableRecord
100
AcDbLinetypeTableRecord
  2
AM_ISO09W050
 70
     0
  3
_____ . . _____ . . _____ . . ____ .. ____
 72
    65
 73
     6
 40
22.5
 49
12.0
 74
     0
 49
-1.5
 74
     0
 49
3.0
 74
     0
 49
-1.5
 74
     0
 49
3.0
 74
     0
 49
-1.5
 74
     0
  0
LTYPE
  5
266
330
5
100
AcDbSymbolTableRecord
100
AcDbLinetypeTableRecord
  2
Amconstr
 70
     0
  3
_______________________
 72
    65
 73
     2
 40
9999.0
 49
9999.0
 74
     0
 49
0.0
 74
     0
  0
LTYPE
  5
267
330
5
100
AcDbSymbolTableRecord
100
AcDbLinetypeTableRecord
  2
AM_ISO08W050x2
 70
     0
  3
__ . __ . __ . __ . __ . __
 72
    65
 73
     4
 40
9.0
 49
6.0
 74
     0
 49
-0.75
 74
     0
 49
1.5
 74
     0
 49
-0.75
 74
     0
  0
LTYPE
  5
268
330
5
100
AcDbSymbolTableRecord
100
AcDbLinetypeTableRecord
  2
AM_ISO02W050x2
 70
     0
  3
 _ _ _ _ _ _ _ _ _ _ _ _
 72
    65
 73
     2
 40
3.75
 49
3.0
 74
     0
 49
-0.75
 74
     0
  0
LTYPE
  5
26B
330
5
100
AcDbSymbolTableRecord
100
AcDbLinetypeTableRecord
  2
Amzigzag
 70
     0
  3
/\/-/\/-/\/-/\/-/\/-/\/
 72
    65
 73
     2
 40
11.0001
 49
0.0001
 74
     4
 75
   136
340
26A
 46
0.04
 50
0.0
 44
0.0
 45
0.0
 49
-11.0
 74
     0
  0
LTYPE
  5
26C
330
5
100
AcDbSymbolTableRecord
100
AcDbLinetypeTableRecord
  2
AM_DIN_F_W050
 70
     0
  3
__ __ __ __ __ __ __ __ __ __ __ __ __ __ __
 72
    65
 73
     2
 40
6.25
 49
4.75
 74
     0
 49
-1.5
 74
     0
  0
LTYPE
  5
26D
330
5
100
AcDbSymbolTableRecord
100
AcDbLinetypeTableRecord
  2
AM_DIN_G_W050
 70
     0
  3
____ . ____ . ____ . ____ . ____ . ____ . ____
 72
    65
 73
     4
 40
13.75
 49
9.75
 74
     0
 49
-1.5
 74
     0
 49
1.0
 74
     0
 49
-1.5
 74
     0
  0
LTYPE
  5
26E
330
5
100
AcDbSymbolTableRecord
100
AcDbLinetypeTableRecord
  2
AM_DIN_K_W050
 70
     0
  3
_____ . . _____ . . _____ . . ____ .. ____
 72
    65
 73
     6
 40
16.25
 49
9.75
 74
     0
 49
-1.5
 74
     0
 49
1.0
 74
     0
 49
-1.5
 74
     0
 49
1.0
 74
     0
 49
-1.5
 74
     0
  0
LTYPE
  5
26F
330
5
100
AcDbSymbolTableRecord
100
AcDbLinetypeTableRecord
  2
AM_DIN_G_W050x2
 70
     0
  3
__ . __ . __ . __ . __ . __
 72
    65
 73
     4
 40
6.875
 49
4.75
 74
     0
 49
-0.875
 74
     0
 49
0.375
 74
     0
 49
-0.875
 74
     0
  0
LTYPE
  5
270
330
5
100
AcDbSymbolTableRecord
100
AcDbLinetypeTableRecord
  2
AM_DIN_F_W050x2
 70
     0
  3
 _ _ _ _ _ _ _ _ _ _ _ _
 72
    65
 73
     2
 40
3.125
 49
2.25
 74
     0
 49
-0.875
 74
     0
  0
LTYPE
  5
27F
330
5
100
AcDbSymbolTableRecord
100
AcDbLinetypeTableRecord
  2
ACDINWELD
 70
     0
  3
_ _ _ _ _
 72
    65
 73
     2
 40
2.0
 49
2.0
 74
     0
 49
-1.0
 74
     0
  0
LTYPE
  5
280
330
5
100
AcDbSymbolTableRecord
100
AcDbLinetypeTableRecord
  2
ACDINTGL
 70
     0
  3
_ _ _ _ _
 72
    65
 73
     2
 40
3.0
 49
2.0
 74
     0
 49
-1.0
 74
     0
  0
LTYPE
  5
281
330
5
100
AcDbSymbolTableRecord
100
AcDbLinetypeTableRecord
  2
ACDINTGB
 70
     0
  3
__ . . __ . .
 72
    65
 73
     6
 40
9.0
 49
4.0
 74
     0
 49
-1.0
 74
     0
 49
1.0
 74
     0
 49
-1.0
 74
     0
 49
1.0
 74
     0
 49
-1.0
 74
     0
  0
ENDTAB
  0
TABLE
  2
LAYER
  5
2
102
{ACAD_XDICTIONARY
360
1FF
102
}
330
0
100
AcDbSymbolTable
 70
     6
  0
LAYER
  5
10
102
{ACAD_XDICTIONARY
360
13C
102
}
330
2
100
AcDbSymbolTableRecord
100
AcDbLayerTableRecord
  2
0
 70
     0
 62
     7
  6
Continuous
370
    -3
390
F
  0
LAYER
  5
335
330
2
100
AcDbSymbolTableRecord
100
AcDbLayerTableRecord
  2
Defpoints
 70
     0
 62
     7
  6
Continuous
290
     0
370
    -3
390
F
  0
LAYER
  5
336
102
{ACAD_XDICTIONARY
360
337
102
}
330
2
100
AcDbSymbolTableRecord
100
AcDbLayerTableRecord
  2
Mittellinie
 70
     0
 62
     2
  6
CENTER
370
    25
390
F
  0
LAYER
  5
338
102
{ACAD_XDICTIONARY
360
339
102
}
330
2
100
AcDbSymbolTableRecord
100
AcDbLayerTableRecord
  2
Verdeckte Kante
 70
     0
 62
     3
  6
HIDDEN
370
    25
390
F
  0
LAYER
  5
33A
102
{ACAD_XDICTIONARY
360
33B
102
}
330
2
100
AcDbSymbolTableRecord
100
AcDbLayerTableRecord
  2
Bemassung
 70
     0
 62
     1
  6
Continuous
370
    25
390
F
  0
LAYER
  5
33C
102
{ACAD_XDICTIONARY
360
33D
102
}
330
2
100
AcDbSymbolTableRecord
100
AcDbLayerTableRecord
  2
AM_5
 70
     0
 62
     3
  6
Continuous
370
    25
390
F
  0
ENDTAB
  0
TABLE
  2
STYLE
  5
3
330
0
100
AcDbSymbolTable
 70
     8
  0
STYLE
  5
11
330
3
100
AcDbSymbolTableRecord
100
AcDbTextStyleTableRecord
  2
STANDARD
 70
     0
 40
0.0
 41
1.0
 50
0.0
 71
     0
 42
2.5
  3
ISOCP.SHX
  4

  0
STYLE
  5
132
330
3
100
AcDbSymbolTableRecord
100
AcDbTextStyleTableRecord
  2
Annotative
 70
     0
 40
0.0
 41
1.0
 50
0.0
 71
     0
 42
2.5
  3
ARIAL.TTF
  4

1001
AcadAnnotative
1000
AnnotativeData
1002
{
1070
     1
1070
     1
1002
}
1001
ACAD
1000
Arial
1071
       34
  0
STYLE
  5
26A
330
3
100
AcDbSymbolTableRecord
100
AcDbTextStyleTableRecord
  2

 70
     1
 40
0.0
 41
1.0
 50
0.0
 71
     0
 42
2.5
  3
genltshp.shx
  4

  0
STYLE
  5
27D
330
3
100
AcDbSymbolTableRecord
100
AcDbTextStyleTableRecord
  2
ACDINTS
 70
     0
 40
1.0
 41
1.0
 50
0.0
 71
     0
 42
2.5
  3
isocp.shx
  4

  0
STYLE
  5
27E
330
3
100
AcDbSymbolTableRecord
100
AcDbTextStyleTableRecord
  2
ACDINGDT
 70
     0
 40
0.0
 41
1.0
 50
0.0
 71
     0
 42
2.5
  3
amgdt.shx
  4

  0
STYLE
  5
28D
330
3
100
AcDbSymbolTableRecord
100
AcDbTextStyleTableRecord
  2
USER1
 70
     0
 40
0.0
 41
1.0
 50
0.0
 71
     0
 42
2.5
  3
TXT.SHX
  4

  0
STYLE
  5
28E
330
3
100
AcDbSymbolTableRecord
100
AcDbTextStyleTableRecord
  2
USER2
 70
     0
 40
0.0
 41
1.0
 50
0.0
 71
     0
 42
2.5
  3
SIMPLEX.SHX
  4

  0
STYLE
  5
28F
330
3
100
AcDbSymbolTableRecord
100
AcDbTextStyleTableRecord
  2
USER3
 70
     0
 40
0.0
 41
1.0
 50
0.0
 71
     0
 42
2.5
  3
ITALIC.SHX
  4

  0
ENDTAB
  0
TABLE
  2
VIEW
  5
6
330
0
100
AcDbSymbolTable
 70
     0
  0
ENDTAB
  0
TABLE
  2
UCS
  5
7
330
0
100
AcDbSymbolTable
 70
     0
  0
ENDTAB
  0
TABLE
  2
APPID
  5
9
330
0
100
AcDbSymbolTable
 70
    28
  0
APPID
  5
12
330
9
100
AcDbSymbolTableRecord
100
AcDbRegAppTableRecord
  2
ACAD
 70
     0
  0
APPID
  5
9E
330
9
100
AcDbSymbolTableRecord
100
AcDbRegAppTableRecord
  2
ACAD_PSEXT
 70
     0
  0
APPID
  5
133
330
9
100
AcDbSymbolTableRecord
100
AcDbRegAppTableRecord
  2
AcadAnnoPO
 70
     0
  0
APPID
  5
134
330
9
100
AcDbSymbolTableRecord
100
AcDbRegAppTableRecord
  2
AcadAnnotative
 70
     0
  0
APPID
  5
135
330
9
100
AcDbSymbolTableRecord
100
AcDbRegAppTableRecord
  2
ACAD_DSTYLE_DIMJAG
 70
     0
  0
APPID
  5
136
330
9
100
AcDbSymbolTableRecord
100
AcDbRegAppTableRecord
  2
ACAD_DSTYLE_DIMTALN
 70
     0
  0
APPID
  5
165
330
9
100
AcDbSymbolTableRecord
100
AcDbRegAppTableRecord
  2
ACAD_MLEADERVER
 70
     0
  0
APPID
  5
217
330
9
100
AcDbSymbolTableRecord
100
AcDbRegAppTableRecord
  2
ACAD_NAV_VCDISPLAY
 70
     0
  0
APPID
  5
221
330
9
100
AcDbSymbolTableRecord
100
AcDbRegAppTableRecord
  2
MCAD_NO_VIS
 70
     0
  0
APPID
  5
222
330
9
100
AcDbSymbolTableRecord
100
AcDbRegAppTableRecord
  2
ACAD_TEMP_GRAPHIC
 70
     0
  0
APPID
  5
22F
330
9
100
AcDbSymbolTableRecord
100
AcDbRegAppTableRecord
  2
ACATTRIBSERVICES
 70
     0
  0
APPID
  5
24B
330
9
100
AcDbSymbolTableRecord
100
AcDbRegAppTableRecord
  2
DESIGNERASSEMBLIES
 70
     0
  0
APPID
  5
261
330
9
100
AcDbSymbolTableRecord
100
AcDbRegAppTableRecord
  2
ACAD_DSTYLE_DIMBREAK
 70
     0
  0
APPID
  5
343
330
9
100
AcDbSymbolTableRecord
100
AcDbRegAppTableRecord
  2
GENIUS_GENODEF_13
 70
     0
  0
APPID
  5
344
330
9
100
AcDbSymbolTableRecord
100
AcDbRegAppTableRecord
  2
ACAD_DSTYLE_DIMRADIAL_EXTENSION
 70
     0
  0
APPID
  5
345
330
9
100
AcDbSymbolTableRecord
100
AcDbRegAppTableRecord
  2
ACAD_DSTYLE_DIMINSPECT
 70
     0
  0
APPID
  5
346
330
9
100
AcDbSymbolTableRecord
100
AcDbRegAppTableRecord
  2
GENIUS_GENOBJ-N-FIL_13
 70
     0
  0
APPID
  5
347
330
9
100
AcDbSymbolTableRecord
100
AcDbRegAppTableRecord
  2
GENIUS_GENREC_14
 70
     0
  0
APPID
  5
348
330
9
100
AcDbSymbolTableRecord
100
AcDbRegAppTableRecord
  2
GENIUS_GENOBJ-N-REC_13
 70
     0
  0
APPID
  5
349
330
9
100
AcDbSymbolTableRecord
100
AcDbRegAppTableRecord
  2
AD_DRAW
 70
     0
  0
APPID
  5
34A
330
9
100
AcDbSymbolTableRecord
100
AcDbRegAppTableRecord
  2
ACADM_DIM_EDIT
 70
     0
  0
APPID
  5
34B
330
9
100
AcDbSymbolTableRecord
100
AcDbRegAppTableRecord
  2
AMDT_DM_ADJ
 70
     0
  0
APPID
  5
67F
330
9
100
AcDbSymbolTableRecord
100
AcDbRegAppTableRecord
  2
GENIUS_GENDTOL_13
 70
     0
  0
APPID
  5
692
330
9
100
AcDbSymbolTableRecord
100
AcDbRegAppTableRecord
  2
ACAD_EXEMPT_FROM_CAD_STANDARDS
 70
     0
  0
APPID
  5
769
330
9
100
AcDbSymbolTableRecord
100
AcDbRegAppTableRecord
  2
ACAD_DSTYLE_DIMJOGGED_JOGANGLE_SYMBOL
 70
     0
  0
APPID
  5
76A
330
9
100
AcDbSymbolTableRecord
100
AcDbRegAppTableRecord
  2
ACAD_DSTYLE_DIM_LINETYPE
 70
     0
  0
APPID
  5
76B
330
9
100
AcDbSymbolTableRecord
100
AcDbRegAppTableRecord
  2
ACAD_DSTYLE_DIM_EXT1_LINETYPE
 70
     0
  0
APPID
  5
76C
330
9
100
AcDbSymbolTableRecord
100
AcDbRegAppTableRecord
  2
ACAD_DSTYLE_DIM_EXT2_LINETYPE
 70
     0
  0
ENDTAB
  0
TABLE
  2
DIMSTYLE
  5
A
330
0
100
AcDbSymbolTable
 70
    16
100
AcDbDimStyleTable
 71
     4
340
33E
340
260
340
27
340
137
  0
DIMSTYLE
105
1B0
330
A
100
AcDbSymbolTableRecord
100
AcDbDimStyleTableRecord
  2
Standard
 70
     0
340
11
  0
DIMSTYLE
105
137
330
A
100
AcDbSymbolTableRecord
100
AcDbDimStyleTableRecord
  2
Annotative
 70
     0
 40
0.0
 41
2.5
 42
0.625
 43
3.75
 44
1.25
 73
     0
 74
     0
 77
     1
 78
     8
140
2.5
141
2.5
143
0.03937007874016
147
0.625
171
     3
172
     1
271
     2
272
     2
274
     3
278
    44
283
     0
284
     8
340
11
1001
AcadAnnotative
1000
AnnotativeData
1002
{
1070
     1
1070
     1
1002
}
1001
ACAD_DSTYLE_DIMJAG
1070
   388
1040
1.5
1001
ACAD_DSTYLE_DIMTALN
1070
   392
1070
     0
  0
DIMSTYLE
105
27
330
A
100
AcDbSymbolTableRecord
100
AcDbDimStyleTableRecord
  2
ISO-25
 70
     0
 41
2.5
 42
0.625
 43
3.75
 44
1.25
 73
     0
 74
     0
 77
     1
 78
     8
140
2.5
141
2.5
143
0.03937007874016
147
0.625
171
     3
172
     1
271
     2
272
     2
274
     3
278
    44
283
     0
284
     8
340
11
  0
DIMSTYLE
105
260
102
{ACAD_REACTORS
330
7AA
102
}
330
A
100
AcDbSymbolTableRecord
100
AcDbDimStyleTableRecord
  2
AM_DIN
 70
     0
  4
"
 41
3.5
 42
1.0
 43
10.0
 44
1.0
 47
0.1
 48
0.1
 73
     0
 74
     0
 77
     1
 78
     8
 79
     2
140
3.5
141
0.0
143
0.0393701
146
0.71
147
1.5
172
     1
176
   256
177
   256
178
     2
271
     2
272
     3
274
     4
283
     0
284
     8
340
11
371
    -1
372
    -1
1001
ACAD_DSTYLE_DIMJAG
1070
   388
1040
1.5
1001
ACAD_DSTYLE_DIMBREAK
1070
   391
1040
3.75
1001
ACAD_DSTYLE_DIMJOGGED_JOGANGLE_SYMBOL
1070
   384
1040
1.570796326794896
1001
ACAD_DSTYLE_DIM_LINETYPE
1070
   380
1005
14
1001
ACAD_DSTYLE_DIM_EXT1_LINETYPE
1070
   381
1005
14
1001
ACAD_DSTYLE_DIM_EXT2_LINETYPE
1070
   382
1005
14
  0
DIMSTYLE
105
271
330
A
100
AcDbSymbolTableRecord
100
AcDbDimStyleTableRecord
  2
AM_DIN$3
 70
     0
  4
"
 41
3.5
 42
1.0
 43
10.0
 44
1.0
 47
0.1
 48
0.1
 73
     0
 77
     1
 78
     8
 79
     2
140
3.5
141
0.0
143
0.0393701
146
0.71
147
1.5
176
   256
177
   256
178
     2
271
     2
272
     3
274
     4
283
     0
284
     8
288
     1
289
     0
340
11
371
    -1
372
    -1
1001
ACAD_DSTYLE_DIMBREAK
1070
   391
1040
3.75
1001
ACAD_DSTYLE_DIMJAG
1070
   388
1040
1.5
1001
ACAD_DSTYLE_DIMJOGGED_JOGANGLE_SYMBOL
1070
   384
1040
1.570796326794896
1001
ACAD_DSTYLE_DIM_LINETYPE
1070
   380
1005
14
1001
ACAD_DSTYLE_DIM_EXT1_LINETYPE
1070
   381
1005
14
1001
ACAD_DSTYLE_DIM_EXT2_LINETYPE
1070
   382
1005
14
  0
DIMSTYLE
105
272
330
A
100
AcDbSymbolTableRecord
100
AcDbDimStyleTableRecord
  2
AM_DIN$4
 70
     0
  4
"
 41
3.5
 42
1.0
 43
10.0
 44
1.0
 47
0.1
 48
0.1
 73
     0
 77
     1
 78
     8
 79
     2
140
3.5
141
0.0
143
0.0393701
146
0.71
147
1.5
176
   256
177
   256
178
     2
271
     2
272
     3
274
     4
283
     0
284
     8
288
     1
289
     0
340
11
371
    -1
372
    -1
1001
ACAD_DSTYLE_DIMBREAK
1070
   391
1040
3.75
1001
ACAD_DSTYLE_DIMJAG
1070
   388
1040
1.5
1001
ACAD_DSTYLE_DIMJOGGED_JOGANGLE_SYMBOL
1070
   384
1040
1.570796326794896
1001
ACAD_DSTYLE_DIM_LINETYPE
1070
   380
1005
14
1001
ACAD_DSTYLE_DIM_EXT1_LINETYPE
1070
   381
1005
14
1001
ACAD_DSTYLE_DIM_EXT2_LINETYPE
1070
   382
1005
14
  0
DIMSTYLE
105
273
330
A
100
AcDbSymbolTableRecord
100
AcDbDimStyleTableRecord
  2
AM_DIN$6
 70
     0
  4
"
 41
3.5
 42
1.0
 43
10.0
 44
1.0
 47
0.1
 48
0.1
 73
     0
 74
     0
 78
     8
 79
     2
140
3.5
141
0.0
143
0.0393701
146
0.71
147
1.5
172
     1
176
   256
177
   256
178
     2
271
     2
272
     3
274
     4
283
     0
284
     8
340
11
371
    -1
372
    -1
1001
ACAD_DSTYLE_DIMBREAK
1070
   391
1040
3.75
1001
ACAD_DSTYLE_DIMJAG
1070
   388
1040
1.5
1001
ACAD_DSTYLE_DIMJOGGED_JOGANGLE_SYMBOL
1070
   384
1040
1.570796326794896
1001
ACAD_DSTYLE_DIM_LINETYPE
1070
   380
1005
14
1001
ACAD_DSTYLE_DIM_EXT1_LINETYPE
1070
   381
1005
14
1001
ACAD_DSTYLE_DIM_EXT2_LINETYPE
1070
   382
1005
14
  0
DIMSTYLE
105
274
330
A
100
AcDbSymbolTableRecord
100
AcDbDimStyleTableRecord
  2
AM_DIN$7
 70
     0
  4
"
 41
3.5
 42
1.0
 43
10.0
 44
1.0
 47
0.1
 48
0.1
 73
     0
 74
     0
 77
     1
 78
     8
 79
     2
140
3.5
141
0.0
143
0.0393701
146
0.71
147
1.5
172
     1
176
   256
177
   256
178
     2
271
     2
272
     3
274
     4
283
     0
284
     8
340
11
371
    -1
372
    -1
1001
ACAD_DSTYLE_DIMBREAK
1070
   391
1040
3.75
1001
ACAD_DSTYLE_DIMJAG
1070
   388
1040
1.5
1001
ACAD_DSTYLE_DIMJOGGED_JOGANGLE_SYMBOL
1070
   384
1040
1.570796326794896
1001
ACAD_DSTYLE_DIM_LINETYPE
1070
   380
1005
14
1001
ACAD_DSTYLE_DIM_EXT1_LINETYPE
1070
   381
1005
14
1001
ACAD_DSTYLE_DIM_EXT2_LINETYPE
1070
   382
1005
14
  0
DIMSTYLE
105
275
330
A
100
AcDbSymbolTableRecord
100
AcDbDimStyleTableRecord
  2
AM_DIN$SF
 70
     0
  4
"
 41
3.5
 42
1.0
 43
10.0
 44
1.0
 47
0.1
 48
0.1
 73
     0
 74
     0
 75
     1
 76
     1
 77
     1
 78
     8
 79
     2
140
3.5
141
0.0
143
0.0393701
146
0.71
147
1.5
172
     1
176
   256
177
   256
178
     2
271
     2
272
     3
274
     4
283
     0
284
     8
340
11
371
    -1
372
    -1
1001
ACAD_DSTYLE_DIMBREAK
1070
   391
1040
3.75
1001
ACAD_DSTYLE_DIMJAG
1070
   388
1040
1.5
1001
ACAD_DSTYLE_DIMJOGGED_JOGANGLE_SYMBOL
1070
   384
1040
1.570796326794896
1001
ACAD_DSTYLE_DIM_LINETYPE
1070
   380
1005
14
1001
ACAD_DSTYLE_DIM_EXT1_LINETYPE
1070
   381
1005
14
1001
ACAD_DSTYLE_DIM_EXT2_LINETYPE
1070
   382
1005
14
  0
DIMSTYLE
105
27A
330
A
100
AcDbSymbolTableRecord
100
AcDbDimStyleTableRecord
  2
AM_DIN$SH
 70
     0
  4
"
 41
3.5
 42
1.0
 43
10.0
 44
1.0
 47
0.1
 48
0.1
 73
     0
 74
     0
 75
     1
 76
     1
 77
     1
 78
     8
 79
     2
140
3.5
141
0.0
143
0.0393701
144
2.0
146
0.71
147
1.5
172
     1
173
     1
176
   256
177
   256
178
     2
271
     2
272
     3
274
     4
283
     0
284
     8
340
11
343
276
371
    -1
372
    -1
1001
ACAD_DSTYLE_DIMBREAK
1070
   391
1040
3.75
1001
ACAD_DSTYLE_DIMJAG
1070
   388
1040
1.5
1001
ACAD_DSTYLE_DIMJOGGED_JOGANGLE_SYMBOL
1070
   384
1040
1.570796326794896
1001
ACAD_DSTYLE_DIM_LINETYPE
1070
   380
1005
14
1001
ACAD_DSTYLE_DIM_EXT1_LINETYPE
1070
   381
1005
14
1001
ACAD_DSTYLE_DIM_EXT2_LINETYPE
1070
   382
1005
14
  0
DIMSTYLE
105
33E
102
{ACAD_REACTORS
330
426
330
427
330
428
330
429
330
42A
330
48F
330
490
330
495
102
}
330
A
100
AcDbSymbolTableRecord
100
AcDbDimStyleTableRecord
  2
MEA
 70
     0
 40
0.0
 41
4.0
 42
0.625
 43
3.75
 44
1.25
 73
     0
 74
     0
 77
     1
 78
     8
 79
     2
140
3.5
141
4.0
143
0.0394
145
1.0
147
0.625
172
     1
271
     2
272
     2
273
     8
278
    44
340
11
  0
DIMSTYLE
105
33F
330
A
100
AcDbSymbolTableRecord
100
AcDbDimStyleTableRecord
  2
Durchmesser
 70
     0
  3
%%c<>
 40
0.0
 41
4.0
 42
0.625
 43
3.75
 44
1.25
 73
     0
 74
     0
 77
     1
 78
     8
140
3.5
141
4.0
143
0.0394
145
1.0
147
0.625
172
     1
271
     2
272
     2
273
     8
278
    44
340
11
  0
DIMSTYLE
105
340
330
A
100
AcDbSymbolTableRecord
100
AcDbDimStyleTableRecord
  2
Toleranzen
 70
     0
 40
0.0
 41
4.0
 42
0.625
 43
3.75
 44
1.25
 47
1.0
 71
     1
 73
     0
 74
     0
 77
     1
 78
     8
 79
     2
140
3.5
141
4.0
143
0.0394
145
1.0
147
0.625
172
     1
271
     2
272
     2
273
     8
278
    44
283
     2
284
     8
340
11
  0
DIMSTYLE
105
341
102
{ACAD_REACTORS
330
496
330
497
330
498
330
667
102
}
330
A
100
AcDbSymbolTableRecord
100
AcDbDimStyleTableRecord
  2
MEA$0
 70
     0
 40
0.0
 41
4.0
 42
0.625
 43
3.75
 44
1.25
 73
     0
 74
     0
 77
     1
 78
     8
 79
     2
140
3.5
141
4.0
143
0.0394
145
1.0
147
0.625
172
     1
271
     2
272
     2
273
     8
278
    44
340
11
1001
ACAD_DSTYLE_DIMBREAK
1070
   391
1040
3.75
1001
ACAD_DSTYLE_DIMJAG
1070
   388
1040
1.5
  0
DIMSTYLE
105
342
102
{ACAD_REACTORS
330
499
102
}
330
A
100
AcDbSymbolTableRecord
100
AcDbDimStyleTableRecord
  2
MEA$3
 70
     0
 40
0.0
 41
4.0
 42
0.625
 43
3.75
 44
1.25
 73
     0
 74
     0
 77
     1
 78
     8
 79
     2
140
3.5
141
4.0
143
0.0394
145
1.0
147
0.625
172
     1
271
     2
272
     2
273
     8
278
    44
340
11
1001
ACAD_DSTYLE_DIMBREAK
1070
   391
1040
3.75
1001
ACAD_DSTYLE_DIMJAG
1070
   388
1040
1.5
  0
DIMSTYLE
105
665
330
A
100
AcDbSymbolTableRecord
100
AcDbDimStyleTableRecord
  2
AM_DIN$0
 70
     0
  4
"
 41
3.5
 42
1.0
 43
10.0
 44
1.0
 47
0.1
 48
0.1
 73
     0
 74
     0
 77
     1
 78
     8
 79
     2
140
3.5
141
0.0
143
0.0393701
146
0.71
147
1.5
172
     1
176
   256
177
   256
178
     2
271
     2
272
     3
274
     4
283
     0
284
     8
340
11
371
    -1
372
    -1
1001
ACAD_DSTYLE_DIMBREAK
1070
   391
1040
3.75
1001
ACAD_DSTYLE_DIMJAG
1070
   388
1040
1.5
1001
ACAD_DSTYLE_DIMJOGGED_JOGANGLE_SYMBOL
1070
   384
1040
1.570796326794896
1001
ACAD_DSTYLE_DIM_LINETYPE
1070
   380
1005
14
1001
ACAD_DSTYLE_DIM_EXT1_LINETYPE
1070
   381
1005
14
1001
ACAD_DSTYLE_DIM_EXT2_LINETYPE
1070
   382
1005
14
  0
ENDTAB
  0
TABLE
  2
BLOCK_RECORD
  5
1
330
0
100
AcDbSymbolTable
 70
    34
  0
BLOCK_RECORD
  5
1F
102
{ACAD_XDICTIONARY
360
1CE
102
}
330
1
100
AcDbSymbolTableRecord
100
AcDbBlockTableRecord
  2
*Model_Space
340
22
  0
BLOCK_RECORD
  5
D2
330
1
100
AcDbSymbolTableRecord
100
AcDbBlockTableRecord
  2
*Paper_Space
340
D3
  0
BLOCK_RECORD
  5
D6
330
1
100
AcDbSymbolTableRecord
100
AcDbBlockTableRecord
  2
*Paper_Space0
340
D7
  0
BLOCK_RECORD
  5
276
330
1
100
AcDbSymbolTableRecord
100
AcDbBlockTableRecord
  2
GENAXEH
340
0
  0
BLOCK_RECORD
  5
29B
330
1
100
AcDbSymbolTableRecord
100
AcDbBlockTableRecord
  2
*D2
340
0
  0
BLOCK_RECORD
  5
2A7
330
1
100
AcDbSymbolTableRecord
100
AcDbBlockTableRecord
  2
*D3
340
0
  0
BLOCK_RECORD
  5
2B3
330
1
100
AcDbSymbolTableRecord
100
AcDbBlockTableRecord
  2
*D4
340
0
  0
BLOCK_RECORD
  5
2BF
330
1
100
AcDbSymbolTableRecord
100
AcDbBlockTableRecord
  2
*D5
340
0
  0
BLOCK_RECORD
  5
2CB
330
1
100
AcDbSymbolTableRecord
100
AcDbBlockTableRecord
  2
*D6
340
0
  0
BLOCK_RECORD
  5
2D7
330
1
100
AcDbSymbolTableRecord
100
AcDbBlockTableRecord
  2
*D7
340
0
  0
BLOCK_RECORD
  5
2E3
330
1
100
AcDbSymbolTableRecord
100
AcDbBlockTableRecord
  2
*D8
340
0
  0
BLOCK_RECORD
  5
2EF
330
1
100
AcDbSymbolTableRecord
100
AcDbBlockTableRecord
  2
*D9
340
0
  0
BLOCK_RECORD
  5
2FA
330
1
100
AcDbSymbolTableRecord
100
AcDbBlockTableRecord
  2
*D10
340
0
  0
BLOCK_RECORD
  5
306
330
1
100
AcDbSymbolTableRecord
100
AcDbBlockTableRecord
  2
*D11
340
0
  0
BLOCK_RECORD
  5
312
330
1
100
AcDbSymbolTableRecord
100
AcDbBlockTableRecord
  2
*D12
340
0
  0
BLOCK_RECORD
  5
31E
330
1
100
AcDbSymbolTableRecord
100
AcDbBlockTableRecord
  2
*D13
340
0
  0
BLOCK_RECORD
  5
32A
330
1
100
AcDbSymbolTableRecord
100
AcDbBlockTableRecord
  2
*D14
340
0
  0
BLOCK_RECORD
  5
49C
330
1
100
AcDbSymbolTableRecord
100
AcDbBlockTableRecord
  2
*D15
340
0
  0
BLOCK_RECORD
  5
4A8
330
1
100
AcDbSymbolTableRecord
100
AcDbBlockTableRecord
  2
*D16
340
0
  0
BLOCK_RECORD
  5
4B4
330
1
100
AcDbSymbolTableRecord
100
AcDbBlockTableRecord
  2
*D17
340
0
  0
BLOCK_RECORD
  5
4C0
330
1
100
AcDbSymbolTableRecord
100
AcDbBlockTableRecord
  2
*D18
340
0
  0
BLOCK_RECORD
  5
4CC
330
1
100
AcDbSymbolTableRecord
100
AcDbBlockTableRecord
  2
*D19
340
0
  0
BLOCK_RECORD
  5
4D8
330
1
100
AcDbSymbolTableRecord
100
AcDbBlockTableRecord
  2
*D20
340
0
  0
BLOCK_RECORD
  5
4E4
330
1
100
AcDbSymbolTableRecord
100
AcDbBlockTableRecord
  2
*D21
340
0
  0
BLOCK_RECORD
  5
4F0
330
1
100
AcDbSymbolTableRecord
100
AcDbBlockTableRecord
  2
*D22
340
0
  0
BLOCK_RECORD
  5
4FB
330
1
100
AcDbSymbolTableRecord
100
AcDbBlockTableRecord
  2
*D23
340
0
  0
BLOCK_RECORD
  5
507
330
1
100
AcDbSymbolTableRecord
100
AcDbBlockTableRecord
  2
*D24
340
0
  0
BLOCK_RECORD
  5
513
330
1
100
AcDbSymbolTableRecord
100
AcDbBlockTableRecord
  2
*D25
340
0
  0
BLOCK_RECORD
  5
51F
330
1
100
AcDbSymbolTableRecord
100
AcDbBlockTableRecord
  2
*D26
340
0
  0
BLOCK_RECORD
  5
52B
330
1
100
AcDbSymbolTableRecord
100
AcDbBlockTableRecord
  2
*D27
340
0
  0
BLOCK_RECORD
  5
5C7
330
1
100
AcDbSymbolTableRecord
100
AcDbBlockTableRecord
  2
*D28
340
0
  0
BLOCK_RECORD
  5
5D3
330
1
100
AcDbSymbolTableRecord
100
AcDbBlockTableRecord
  2
*D29
340
0
  0
BLOCK_RECORD
  5
5DF
330
1
100
AcDbSymbolTableRecord
100
AcDbBlockTableRecord
  2
*D30
340
0
  0
BLOCK_RECORD
  5
644
102
{ACAD_XDICTIONARY
360
660
102
}
330
1
100
AcDbSymbolTableRecord
100
AcDbBlockTableRecord
  2
A$C2A8D6760
340
0
102
{BLKREFS
331
663
102
}
1001
ACAD
1000
DesignCenter Data
1002
{
1070
     1
1070
     4
1002
}
  0
BLOCK_RECORD
  5
668
330
1
100
AcDbSymbolTableRecord
100
AcDbBlockTableRecord
  2
*D32
340
0
  0
ENDTAB
  0
ENDSEC
  0
SECTION
  2
BLOCKS
  0
BLOCK
  5
20
330
1F
100
AcDbEntity
  8
0
100
AcDbBlockBegin
  2
*Model_Space
 70
     0
 10
0.0
 20
0.0
 30
0.0
  3
*Model_Space
  1

  0
ENDBLK
  5
21
330
1F
100
AcDbEntity
  8
0
100
AcDbBlockEnd
  0
BLOCK
  5
D4
330
D2
100
AcDbEntity
 67
     1
  8
0
100
AcDbBlockBegin
  2
*Paper_Space
 70
     0
 10
0.0
 20
0.0
 30
0.0
  3
*Paper_Space
  1

  0
ENDBLK
  5
D5
330
D2
100
AcDbEntity
 67
     1
  8
0
100
AcDbBlockEnd
  0
BLOCK
  5
D8
330
D6
100
AcDbEntity
 67
     1
  8
0
100
AcDbBlockBegin
  2
*Paper_Space0
 70
     0
 10
0.0
 20
0.0
 30
0.0
  3
*Paper_Space0
  1

  0
ENDBLK
  5
D9
330
D6
100
AcDbEntity
 67
     1
  8
0
100
AcDbBlockEnd
  0
BLOCK
  5
278
330
276
100
AcDbEntity
  8
0
100
AcDbBlockBegin
  2
GENAXEH
 70
     0
 10
0.0
 20
0.0
 30
0.0
  3
GENAXEH
  1

  0
LINE
  5
277
330
276
100
AcDbEntity
  8
0
100
AcDbLine
 10
-1.0
 20
0.0
 30
0.0
 11
1.0
 21
0.0
 31
0.0
  0
ENDBLK
  5
279
330
276
100
AcDbEntity
  8
0
100
AcDbBlockEnd
  0
BLOCK
  5
29C
330
29B
100
AcDbEntity
  8
0
 48
0.3
370
    25
100
AcDbBlockBegin
  2
*D2
 70
     1
 10
0.0
 20
0.0
 30
0.0
  3
*D2
  1

  0
LINE
  5
29D
330
29B
100
AcDbEntity
  8
Bemassung
 62
     0
 48
0.3
370
    -2
100
AcDbLine
 10
3319.843913548747
 20
6631.961583223072
 30
0.0
 11
3319.843913548747
 21
6640.680782244871
 31
0.0
  0
LINE
  5
29E
330
29B
100
AcDbEntity
  8
Bemassung
 62
     0
 48
0.3
370
    -2
100
AcDbLine
 10
3569.843913548747
 20
6631.961583223072
 30
0.0
 11
3569.843913548747
 21
6640.680782244871
 31
0.0
  0
LINE
  5
29F
330
29B
100
AcDbEntity
  8
Bemassung
 62
     0
 48
0.3
370
    -2
100
AcDbLine
 10
3323.843913548747
 20
6639.430782244871
 30
0.0
 11
3565.843913548747
 21
6639.430782244871
 31
0.0
  0
SOLID
  5
2A0
330
29B
100
AcDbEntity
  8
Bemassung
 62
     0
 48
0.3
370
    25
100
AcDbTrace
 10
3323.843913548747
 20
6640.097448911538
 30
0.0
 11
3323.843913548747
 21
6638.764115578204
 31
0.0
 12
3319.843913548747
 22
6639.430782244871
 32
0.0
 13
3319.843913548747
 23
6639.430782244871
 33
0.0
  0
SOLID
  5
2A1
330
29B
100
AcDbEntity
  8
Bemassung
 62
     0
 48
0.3
370
    25
100
AcDbTrace
 10
3565.843913548747
 20
6640.097448911538
 30
0.0
 11
3565.843913548747
 21
6638.764115578204
 31
0.0
 12
3569.843913548747
 22
6639.430782244871
 32
0.0
 13
3569.843913548747
 23
6639.430782244871
 33
0.0
  0
MTEXT
  5
2A2
330
29B
100
AcDbEntity
  8
Bemassung
 62
     0
 48
0.3
370
    35
100
AcDbMText
 10
3444.843913548747
 20
6643.1192201712
 30
0.0
 40
6.0
 41
0.0
 71
     5
 72
     1
  1
\A1;250
 73
     1
 44
1.0
1001
ACAD
1000
MTEXTBEGIN
1070
    73
1070
     1
1070
    44
1040
1.0
1070
    74
1070
     0
1000
MTEXTEND
  0
POINT
  5
2A3
330
29B
100
AcDbEntity
  8
Defpoints
 62
     0
 48
0.3
370
    25
100
AcDbPoint
 10
3319.843913548747
 20
6631.336583223071
 30
0.0
  0
POINT
  5
2A4
330
29B
100
AcDbEntity
  8
Defpoints
 62
     0
 48
0.3
370
    25
100
AcDbPoint
 10
3569.843913548747
 20
6631.336583223071
 30
0.0
  0
POINT
  5
2A5
330
29B
100
AcDbEntity
  8
Defpoints
 62
     0
 48
0.3
370
    25
100
AcDbPoint
 10
3569.843913548747
 20
6639.430782244871
 30
0.0
  0
ENDBLK
  5
2A6
330
29B
100
AcDbEntity
  8
0
 48
0.3
370
    25
100
AcDbBlockEnd
  0
BLOCK
  5
2A8
330
2A7
100
AcDbEntity
  8
0
 48
0.3
370
    25
100
AcDbBlockBegin
  2
*D3
 70
     1
 10
0.0
 20
0.0
 30
0.0
  3
*D3
  1

  0
LINE
  5
2A9
330
2A7
100
AcDbEntity
  8
Bemassung
 62
     0
 48
0.3
370
    -2
100
AcDbLine
 10
3570.468913548747
 20
6631.336583223071
 30
0.0
 11
3585.229831350914
 21
6631.336583223071
 31
0.0
  0
LINE
  5
2AA
330
2A7
100
AcDbEntity
  8
Bemassung
 62
     0
 48
0.3
370
    -2
100
AcDbLine
 10
3558.468913548747
 20
6211.336583223073
 30
0.0
 11
3585.229831350914
 21
6211.336583223073
 31
0.0
  0
LINE
  5
2AB
330
2A7
100
AcDbEntity
  8
Bemassung
 62
     0
 48
0.3
370
    -2
100
AcDbLine
 10
3583.979831350914
 20
6627.336583223073
 30
0.0
 11
3583.979831350914
 21
6215.336583223074
 31
0.0
  0
SOLID
  5
2AC
330
2A7
100
AcDbEntity
  8
Bemassung
 62
     0
 48
0.3
370
    25
100
AcDbTrace
 10
3583.313164684247
 20
6627.336583223073
 30
0.0
 11
3584.64649801758
 21
6627.336583223073
 31
0.0
 12
3583.979831350914
 22
6631.336583223071
 32
0.0
 13
3583.979831350914
 23
6631.336583223071
 33
0.0
  0
SOLID
  5
2AD
330
2A7
100
AcDbEntity
  8
Bemassung
 62
     0
 48
0.3
370
    25
100
AcDbTrace
 10
3583.313164684247
 20
6215.336583223074
 30
0.0
 11
3584.64649801758
 21
6215.336583223074
 31
0.0
 12
3583.979831350914
 22
6211.336583223073
 32
0.0
 13
3583.979831350914
 23
6211.336583223073
 33
0.0
  0
MTEXT
  5
2AE
330
2A7
100
AcDbEntity
  8
Bemassung
 62
     0
 48
0.3
370
    35
100
AcDbMText
 10
3580.291393424583
 20
6421.336583223073
 30
0.0
 40
6.0
 41
0.0
 71
     5
 72
     1
  1
\A1;420
 11
0.0000000000000001
 21
1.0
 31
0.0
 73
     1
 44
1.0
1001
ACAD
1000
MTEXTBEGIN
1070
    73
1070
     1
1070
    44
1040
1.0
1070
    74
1070
     0
1000
MTEXTEND
  0
POINT
  5
2AF
330
2A7
100
AcDbEntity
  8
Defpoints
 62
     0
 48
0.3
370
    25
100
AcDbPoint
 10
3569.843913548747
 20
6631.336583223071
 30
0.0
  0
POINT
  5
2B0
330
2A7
100
AcDbEntity
  8
Defpoints
 62
     0
 48
0.3
370
    25
100
AcDbPoint
 10
3557.843913548747
 20
6211.336583223073
 30
0.0
  0
POINT
  5
2B1
330
2A7
100
AcDbEntity
  8
Defpoints
 62
     0
 48
0.3
370
    25
100
AcDbPoint
 10
3583.979831350914
 20
6211.336583223073
 30
0.0
  0
ENDBLK
  5
2B2
330
2A7
100
AcDbEntity
  8
0
 48
0.3
370
    25
100
AcDbBlockEnd
  0
BLOCK
  5
2B4
330
2B3
100
AcDbEntity
  8
0
 48
0.3
370
    25
100
AcDbBlockBegin
  2
*D4
 70
     1
 10
0.0
 20
0.0
 30
0.0
  3
*D4
  1

  0
LINE
  5
2B5
330
2B3
100
AcDbEntity
  8
Bemassung
 62
     0
 48
0.3
370
    -2
100
AcDbLine
 10
2803.62672760212
 20
6631.336583223071
 30
0.0
 11
2785.785447932878
 21
6631.336583223071
 31
0.0
  0
LINE
  5
2B6
330
2B3
100
AcDbEntity
  8
Bemassung
 62
     0
 48
0.3
370
    -2
100
AcDbLine
 10
2814.626727602121
 20
6541.336583223072
 30
0.0
 11
2785.785447932878
 21
6541.336583223072
 31
0.0
  0
LINE
  5
2B7
330
2B3
100
AcDbEntity
  8
Bemassung
 62
     0
 48
0.3
370
    -2
100
AcDbLine
 10
2787.035447932878
 20
6627.336583223073
 30
0.0
 11
2787.035447932878
 21
6545.336583223073
 31
0.0
  0
SOLID
  5
2B8
330
2B3
100
AcDbEntity
  8
Bemassung
 62
     0
 48
0.3
370
    25
100
AcDbTrace
 10
2786.368781266211
 20
6627.336583223073
 30
0.0
 11
2787.702114599544
 21
6627.336583223073
 31
0.0
 12
2787.035447932878
 22
6631.336583223071
 32
0.0
 13
2787.035447932878
 23
6631.336583223071
 33
0.0
  0
SOLID
  5
2B9
330
2B3
100
AcDbEntity
  8
Bemassung
 62
     0
 48
0.3
370
    25
100
AcDbTrace
 10
2786.368781266211
 20
6545.336583223073
 30
0.0
 11
2787.702114599544
 21
6545.336583223073
 31
0.0
 12
2787.035447932878
 22
6541.336583223072
 32
0.0
 13
2787.035447932878
 23
6541.336583223072
 33
0.0
  0
MTEXT
  5
2BA
330
2B3
100
AcDbEntity
  8
Bemassung
 62
     0
 48
0.3
370
    35
100
AcDbMText
 10
2783.347010006548
 20
6586.336583223072
 30
0.0
 40
6.0
 41
0.0
 71
     5
 72
     1
  1
\A1;90
 11
0.0000000000000001
 21
1.0
 31
0.0
 73
     1
 44
1.0
1001
ACAD
1000
MTEXTBEGIN
1070
    73
1070
     1
1070
    44
1040
1.0
1070
    74
1070
     0
1000
MTEXTEND
  0
POINT
  5
2BB
330
2B3
100
AcDbEntity
  8
Defpoints
 62
     0
 48
0.3
370
    25
100
AcDbPoint
 10
2804.251727602121
 20
6631.336583223071
 30
0.0
  0
POINT
  5
2BC
330
2B3
100
AcDbEntity
  8
Defpoints
 62
     0
 48
0.3
370
    25
100
AcDbPoint
 10
2815.251727602121
 20
6541.336583223072
 30
0.0
  0
POINT
  5
2BD
330
2B3
100
AcDbEntity
  8
Defpoints
 62
     0
 48
0.3
370
    25
100
AcDbPoint
 10
2787.035447932878
 20
6541.336583223072
 30
0.0
  0
ENDBLK
  5
2BE
330
2B3
100
AcDbEntity
  8
0
 48
0.3
370
    25
100
AcDbBlockEnd
  0
BLOCK
  5
2C0
330
2BF
100
AcDbEntity
  8
0
 48
0.3
370
    25
100
AcDbBlockBegin
  2
*D5
 70
     1
 10
0.0
 20
0.0
 30
0.0
  3
*D5
  1

  0
LINE
  5
2C1
330
2BF
100
AcDbEntity
  8
Bemassung
 62
     0
 48
0.3
370
    -2
100
AcDbLine
 10
2814.626727602121
 20
6541.336583223072
 30
0.0
 11
2785.785447932877
 21
6541.336583223072
 31
0.0
  0
LINE
  5
2C2
330
2BF
100
AcDbEntity
  8
Bemassung
 62
     0
 48
0.3
370
    -2
100
AcDbLine
 10
2814.626727602121
 20
6341.336583223073
 30
0.0
 11
2785.785447932877
 21
6341.336583223073
 31
0.0
  0
LINE
  5
2C3
330
2BF
100
AcDbEntity
  8
Bemassung
 62
     0
 48
0.3
370
    -2
100
AcDbLine
 10
2787.035447932877
 20
6537.336583223073
 30
0.0
 11
2787.035447932877
 21
6345.336583223073
 31
0.0
  0
SOLID
  5
2C4
330
2BF
100
AcDbEntity
  8
Bemassung
 62
     0
 48
0.3
370
    25
100
AcDbTrace
 10
2786.368781266211
 20
6537.336583223073
 30
0.0
 11
2787.702114599543
 21
6537.336583223073
 31
0.0
 12
2787.035447932877
 22
6541.336583223072
 32
0.0
 13
2787.035447932877
 23
6541.336583223072
 33
0.0
  0
SOLID
  5
2C5
330
2BF
100
AcDbEntity
  8
Bemassung
 62
     0
 48
0.3
370
    25
100
AcDbTrace
 10
2786.368781266211
 20
6345.336583223073
 30
0.0
 11
2787.702114599543
 21
6345.336583223073
 31
0.0
 12
2787.035447932877
 22
6341.336583223073
 32
0.0
 13
2787.035447932877
 23
6341.336583223073
 33
0.0
  0
MTEXT
  5
2C6
330
2BF
100
AcDbEntity
  8
Bemassung
 62
     0
 48
0.3
370
    35
100
AcDbMText
 10
2783.347010006546
 20
6441.336583223073
 30
0.0
 40
6.0
 41
0.0
 71
     5
 72
     1
  1
\A1;200
 11
0.0000000000000001
 21
1.0
 31
0.0
 73
     1
 44
1.0
1001
ACAD
1000
MTEXTBEGIN
1070
    73
1070
     1
1070
    44
1040
1.0
1070
    74
1070
     0
1000
MTEXTEND
  0
POINT
  5
2C7
330
2BF
100
AcDbEntity
  8
Defpoints
 62
     0
 48
0.3
370
    25
100
AcDbPoint
 10
2815.251727602121
 20
6541.336583223072
 30
0.0
  0
POINT
  5
2C8
330
2BF
100
AcDbEntity
  8
Defpoints
 62
     0
 48
0.3
370
    25
100
AcDbPoint
 10
2815.251727602121
 20
6341.336583223073
 30
0.0
  0
POINT
  5
2C9
330
2BF
100
AcDbEntity
  8
Defpoints
 62
     0
 48
0.3
370
    25
100
AcDbPoint
 10
2787.035447932877
 20
6341.336583223073
 30
0.0
  0
ENDBLK
  5
2CA
330
2BF
100
AcDbEntity
  8
0
 48
0.3
370
    25
100
AcDbBlockEnd
  0
BLOCK
  5
2CC
330
2CB
100
AcDbEntity
  8
0
 48
0.3
370
    25
100
AcDbBlockBegin
  2
*D6
 70
     1
 10
0.0
 20
0.0
 30
0.0
  3
*D6
  1

  0
LINE
  5
2CD
330
2CB
100
AcDbEntity
  8
Bemassung
 62
     0
 48
0.3
370
    -2
100
AcDbLine
 10
2804.251727602121
 20
6631.961583223072
 30
0.0
 11
2804.251727602121
 21
6644.26604775046
 31
0.0
  0
LINE
  5
2CE
330
2CB
100
AcDbEntity
  8
Bemassung
 62
     0
 48
0.3
370
    -2
100
AcDbLine
 10
3224.25172760212
 20
6631.961583223072
 30
0.0
 11
3224.25172760212
 21
6644.26604775046
 31
0.0
  0
LINE
  5
2CF
330
2CB
100
AcDbEntity
  8
Bemassung
 62
     0
 48
0.3
370
    -2
100
AcDbLine
 10
2808.251727602121
 20
6643.01604775046
 30
0.0
 11
3220.25172760212
 21
6643.01604775046
 31
0.0
  0
SOLID
  5
2D0
330
2CB
100
AcDbEntity
  8
Bemassung
 62
     0
 48
0.3
370
    25
100
AcDbTrace
 10
2808.251727602121
 20
6643.682714417128
 30
0.0
 11
2808.251727602121
 21
6642.349381083794
 31
0.0
 12
2804.251727602121
 22
6643.01604775046
 32
0.0
 13
2804.251727602121
 23
6643.01604775046
 33
0.0
  0
SOLID
  5
2D1
330
2CB
100
AcDbEntity
  8
Bemassung
 62
     0
 48
0.3
370
    25
100
AcDbTrace
 10
3220.25172760212
 20
6643.682714417128
 30
0.0
 11
3220.25172760212
 21
6642.349381083794
 31
0.0
 12
3224.25172760212
 22
6643.01604775046
 32
0.0
 13
3224.25172760212
 23
6643.01604775046
 33
0.0
  0
MTEXT
  5
2D2
330
2CB
100
AcDbEntity
  8
Bemassung
 62
     0
 48
0.3
370
    35
100
AcDbMText
 10
3014.251727602121
 20
6646.704485676791
 30
0.0
 40
6.0
 41
0.0
 71
     5
 72
     1
  1
\A1;420
 73
     1
 44
1.0
1001
ACAD
1000
MTEXTBEGIN
1070
    73
1070
     1
1070
    44
1040
1.0
1070
    74
1070
     0
1000
MTEXTEND
  0
POINT
  5
2D3
330
2CB
100
AcDbEntity
  8
Defpoints
 62
     0
 48
0.3
370
    25
100
AcDbPoint
 10
2804.251727602121
 20
6631.336583223071
 30
0.0
  0
POINT
  5
2D4
330
2CB
100
AcDbEntity
  8
Defpoints
 62
     0
 48
0.3
370
    25
100
AcDbPoint
 10
3224.25172760212
 20
6631.336583223071
 30
0.0
  0
POINT
  5
2D5
330
2CB
100
AcDbEntity
  8
Defpoints
 62
     0
 48
0.3
370
    25
100
AcDbPoint
 10
3224.25172760212
 20
6643.01604775046
 30
0.0
  0
ENDBLK
  5
2D6
330
2CB
100
AcDbEntity
  8
0
 48
0.3
370
    25
100
AcDbBlockEnd
  0
BLOCK
  5
2D8
330
2D7
100
AcDbEntity
  8
0
 48
0.3
370
    25
100
AcDbBlockBegin
  2
*D7
 70
     1
 10
0.0
 20
0.0
 30
0.0
  3
*D7
  1

  0
LINE
  5
2D9
330
2D7
100
AcDbEntity
  8
Bemassung
 62
     0
 48
0.3
370
    -2
100
AcDbLine
 10
2819.25172760212
 20
6345.961583223073
 30
0.0
 11
2819.25172760212
 21
6381.454048530404
 31
0.0
  0
LINE
  5
2DA
330
2D7
100
AcDbEntity
  8
Bemassung
 62
     0
 48
0.3
370
    -2
100
AcDbLine
 10
3209.251727602121
 20
6345.961583223073
 30
0.0
 11
3209.251727602121
 21
6381.454048530404
 31
0.0
  0
LINE
  5
2DB
330
2D7
100
AcDbEntity
  8
Bemassung
 62
     0
 48
0.3
370
    -2
100
AcDbLine
 10
2823.251727602121
 20
6380.204048530403
 30
0.0
 11
3205.251727602121
 21
6380.204048530403
 31
0.0
  0
SOLID
  5
2DC
330
2D7
100
AcDbEntity
  8
Bemassung
 62
     0
 48
0.3
370
    25
100
AcDbTrace
 10
2823.251727602121
 20
6380.87071519707
 30
0.0
 11
2823.251727602121
 21
6379.537381863737
 31
0.0
 12
2819.25172760212
 22
6380.204048530403
 32
0.0
 13
2819.25172760212
 23
6380.204048530403
 33
0.0
  0
SOLID
  5
2DD
330
2D7
100
AcDbEntity
  8
Bemassung
 62
     0
 48
0.3
370
    25
100
AcDbTrace
 10
3205.251727602121
 20
6380.87071519707
 30
0.0
 11
3205.251727602121
 21
6379.537381863737
 31
0.0
 12
3209.251727602121
 22
6380.204048530403
 32
0.0
 13
3209.251727602121
 23
6380.204048530403
 33
0.0
  0
MTEXT
  5
2DE
330
2D7
100
AcDbEntity
  8
Bemassung
 62
     0
 48
0.3
370
    35
100
AcDbMText
 10
3014.251727602121
 20
6383.894532841454
 30
0.0
 40
6.0
 41
0.0
 71
     5
 72
     1
  1
\A1;390
 73
     1
 44
1.0
1001
ACAD
1000
MTEXTBEGIN
1070
    73
1070
     1
1070
    44
1040
1.0
1070
    74
1070
     0
1000
MTEXTEND
  0
POINT
  5
2DF
330
2D7
100
AcDbEntity
  8
Defpoints
 62
     0
 48
0.3
370
    25
100
AcDbPoint
 10
2819.25172760212
 20
6345.336583223073
 30
0.0
  0
POINT
  5
2E0
330
2D7
100
AcDbEntity
  8
Defpoints
 62
     0
 48
0.3
370
    25
100
AcDbPoint
 10
3209.251727602121
 20
6345.336583223073
 30
0.0
  0
POINT
  5
2E1
330
2D7
100
AcDbEntity
  8
Defpoints
 62
     0
 48
0.3
370
    25
100
AcDbPoint
 10
3209.251727602121
 20
6380.204048530403
 30
0.0
  0
ENDBLK
  5
2E2
330
2D7
100
AcDbEntity
  8
0
 48
0.3
370
    25
100
AcDbBlockEnd
  0
BLOCK
  5
2E4
330
2E3
100
AcDbEntity
  8
0
 48
0.3
370
    25
100
AcDbBlockBegin
  2
*D8
 70
     1
 10
0.0
 20
0.0
 30
0.0
  3
*D8
  1

  0
LINE
  5
2E5
330
2E3
100
AcDbEntity
  8
Bemassung
 62
     0
 48
0.3
370
    -2
100
AcDbLine
 10
2836.251727602121
 20
6131.961583223073
 30
0.0
 11
2836.251727602121
 21
6157.555315907039
 31
0.0
  0
LINE
  5
2E6
330
2E3
100
AcDbEntity
  8
Bemassung
 62
     0
 48
0.3
370
    -2
100
AcDbLine
 10
3192.251727602123
 20
6131.961583223073
 30
0.0
 11
3192.251727602123
 21
6157.555315907039
 31
0.0
  0
LINE
  5
2E7
330
2E3
100
AcDbEntity
  8
Bemassung
 62
     0
 48
0.3
370
    -2
100
AcDbLine
 10
2840.251727602121
 20
6156.305315907038
 30
0.0
 11
3188.251727602123
 21
6156.305315907038
 31
0.0
  0
SOLID
  5
2E8
330
2E3
100
AcDbEntity
  8
Bemassung
 62
     0
 48
0.3
370
    25
100
AcDbTrace
 10
2840.251727602121
 20
6156.971982573704
 30
0.0
 11
2840.251727602121
 21
6155.638649240371
 31
0.0
 12
2836.251727602121
 22
6156.305315907038
 32
0.0
 13
2836.251727602121
 23
6156.305315907038
 33
0.0
  0
SOLID
  5
2E9
330
2E3
100
AcDbEntity
  8
Bemassung
 62
     0
 48
0.3
370
    25
100
AcDbTrace
 10
3188.251727602123
 20
6156.971982573704
 30
0.0
 11
3188.251727602123
 21
6155.638649240371
 31
0.0
 12
3192.251727602123
 22
6156.305315907038
 32
0.0
 13
3192.251727602123
 23
6156.305315907038
 33
0.0
  0
MTEXT
  5
2EA
330
2E3
100
AcDbEntity
  8
Bemassung
 62
     0
 48
0.3
370
    35
100
AcDbMText
 10
3014.251727602122
 20
6159.995800218088
 30
0.0
 40
6.0
 41
0.0
 71
     5
 72
     1
  1
\A1;356
 73
     1
 44
1.0
1001
ACAD
1000
MTEXTBEGIN
1070
    73
1070
     1
1070
    44
1040
1.0
1070
    74
1070
     0
1000
MTEXTEND
  0
POINT
  5
2EB
330
2E3
100
AcDbEntity
  8
Defpoints
 62
     0
 48
0.3
370
    25
100
AcDbPoint
 10
2836.251727602121
 20
6131.336583223073
 30
0.0
  0
POINT
  5
2EC
330
2E3
100
AcDbEntity
  8
Defpoints
 62
     0
 48
0.3
370
    25
100
AcDbPoint
 10
3192.251727602123
 20
6131.336583223073
 30
0.0
  0
POINT
  5
2ED
330
2E3
100
AcDbEntity
  8
Defpoints
 62
     0
 48
0.3
370
    25
100
AcDbPoint
 10
3192.251727602123
 20
6156.305315907038
 30
0.0
  0
ENDBLK
  5
2EE
330
2E3
100
AcDbEntity
  8
0
 48
0.3
370
    25
100
AcDbBlockEnd
  0
BLOCK
  5
2F0
330
2EF
100
AcDbEntity
  8
0
 48
0.3
370
    25
100
AcDbBlockBegin
  2
*D9
 70
     1
 10
0.0
 20
0.0
 30
0.0
  3
*D9
  1

  0
LINE
  5
2F1
330
2EF
100
AcDbEntity
  8
Bemassung
 62
     0
 48
0.3
370
    -2
100
AcDbLine
 10
3131.156764166219
 20
6094.975304423448
 30
0.0
 11
3102.24913291
 21
6076.76632847849
 31
0.0
  0
LINE
  5
2F2
330
2EF
100
AcDbEntity
  8
Bemassung
 62
     0
 48
0.3
370
    -2
100
AcDbLine
 10
2926.254322294241
 20
5965.906837967652
 30
0.0
 11
2922.869806705476
 21
5963.774924688598
 31
0.0
  0
MTEXT
  5
2F3
102
{ACAD_XDICTIONARY
360
86A
102
}
330
2EF
100
AcDbEntity
  8
Bemassung
 62
     0
 48
0.3
370
    35
100
AcDbMText
 10
3120.211201668359
 20
6092.638182925593
 30
0.0
 40
6.0
 41
0.0
 71
     5
 72
     1
  1
\A1;\U+2205200
 11
0.8461288971911546
 21
0.5329783197636472
 31
0.0
 73
     1
 44
1.0
1001
ACAD
1000
MTEXTBEGIN
1070
    73
1070
     1
1070
    44
1040
1.0
1070
    74
1070
     0
1000
MTEXTEND
  0
LINE
  5
2F4
330
2EF
100
AcDbEntity
  8
Bemassung
 62
     0
 48
0.3
370
    -2
100
AcDbLine
 10
2929.638837883005
 20
5968.038751246707
 30
0.0
 11
3098.864617321236
 21
6074.634415199437
 31
0.0
  0
SOLID
  5
2F5
330
2EF
100
AcDbEntity
  8
Bemassung
 62
     0
 48
0.3
370
    25
100
AcDbTrace
 10
2925.899003414398
 20
5966.470923899112
 30
0.0
 11
2926.609641174083
 21
5965.342752036191
 31
0.0
 12
2929.638837883005
 22
5968.038751246707
 32
0.0
 13
2929.638837883005
 23
5968.038751246707
 33
0.0
  0
SOLID
  5
2F6
330
2EF
100
AcDbEntity
  8
Bemassung
 62
     0
 48
0.3
370
    25
100
AcDbTrace
 10
3101.893814030158
 20
6077.330414409951
 30
0.0
 11
3102.604451789843
 21
6076.202242547029
 31
0.0
 12
3098.864617321236
 22
6074.634415199437
 32
0.0
 13
3098.864617321236
 23
6074.634415199437
 33
0.0
  0
POINT
  5
2F7
330
2EF
100
AcDbEntity
  8
Defpoints
 62
     0
 48
0.3
370
    25
100
AcDbPoint
 10
3098.864617321236
 20
6074.634415199437
 30
0.0
  0
POINT
  5
2F8
330
2EF
100
AcDbEntity
  8
Defpoints
 62
     0
 48
0.3
370
    25
100
AcDbPoint
 10
2929.638837883005
 20
5968.038751246707
 30
0.0
  0
ENDBLK
  5
2F9
330
2EF
100
AcDbEntity
  8
0
 48
0.3
370
    25
100
AcDbBlockEnd
  0
BLOCK
  5
2FB
330
2FA
100
AcDbEntity
  8
0
 48
0.3
370
    25
100
AcDbBlockBegin
  2
*D10
 70
     1
 10
0.0
 20
0.0
 30
0.0
  3
*D10
  1

  0
LINE
  5
2FC
330
2FA
100
AcDbEntity
  8
Bemassung
 62
     0
 48
0.3
370
    -2
100
AcDbLine
 10
3542.843913548747
 20
6290.711583223073
 30
0.0
 11
3542.843913548747
 21
6186.400022802935
 31
0.0
  0
LINE
  5
2FD
330
2FA
100
AcDbEntity
  8
Bemassung
 62
     0
 48
0.3
370
    -2
100
AcDbLine
 10
3319.843913548747
 20
6290.711583223073
 30
0.0
 11
3319.843913548747
 21
6186.400022802935
 31
0.0
  0
LINE
  5
2FE
330
2FA
100
AcDbEntity
  8
Bemassung
 62
     0
 48
0.3
370
    -2
100
AcDbLine
 10
3538.843913548748
 20
6187.650022802936
 30
0.0
 11
3323.843913548747
 21
6187.650022802936
 31
0.0
  0
SOLID
  5
2FF
330
2FA
100
AcDbEntity
  8
Bemassung
 62
     0
 48
0.3
370
    25
100
AcDbTrace
 10
3538.843913548748
 20
6188.316689469603
 30
0.0
 11
3538.843913548748
 21
6186.983356136271
 31
0.0
 12
3542.843913548747
 22
6187.650022802936
 32
0.0
 13
3542.843913548747
 23
6187.650022802936
 33
0.0
  0
SOLID
  5
300
330
2FA
100
AcDbEntity
  8
Bemassung
 62
     0
 48
0.3
370
    25
100
AcDbTrace
 10
3323.843913548747
 20
6188.316689469603
 30
0.0
 11
3323.843913548747
 21
6186.983356136271
 31
0.0
 12
3319.843913548747
 22
6187.650022802936
 32
0.0
 13
3319.843913548747
 23
6187.650022802936
 33
0.0
  0
MTEXT
  5
301
330
2FA
100
AcDbEntity
  8
Bemassung
 62
     0
 48
0.3
370
    35
100
AcDbMText
 10
3431.343913548747
 20
6191.340507113987
 30
0.0
 40
6.0
 41
0.0
 71
     5
 72
     1
  1
\A1;223
 73
     1
 44
1.0
1001
ACAD
1000
MTEXTBEGIN
1070
    73
1070
     1
1070
    44
1040
1.0
1070
    74
1070
     0
1000
MTEXTEND
  0
POINT
  5
302
330
2FA
100
AcDbEntity
  8
Defpoints
 62
     0
 48
0.3
370
    25
100
AcDbPoint
 10
3542.843913548747
 20
6291.336583223073
 30
0.0
  0
POINT
  5
303
330
2FA
100
AcDbEntity
  8
Defpoints
 62
     0
 48
0.3
370
    25
100
AcDbPoint
 10
3319.843913548747
 20
6291.336583223073
 30
0.0
  0
POINT
  5
304
330
2FA
100
AcDbEntity
  8
Defpoints
 62
     0
 48
0.3
370
    25
100
AcDbPoint
 10
3319.843913548747
 20
6187.650022802936
 30
0.0
  0
ENDBLK
  5
305
330
2FA
100
AcDbEntity
  8
0
 48
0.3
370
    25
100
AcDbBlockEnd
  0
BLOCK
  5
307
330
306
100
AcDbEntity
  8
0
 48
0.3
370
    25
100
AcDbBlockBegin
  2
*D11
 70
     1
 10
0.0
 20
0.0
 30
0.0
  3
*D11
  1

  0
LINE
  5
308
330
306
100
AcDbEntity
  8
Bemassung
 62
     0
 48
0.3
370
    -2
100
AcDbLine
 10
3175.186790363885
 20
6131.961583223073
 30
0.0
 11
3175.186790363885
 21
6145.778428557054
 31
0.0
  0
LINE
  5
309
330
306
100
AcDbEntity
  8
Bemassung
 62
     0
 48
0.3
370
    -2
100
AcDbLine
 10
2853.316664840359
 20
6131.961583223073
 30
0.0
 11
2853.316664840359
 21
6145.778428557054
 31
0.0
  0
LINE
  5
30A
330
306
100
AcDbEntity
  8
Bemassung
 62
     0
 48
0.3
370
    -2
100
AcDbLine
 10
3171.186790363885
 20
6144.528428557054
 30
0.0
 11
2857.316664840359
 21
6144.528428557054
 31
0.0
  0
SOLID
  5
30B
330
306
100
AcDbEntity
  8
Bemassung
 62
     0
 48
0.3
370
    25
100
AcDbTrace
 10
3171.186790363885
 20
6145.195095223722
 30
0.0
 11
3171.186790363885
 21
6143.861761890388
 31
0.0
 12
3175.186790363885
 22
6144.528428557054
 32
0.0
 13
3175.186790363885
 23
6144.528428557054
 33
0.0
  0
SOLID
  5
30C
330
306
100
AcDbEntity
  8
Bemassung
 62
     0
 48
0.3
370
    25
100
AcDbTrace
 10
2857.316664840359
 20
6145.195095223722
 30
0.0
 11
2857.316664840359
 21
6143.861761890388
 31
0.0
 12
2853.316664840359
 22
6144.528428557054
 32
0.0
 13
2853.316664840359
 23
6144.528428557054
 33
0.0
  0
MTEXT
  5
30D
330
306
100
AcDbEntity
  8
Bemassung
 62
     0
 48
0.3
370
    35
100
AcDbMText
 10
3014.251727602122
 20
6148.216866483386
 30
0.0
 40
6.0
 41
0.0
 71
     5
 72
     1
  1
\A1;220
 73
     1
 44
1.0
1001
ACAD
1000
MTEXTBEGIN
1070
    73
1070
     1
1070
    44
1040
1.0
1070
    74
1070
     0
1000
MTEXTEND
  0
POINT
  5
30E
330
306
100
AcDbEntity
  8
Defpoints
 62
     0
 48
0.3
370
    25
100
AcDbPoint
 10
3175.186790363885
 20
6131.336583223073
 30
0.0
  0
POINT
  5
30F
330
306
100
AcDbEntity
  8
Defpoints
 62
     0
 48
0.3
370
    25
100
AcDbPoint
 10
2853.316664840359
 20
6131.336583223073
 30
0.0
  0
POINT
  5
310
330
306
100
AcDbEntity
  8
Defpoints
 62
     0
 48
0.3
370
    25
100
AcDbPoint
 10
2853.316664840359
 20
6144.528428557054
 30
0.0
  0
ENDBLK
  5
311
330
306
100
AcDbEntity
  8
0
 48
0.3
370
    25
100
AcDbBlockEnd
  0
BLOCK
  5
313
330
312
100
AcDbEntity
  8
0
 48
0.3
370
    25
100
AcDbBlockBegin
  2
*D12
 70
     1
 10
0.0
 20
0.0
 30
0.0
  3
*D12
  1

  0
LINE
  5
314
330
312
100
AcDbEntity
  8
Bemassung
 62
     0
 48
0.3
370
    -2
100
AcDbLine
 10
3221.876727602121
 20
6131.336583223073
 30
0.0
 11
3244.032211423031
 21
6131.336583223073
 31
0.0
  0
LINE
  5
315
330
312
100
AcDbEntity
  8
Bemassung
 62
     0
 48
0.3
370
    -2
100
AcDbLine
 10
3014.87672760212
 20
5911.336583223071
 30
0.0
 11
3244.032211423031
 21
5911.336583223071
 31
0.0
  0
LINE
  5
316
330
312
100
AcDbEntity
  8
Bemassung
 62
     0
 48
0.3
370
    -2
100
AcDbLine
 10
3242.782211423031
 20
6127.336583223073
 30
0.0
 11
3242.782211423031
 21
5915.336583223073
 31
0.0
  0
SOLID
  5
317
330
312
100
AcDbEntity
  8
Bemassung
 62
     0
 48
0.3
370
    25
100
AcDbTrace
 10
3242.115544756365
 20
6127.336583223073
 30
0.0
 11
3243.448878089698
 21
6127.336583223073
 31
0.0
 12
3242.782211423031
 22
6131.336583223073
 32
0.0
 13
3242.782211423031
 23
6131.336583223073
 33
0.0
  0
SOLID
  5
318
330
312
100
AcDbEntity
  8
Bemassung
 62
     0
 48
0.3
370
    25
100
AcDbTrace
 10
3242.115544756365
 20
5915.336583223073
 30
0.0
 11
3243.448878089698
 21
5915.336583223073
 31
0.0
 12
3242.782211423031
 22
5911.336583223071
 32
0.0
 13
3242.782211423031
 23
5911.336583223071
 33
0.0
  0
MTEXT
  5
319
330
312
100
AcDbEntity
  8
Bemassung
 62
     0
 48
0.3
370
    35
100
AcDbMText
 10
3239.0937734967
 20
6021.336583223073
 30
0.0
 40
6.0
 41
0.0
 71
     5
 72
     1
  1
\A1;220
 11
0.0000000000000001
 21
1.0
 31
0.0
 73
     1
 44
1.0
1001
ACAD
1000
MTEXTBEGIN
1070
    73
1070
     1
1070
    44
1040
1.0
1070
    74
1070
     0
1000
MTEXTEND
  0
POINT
  5
31A
330
312
100
AcDbEntity
  8
Defpoints
 62
     0
 48
0.3
370
    25
100
AcDbPoint
 10
3221.25172760212
 20
6131.336583223073
 30
0.0
  0
POINT
  5
31B
330
312
100
AcDbEntity
  8
Defpoints
 62
     0
 48
0.3
370
    25
100
AcDbPoint
 10
3014.25172760212
 20
5911.336583223071
 30
0.0
  0
POINT
  5
31C
330
312
100
AcDbEntity
  8
Defpoints
 62
     0
 48
0.3
370
    25
100
AcDbPoint
 10
3242.782211423031
 20
5911.336583223071
 30
0.0
  0
ENDBLK
  5
31D
330
312
100
AcDbEntity
  8
0
 48
0.3
370
    25
100
AcDbBlockEnd
  0
BLOCK
  5
31F
330
31E
100
AcDbEntity
  8
0
 48
0.3
370
    25
100
AcDbBlockBegin
  2
*D13
 70
     1
 10
0.0
 20
0.0
 30
0.0
  3
*D13
  1

  0
LINE
  5
320
330
31E
100
AcDbEntity
  8
Bemassung
 62
     0
 48
0.3
370
    -2
100
AcDbLine
 10
3221.876727602121
 20
6131.336583223073
 30
0.0
 11
3257.847421224217
 21
6131.336583223073
 31
0.0
  0
LINE
  5
321
330
31E
100
AcDbEntity
  8
Bemassung
 62
     0
 48
0.3
370
    -2
100
AcDbLine
 10
3014.876727602123
 20
5893.336583223071
 30
0.0
 11
3257.847421224217
 21
5893.336583223071
 31
0.0
  0
LINE
  5
322
330
31E
100
AcDbEntity
  8
Bemassung
 62
     0
 48
0.3
370
    -2
100
AcDbLine
 10
3256.597421224217
 20
6127.336583223073
 30
0.0
 11
3256.597421224217
 21
5897.336583223071
 31
0.0
  0
SOLID
  5
323
330
31E
100
AcDbEntity
  8
Bemassung
 62
     0
 48
0.3
370
    25
100
AcDbTrace
 10
3255.930754557552
 20
6127.336583223073
 30
0.0
 11
3257.264087890884
 21
6127.336583223073
 31
0.0
 12
3256.597421224217
 22
6131.336583223073
 32
0.0
 13
3256.597421224217
 23
6131.336583223073
 33
0.0
  0
SOLID
  5
324
330
31E
100
AcDbEntity
  8
Bemassung
 62
     0
 48
0.3
370
    25
100
AcDbTrace
 10
3255.930754557552
 20
5897.336583223071
 30
0.0
 11
3257.264087890884
 21
5897.336583223071
 31
0.0
 12
3256.597421224217
 22
5893.336583223071
 32
0.0
 13
3256.597421224217
 23
5893.336583223071
 33
0.0
  0
MTEXT
  5
325
330
31E
100
AcDbEntity
  8
Bemassung
 62
     0
 48
0.3
370
    35
100
AcDbMText
 10
3252.906936913166
 20
6012.336583223071
 30
0.0
 40
6.0
 41
0.0
 71
     5
 72
     1
  1
\A1;238
 11
0.0000000000000001
 21
1.0
 31
0.0
 73
     1
 44
1.0
1001
ACAD
1000
MTEXTBEGIN
1070
    73
1070
     1
1070
    44
1040
1.0
1070
    74
1070
     0
1000
MTEXTEND
  0
POINT
  5
326
330
31E
100
AcDbEntity
  8
Defpoints
 62
     0
 48
0.3
370
    25
100
AcDbPoint
 10
3221.25172760212
 20
6131.336583223073
 30
0.0
  0
POINT
  5
327
330
31E
100
AcDbEntity
  8
Defpoints
 62
     0
 48
0.3
370
    25
100
AcDbPoint
 10
3014.251727602123
 20
5893.336583223071
 30
0.0
  0
POINT
  5
328
330
31E
100
AcDbEntity
  8
Defpoints
 62
     0
 48
0.3
370
    25
100
AcDbPoint
 10
3256.597421224217
 20
5893.336583223071
 30
0.0
  0
ENDBLK
  5
329
330
31E
100
AcDbEntity
  8
0
 48
0.3
370
    25
100
AcDbBlockEnd
  0
BLOCK
  5
32B
330
32A
100
AcDbEntity
  8
0
 48
0.3
370
    25
100
AcDbBlockBegin
  2
*D14
 70
     1
 10
0.0
 20
0.0
 30
0.0
  3
*D14
  1

  0
LINE
  5
32C
330
32A
100
AcDbEntity
  8
AM_5
 62
     0
370
    -2
100
AcDbLine
 10
3237.51693241628
 20
6553.760832161325
 30
0.0
 11
3217.490899196454
 21
6544.958192180304
 31
0.0
  0
LINE
  5
32D
330
32A
100
AcDbEntity
  8
AM_5
 62
     0
370
    -2
100
AcDbLine
 10
3201.012556007787
 20
6537.714974265838
 30
0.0
 11
3197.350701965858
 21
6536.105370284845
 31
0.0
  0
MTEXT
  5
32E
102
{ACAD_XDICTIONARY
360
86C
102
}
330
32A
100
AcDbEntity
  8
AM_5
 62
     0
100
AcDbMText
 10
3231.902312005345
 20
6554.034531784862
 30
0.0
 40
3.5
 41
0.0
 71
     5
 72
     1
  1
\A1;\U+220510
 11
0.9154635104816001
 21
0.4024009952481543
 31
0.0
 73
     1
 44
1.0
1001
ACAD
1000
MTEXTBEGIN
1070
    73
1070
     1
1070
    44
1040
1.0
1070
    74
1070
     0
1000
MTEXTEND
  0
LINE
  5
32F
330
32A
100
AcDbEntity
  8
AM_5
 62
     0
370
    -2
100
AcDbLine
 10
3204.674410049712
 20
6539.32457824683
 30
0.0
 11
3213.829045154528
 21
6543.348588199312
 31
0.0
  0
SOLID
  5
330
330
32A
100
AcDbEntity
  8
AM_5
 62
     0
370
    25
100
AcDbTrace
 10
3200.74428867762
 20
6538.325283272825
 30
0.0
 11
3201.280823337951
 21
6537.104665258849
 31
0.0
 12
3204.674410049712
 22
6539.32457824683
 32
0.0
 13
3204.674410049712
 23
6539.32457824683
 33
0.0
  0
SOLID
  5
331
330
32A
100
AcDbEntity
  8
AM_5
 62
     0
370
    25
100
AcDbTrace
 10
3217.222631866289
 20
6545.568501187291
 30
0.0
 11
3217.75916652662
 21
6544.347883173315
 31
0.0
 12
3213.829045154528
 22
6543.348588199312
 32
0.0
 13
3213.829045154528
 23
6543.348588199312
 33
0.0
  0
POINT
  5
332
330
32A
100
AcDbEntity
  8
Defpoints
 62
     0
370
    25
100
AcDbPoint
 10
3213.829045154528
 20
6543.348588199312
 30
0.0
  0
POINT
  5
333
330
32A
100
AcDbEntity
  8
Defpoints
 62
     0
370
    25
100
AcDbPoint
 10
3204.674410049712
 20
6539.32457824683
 30
0.0
  0
ENDBLK
  5
334
330
32A
100
AcDbEntity
  8
0
 48
0.3
370
    25
100
AcDbBlockEnd
  0
BLOCK
  5
49D
330
49C
100
AcDbEntity
  8
0
100
AcDbBlockBegin
  2
*D15
 70
     1
 10
0.0
 20
0.0
 30
0.0
  3
*D15
  1

  0
LINE
  5
536
330
49C
100
AcDbEntity
  8
Bemassung
 62
     0
 48
0.3
370
    -2
100
AcDbLine
 10
2546.930301396407
 20
1869.141812122362
 30
0.0
 11
2546.930301396407
 21
1877.861011144161
 31
0.0
  0
LINE
  5
537
330
49C
100
AcDbEntity
  8
Bemassung
 62
     0
 48
0.3
370
    -2
100
AcDbLine
 10
2796.930301396407
 20
1869.141812122362
 30
0.0
 11
2796.930301396407
 21
1877.861011144161
 31
0.0
  0
LINE
  5
538
330
49C
100
AcDbEntity
  8
Bemassung
 62
     0
 48
0.3
370
    -2
100
AcDbLine
 10
2550.930301396407
 20
1876.611011144161
 30
0.0
 11
2792.930301396407
 21
1876.611011144161
 31
0.0
  0
SOLID
  5
539
330
49C
100
AcDbEntity
  8
Bemassung
 62
     0
 48
0.3
100
AcDbTrace
 10
2550.930301396407
 20
1877.277677810828
 30
0.0
 11
2550.930301396407
 21
1875.944344477494
 31
0.0
 12
2546.930301396407
 22
1876.611011144161
 32
0.0
 13
2546.930301396407
 23
1876.611011144161
 33
0.0
  0
SOLID
  5
53A
330
49C
100
AcDbEntity
  8
Bemassung
 62
     0
 48
0.3
100
AcDbTrace
 10
2792.930301396407
 20
1877.277677810828
 30
0.0
 11
2792.930301396407
 21
1875.944344477494
 31
0.0
 12
2796.930301396407
 22
1876.611011144161
 32
0.0
 13
2796.930301396407
 23
1876.611011144161
 33
0.0
  0
MTEXT
  5
53B
330
49C
100
AcDbEntity
  8
Bemassung
 62
     0
 48
0.3
370
    35
100
AcDbMText
 10
2671.930301396407
 20
1880.236601695342
 30
0.0
 40
6.0
 41
0.0
 71
     5
 72
     1
  1
\A1;250
 73
     1
 44
1.0
1001
ACAD
1000
MTEXTBEGIN
1070
    73
1070
     1
1070
    44
1040
1.0
1070
    74
1070
     0
1000
MTEXTEND
  0
POINT
  5
53C
330
49C
100
AcDbEntity
  8
Defpoints
 62
     0
 48
0.3
100
AcDbPoint
 10
2546.930301396407
 20
1868.516812122362
 30
0.0
  0
POINT
  5
53D
330
49C
100
AcDbEntity
  8
Defpoints
 62
     0
 48
0.3
100
AcDbPoint
 10
2796.930301396407
 20
1868.516812122362
 30
0.0
  0
POINT
  5
53E
330
49C
100
AcDbEntity
  8
Defpoints
 62
     0
 48
0.3
100
AcDbPoint
 10
2796.930301396407
 20
1876.611011144161
 30
0.0
  0
ENDBLK
  5
49E
330
49C
100
AcDbEntity
  8
0
100
AcDbBlockEnd
  0
BLOCK
  5
4A9
330
4A8
100
AcDbEntity
  8
0
100
AcDbBlockBegin
  2
*D16
 70
     1
 10
0.0
 20
0.0
 30
0.0
  3
*D16
  1

  0
LINE
  5
53F
330
4A8
100
AcDbEntity
  8
Bemassung
 62
     0
 48
0.3
370
    -2
100
AcDbLine
 10
2797.555301396406
 20
1868.516812122362
 30
0.0
 11
2812.316219198573
 21
1868.516812122362
 31
0.0
  0
LINE
  5
540
330
4A8
100
AcDbEntity
  8
Bemassung
 62
     0
 48
0.3
370
    -2
100
AcDbLine
 10
2785.555301396406
 20
1448.516812122362
 30
0.0
 11
2812.316219198573
 21
1448.516812122362
 31
0.0
  0
LINE
  5
541
330
4A8
100
AcDbEntity
  8
Bemassung
 62
     0
 48
0.3
370
    -2
100
AcDbLine
 10
2811.066219198573
 20
1864.516812122362
 30
0.0
 11
2811.066219198573
 21
1452.516812122362
 31
0.0
  0
SOLID
  5
542
330
4A8
100
AcDbEntity
  8
Bemassung
 62
     0
 48
0.3
100
AcDbTrace
 10
2810.399552531907
 20
1864.516812122362
 30
0.0
 11
2811.73288586524
 21
1864.516812122362
 31
0.0
 12
2811.066219198573
 22
1868.516812122362
 32
0.0
 13
2811.066219198573
 23
1868.516812122362
 33
0.0
  0
SOLID
  5
543
330
4A8
100
AcDbEntity
  8
Bemassung
 62
     0
 48
0.3
100
AcDbTrace
 10
2810.399552531907
 20
1452.516812122362
 30
0.0
 11
2811.73288586524
 21
1452.516812122362
 31
0.0
 12
2811.066219198573
 22
1448.516812122362
 32
0.0
 13
2811.066219198573
 23
1448.516812122362
 33
0.0
  0
MTEXT
  5
544
330
4A8
100
AcDbEntity
  8
Bemassung
 62
     0
 48
0.3
370
    35
100
AcDbMText
 10
2807.440628647391
 20
1658.516812122362
 30
0.0
 40
6.0
 41
0.0
 71
     5
 72
     1
  1
\A1;420
 11
0.0000000000000001
 21
1.0
 31
0.0
 73
     1
 44
1.0
1001
ACAD
1000
MTEXTBEGIN
1070
    73
1070
     1
1070
    44
1040
1.0
1070
    74
1070
     0
1000
MTEXTEND
  0
POINT
  5
545
330
4A8
100
AcDbEntity
  8
Defpoints
 62
     0
 48
0.3
100
AcDbPoint
 10
2796.930301396407
 20
1868.516812122362
 30
0.0
  0
POINT
  5
546
330
4A8
100
AcDbEntity
  8
Defpoints
 62
     0
 48
0.3
100
AcDbPoint
 10
2784.930301396407
 20
1448.516812122362
 30
0.0
  0
POINT
  5
547
330
4A8
100
AcDbEntity
  8
Defpoints
 62
     0
 48
0.3
100
AcDbPoint
 10
2811.066219198573
 20
1448.516812122362
 30
0.0
  0
ENDBLK
  5
4AA
330
4A8
100
AcDbEntity
  8
0
100
AcDbBlockEnd
  0
BLOCK
  5
4B5
330
4B4
100
AcDbEntity
  8
0
100
AcDbBlockBegin
  2
*D17
 70
     1
 10
0.0
 20
0.0
 30
0.0
  3
*D17
  1

  0
LINE
  5
548
330
4B4
100
AcDbEntity
  8
Bemassung
 62
     0
 48
0.3
370
    -2
100
AcDbLine
 10
2030.713115449779
 20
1868.516812122362
 30
0.0
 11
2012.871835780537
 21
1868.516812122362
 31
0.0
  0
LINE
  5
549
330
4B4
100
AcDbEntity
  8
Bemassung
 62
     0
 48
0.3
370
    -2
100
AcDbLine
 10
2041.71311544978
 20
1778.516812122362
 30
0.0
 11
2012.871835780537
 21
1778.516812122362
 31
0.0
  0
LINE
  5
54A
330
4B4
100
AcDbEntity
  8
Bemassung
 62
     0
 48
0.3
370
    -2
100
AcDbLine
 10
2014.121835780537
 20
1864.516812122362
 30
0.0
 11
2014.121835780537
 21
1782.516812122362
 31
0.0
  0
SOLID
  5
54B
330
4B4
100
AcDbEntity
  8
Bemassung
 62
     0
 48
0.3
100
AcDbTrace
 10
2013.45516911387
 20
1864.516812122362
 30
0.0
 11
2014.788502447204
 21
1864.516812122362
 31
0.0
 12
2014.121835780537
 22
1868.516812122362
 32
0.0
 13
2014.121835780537
 23
1868.516812122362
 33
0.0
  0
SOLID
  5
54C
330
4B4
100
AcDbEntity
  8
Bemassung
 62
     0
 48
0.3
100
AcDbTrace
 10
2013.45516911387
 20
1782.516812122362
 30
0.0
 11
2014.788502447204
 21
1782.516812122362
 31
0.0
 12
2014.121835780537
 22
1778.516812122362
 32
0.0
 13
2014.121835780537
 23
1778.516812122362
 33
0.0
  0
MTEXT
  5
54D
330
4B4
100
AcDbEntity
  8
Bemassung
 62
     0
 48
0.3
370
    35
100
AcDbMText
 10
2010.496835780537
 20
1823.516812122363
 30
0.0
 40
6.0
 41
0.0
 71
     5
 72
     1
  1
\A1;90
 11
0.0000000000000001
 21
1.0
 31
0.0
 73
     1
 44
1.0
1001
ACAD
1000
MTEXTBEGIN
1070
    73
1070
     1
1070
    44
1040
1.0
1070
    74
1070
     0
1000
MTEXTEND
  0
POINT
  5
54E
330
4B4
100
AcDbEntity
  8
Defpoints
 62
     0
 48
0.3
100
AcDbPoint
 10
2031.33811544978
 20
1868.516812122362
 30
0.0
  0
POINT
  5
54F
330
4B4
100
AcDbEntity
  8
Defpoints
 62
     0
 48
0.3
100
AcDbPoint
 10
2042.33811544978
 20
1778.516812122362
 30
0.0
  0
POINT
  5
550
330
4B4
100
AcDbEntity
  8
Defpoints
 62
     0
 48
0.3
100
AcDbPoint
 10
2014.121835780537
 20
1778.516812122362
 30
0.0
  0
ENDBLK
  5
4B6
330
4B4
100
AcDbEntity
  8
0
100
AcDbBlockEnd
  0
BLOCK
  5
4C1
330
4C0
100
AcDbEntity
  8
0
100
AcDbBlockBegin
  2
*D18
 70
     1
 10
0.0
 20
0.0
 30
0.0
  3
*D18
  1

  0
LINE
  5
551
330
4C0
100
AcDbEntity
  8
Bemassung
 62
     0
 48
0.3
370
    -2
100
AcDbLine
 10
2041.71311544978
 20
1778.516812122362
 30
0.0
 11
2012.871835780536
 21
1778.516812122362
 31
0.0
  0
LINE
  5
552
330
4C0
100
AcDbEntity
  8
Bemassung
 62
     0
 48
0.3
370
    -2
100
AcDbLine
 10
2041.71311544978
 20
1578.516812122362
 30
0.0
 11
2012.871835780536
 21
1578.516812122362
 31
0.0
  0
LINE
  5
553
330
4C0
100
AcDbEntity
  8
Bemassung
 62
     0
 48
0.3
370
    -2
100
AcDbLine
 10
2014.121835780537
 20
1774.516812122362
 30
0.0
 11
2014.121835780537
 21
1582.516812122362
 31
0.0
  0
SOLID
  5
554
330
4C0
100
AcDbEntity
  8
Bemassung
 62
     0
 48
0.3
100
AcDbTrace
 10
2013.45516911387
 20
1774.516812122362
 30
0.0
 11
2014.788502447203
 21
1774.516812122362
 31
0.0
 12
2014.121835780537
 22
1778.516812122362
 32
0.0
 13
2014.121835780537
 23
1778.516812122362
 33
0.0
  0
SOLID
  5
555
330
4C0
100
AcDbEntity
  8
Bemassung
 62
     0
 48
0.3
100
AcDbTrace
 10
2013.45516911387
 20
1582.516812122362
 30
0.0
 11
2014.788502447203
 21
1582.516812122362
 31
0.0
 12
2014.121835780537
 22
1578.516812122362
 32
0.0
 13
2014.121835780537
 23
1578.516812122362
 33
0.0
  0
MTEXT
  5
556
330
4C0
100
AcDbEntity
  8
Bemassung
 62
     0
 48
0.3
370
    35
100
AcDbMText
 10
2010.496245229355
 20
1678.516812122363
 30
0.0
 40
6.0
 41
0.0
 71
     5
 72
     1
  1
\A1;200
 11
0.0000000000000001
 21
1.0
 31
0.0
 73
     1
 44
1.0
1001
ACAD
1000
MTEXTBEGIN
1070
    73
1070
     1
1070
    44
1040
1.0
1070
    74
1070
     0
1000
MTEXTEND
  0
POINT
  5
557
330
4C0
100
AcDbEntity
  8
Defpoints
 62
     0
 48
0.3
100
AcDbPoint
 10
2042.33811544978
 20
1778.516812122362
 30
0.0
  0
POINT
  5
558
330
4C0
100
AcDbEntity
  8
Defpoints
 62
     0
 48
0.3
100
AcDbPoint
 10
2042.33811544978
 20
1578.516812122362
 30
0.0
  0
POINT
  5
559
330
4C0
100
AcDbEntity
  8
Defpoints
 62
     0
 48
0.3
100
AcDbPoint
 10
2014.121835780537
 20
1578.516812122362
 30
0.0
  0
ENDBLK
  5
4C2
330
4C0
100
AcDbEntity
  8
0
100
AcDbBlockEnd
  0
BLOCK
  5
4CD
330
4CC
100
AcDbEntity
  8
0
100
AcDbBlockBegin
  2
*D19
 70
     1
 10
0.0
 20
0.0
 30
0.0
  3
*D19
  1

  0
LINE
  5
55A
330
4CC
100
AcDbEntity
  8
Bemassung
 62
     0
 48
0.3
370
    -2
100
AcDbLine
 10
2031.33811544978
 20
1869.141812122362
 30
0.0
 11
2031.33811544978
 21
1881.446276649751
 31
0.0
  0
LINE
  5
55B
330
4CC
100
AcDbEntity
  8
Bemassung
 62
     0
 48
0.3
370
    -2
100
AcDbLine
 10
2451.338115449781
 20
1869.141812122362
 30
0.0
 11
2451.338115449781
 21
1881.446276649751
 31
0.0
  0
LINE
  5
55C
330
4CC
100
AcDbEntity
  8
Bemassung
 62
     0
 48
0.3
370
    -2
100
AcDbLine
 10
2035.33811544978
 20
1880.196276649751
 30
0.0
 11
2447.33811544978
 21
1880.196276649751
 31
0.0
  0
SOLID
  5
55D
330
4CC
100
AcDbEntity
  8
Bemassung
 62
     0
 48
0.3
100
AcDbTrace
 10
2035.33811544978
 20
1880.862943316418
 30
0.0
 11
2035.33811544978
 21
1879.529609983084
 31
0.0
 12
2031.33811544978
 22
1880.196276649751
 32
0.0
 13
2031.33811544978
 23
1880.196276649751
 33
0.0
  0
SOLID
  5
55E
330
4CC
100
AcDbEntity
  8
Bemassung
 62
     0
 48
0.3
100
AcDbTrace
 10
2447.33811544978
 20
1880.862943316418
 30
0.0
 11
2447.33811544978
 21
1879.529609983084
 31
0.0
 12
2451.338115449781
 22
1880.196276649751
 32
0.0
 13
2451.338115449781
 23
1880.196276649751
 33
0.0
  0
MTEXT
  5
55F
330
4CC
100
AcDbEntity
  8
Bemassung
 62
     0
 48
0.3
370
    35
100
AcDbMText
 10
2241.33811544978
 20
1883.821867200932
 30
0.0
 40
6.0
 41
0.0
 71
     5
 72
     1
  1
\A1;420
 73
     1
 44
1.0
1001
ACAD
1000
MTEXTBEGIN
1070
    73
1070
     1
1070
    44
1040
1.0
1070
    74
1070
     0
1000
MTEXTEND
  0
POINT
  5
560
330
4CC
100
AcDbEntity
  8
Defpoints
 62
     0
 48
0.3
100
AcDbPoint
 10
2031.33811544978
 20
1868.516812122362
 30
0.0
  0
POINT
  5
561
330
4CC
100
AcDbEntity
  8
Defpoints
 62
     0
 48
0.3
100
AcDbPoint
 10
2451.338115449781
 20
1868.516812122362
 30
0.0
  0
POINT
  5
562
330
4CC
100
AcDbEntity
  8
Defpoints
 62
     0
 48
0.3
100
AcDbPoint
 10
2451.338115449781
 20
1880.196276649751
 30
0.0
  0
ENDBLK
  5
4CE
330
4CC
100
AcDbEntity
  8
0
100
AcDbBlockEnd
  0
BLOCK
  5
4D9
330
4D8
100
AcDbEntity
  8
0
100
AcDbBlockBegin
  2
*D20
 70
     1
 10
0.0
 20
0.0
 30
0.0
  3
*D20
  1

  0
LINE
  5
563
330
4D8
100
AcDbEntity
  8
Bemassung
 62
     0
 48
0.3
370
    -2
100
AcDbLine
 10
2046.338115449779
 20
1583.141812122362
 30
0.0
 11
2046.338115449779
 21
1618.634277429693
 31
0.0
  0
LINE
  5
564
330
4D8
100
AcDbEntity
  8
Bemassung
 62
     0
 48
0.3
370
    -2
100
AcDbLine
 10
2436.33811544978
 20
1583.141812122362
 30
0.0
 11
2436.33811544978
 21
1618.634277429693
 31
0.0
  0
LINE
  5
565
330
4D8
100
AcDbEntity
  8
Bemassung
 62
     0
 48
0.3
370
    -2
100
AcDbLine
 10
2050.33811544978
 20
1617.384277429693
 30
0.0
 11
2432.33811544978
 21
1617.384277429693
 31
0.0
  0
SOLID
  5
566
330
4D8
100
AcDbEntity
  8
Bemassung
 62
     0
 48
0.3
100
AcDbTrace
 10
2050.33811544978
 20
1618.05094409636
 30
0.0
 11
2050.33811544978
 21
1616.717610763027
 31
0.0
 12
2046.338115449779
 22
1617.384277429693
 32
0.0
 13
2046.338115449779
 23
1617.384277429693
 33
0.0
  0
SOLID
  5
567
330
4D8
100
AcDbEntity
  8
Bemassung
 62
     0
 48
0.3
100
AcDbTrace
 10
2432.33811544978
 20
1618.05094409636
 30
0.0
 11
2432.33811544978
 21
1616.717610763027
 31
0.0
 12
2436.33811544978
 22
1617.384277429693
 32
0.0
 13
2436.33811544978
 23
1617.384277429693
 33
0.0
  0
MTEXT
  5
568
330
4D8
100
AcDbEntity
  8
Bemassung
 62
     0
 48
0.3
370
    35
100
AcDbMText
 10
2241.33811544978
 20
1621.009277429693
 30
0.0
 40
6.0
 41
0.0
 71
     5
 72
     1
  1
\A1;390
 73
     1
 44
1.0
1001
ACAD
1000
MTEXTBEGIN
1070
    73
1070
     1
1070
    44
1040
1.0
1070
    74
1070
     0
1000
MTEXTEND
  0
POINT
  5
569
330
4D8
100
AcDbEntity
  8
Defpoints
 62
     0
 48
0.3
100
AcDbPoint
 10
2046.338115449779
 20
1582.516812122362
 30
0.0
  0
POINT
  5
56A
330
4D8
100
AcDbEntity
  8
Defpoints
 62
     0
 48
0.3
100
AcDbPoint
 10
2436.33811544978
 20
1582.516812122362
 30
0.0
  0
POINT
  5
56B
330
4D8
100
AcDbEntity
  8
Defpoints
 62
     0
 48
0.3
100
AcDbPoint
 10
2436.33811544978
 20
1617.384277429693
 30
0.0
  0
ENDBLK
  5
4DA
330
4D8
100
AcDbEntity
  8
0
100
AcDbBlockEnd
  0
BLOCK
  5
4E5
330
4E4
100
AcDbEntity
  8
0
100
AcDbBlockBegin
  2
*D21
 70
     1
 10
0.0
 20
0.0
 30
0.0
  3
*D21
  1

  0
LINE
  5
56C
330
4E4
100
AcDbEntity
  8
Bemassung
 62
     0
 48
0.3
370
    -2
100
AcDbLine
 10
2063.33811544978
 20
1369.141812122362
 30
0.0
 11
2063.33811544978
 21
1394.735544806328
 31
0.0
  0
LINE
  5
56D
330
4E4
100
AcDbEntity
  8
Bemassung
 62
     0
 48
0.3
370
    -2
100
AcDbLine
 10
2419.338115449782
 20
1369.141812122362
 30
0.0
 11
2419.338115449782
 21
1394.735544806328
 31
0.0
  0
LINE
  5
56E
330
4E4
100
AcDbEntity
  8
Bemassung
 62
     0
 48
0.3
370
    -2
100
AcDbLine
 10
2067.33811544978
 20
1393.485544806328
 30
0.0
 11
2415.338115449782
 21
1393.485544806328
 31
0.0
  0
SOLID
  5
56F
330
4E4
100
AcDbEntity
  8
Bemassung
 62
     0
 48
0.3
100
AcDbTrace
 10
2067.33811544978
 20
1394.152211472995
 30
0.0
 11
2067.33811544978
 21
1392.818878139661
 31
0.0
 12
2063.33811544978
 22
1393.485544806328
 32
0.0
 13
2063.33811544978
 23
1393.485544806328
 33
0.0
  0
SOLID
  5
570
330
4E4
100
AcDbEntity
  8
Bemassung
 62
     0
 48
0.3
100
AcDbTrace
 10
2415.338115449782
 20
1394.152211472995
 30
0.0
 11
2415.338115449782
 21
1392.818878139661
 31
0.0
 12
2419.338115449782
 22
1393.485544806328
 32
0.0
 13
2419.338115449782
 23
1393.485544806328
 33
0.0
  0
MTEXT
  5
571
330
4E4
100
AcDbEntity
  8
Bemassung
 62
     0
 48
0.3
370
    35
100
AcDbMText
 10
2241.338115449781
 20
1397.110544806328
 30
0.0
 40
6.0
 41
0.0
 71
     5
 72
     1
  1
\A1;356
 73
     1
 44
1.0
1001
ACAD
1000
MTEXTBEGIN
1070
    73
1070
     1
1070
    44
1040
1.0
1070
    74
1070
     0
1000
MTEXTEND
  0
POINT
  5
572
330
4E4
100
AcDbEntity
  8
Defpoints
 62
     0
 48
0.3
100
AcDbPoint
 10
2063.33811544978
 20
1368.516812122362
 30
0.0
  0
POINT
  5
573
330
4E4
100
AcDbEntity
  8
Defpoints
 62
     0
 48
0.3
100
AcDbPoint
 10
2419.338115449782
 20
1368.516812122362
 30
0.0
  0
POINT
  5
574
330
4E4
100
AcDbEntity
  8
Defpoints
 62
     0
 48
0.3
100
AcDbPoint
 10
2419.338115449782
 20
1393.485544806328
 30
0.0
  0
ENDBLK
  5
4E6
330
4E4
100
AcDbEntity
  8
0
100
AcDbBlockEnd
  0
BLOCK
  5
4F1
330
4F0
100
AcDbEntity
  8
0
100
AcDbBlockBegin
  2
*D22
 70
     1
 10
0.0
 20
0.0
 30
0.0
  3
*D22
  1

  0
LINE
  5
575
330
4F0
100
AcDbEntity
  8
Bemassung
 62
     0
 48
0.3
370
    -2
100
AcDbLine
 10
2356.737355974782
 20
1331.207029323538
 30
0.0
 11
2329.33552075766
 21
1313.946557377781
 31
0.0
  0
LINE
  5
576
330
4F0
100
AcDbEntity
  8
Bemassung
 62
     0
 48
0.3
370
    -2
100
AcDbLine
 10
2153.3407101419
 20
1203.087066866942
 30
0.0
 11
2149.956194553135
 21
1200.955153587887
 31
0.0
  0
MTEXT
  5
577
102
{ACAD_XDICTIONARY
360
86E
102
}
330
4F0
100
AcDbEntity
  8
Bemassung
 62
     0
 48
0.3
370
    35
100
AcDbMText
 10
2347.420521456992
 20
1329.623251414433
 30
0.0
 40
6.0
 41
0.0
 71
     5
 72
     1
  1
\A1;\U+2205200
 11
0.8461288971911518
 21
0.5329783197636518
 31
0.0
 73
     1
 44
1.0
1001
ACAD
1000
MTEXTBEGIN
1070
    73
1070
     1
1070
    44
1040
1.0
1070
    74
1070
     0
1000
MTEXTEND
  0
LINE
  5
578
330
4F0
100
AcDbEntity
  8
Bemassung
 62
     0
 48
0.3
370
    -2
100
AcDbLine
 10
2156.725225730665
 20
1205.218980145996
 30
0.0
 11
2325.951005168895
 21
1311.814644098726
 31
0.0
  0
SOLID
  5
579
330
4F0
100
AcDbEntity
  8
Bemassung
 62
     0
 48
0.3
100
AcDbTrace
 10
2152.985391262058
 20
1203.651152798402
 30
0.0
 11
2153.696029021743
 21
1202.522980935481
 31
0.0
 12
2156.725225730665
 22
1205.218980145996
 32
0.0
 13
2156.725225730665
 23
1205.218980145996
 33
0.0
  0
SOLID
  5
57A
330
4F0
100
AcDbEntity
  8
Bemassung
 62
     0
 48
0.3
100
AcDbTrace
 10
2328.980201877818
 20
1314.510643309242
 30
0.0
 11
2329.690839637502
 21
1313.38247144632
 31
0.0
 12
2325.951005168895
 22
1311.814644098726
 32
0.0
 13
2325.951005168895
 23
1311.814644098726
 33
0.0
  0
POINT
  5
57B
330
4F0
100
AcDbEntity
  8
Defpoints
 62
     0
 48
0.3
100
AcDbPoint
 10
2325.951005168895
 20
1311.814644098726
 30
0.0
  0
POINT
  5
57C
330
4F0
100
AcDbEntity
  8
Defpoints
 62
     0
 48
0.3
100
AcDbPoint
 10
2156.725225730665
 20
1205.218980145996
 30
0.0
  0
ENDBLK
  5
4F2
330
4F0
100
AcDbEntity
  8
0
100
AcDbBlockEnd
  0
BLOCK
  5
4FC
330
4FB
100
AcDbEntity
  8
0
100
AcDbBlockBegin
  2
*D23
 70
     1
 10
0.0
 20
0.0
 30
0.0
  3
*D23
  1

  0
LINE
  5
57D
330
4FB
100
AcDbEntity
  8
Bemassung
 62
     0
 48
0.3
370
    -2
100
AcDbLine
 10
2769.930301396406
 20
1527.891812122362
 30
0.0
 11
2769.930301396406
 21
1423.580251702226
 31
0.0
  0
LINE
  5
57E
330
4FB
100
AcDbEntity
  8
Bemassung
 62
     0
 48
0.3
370
    -2
100
AcDbLine
 10
2546.930301396407
 20
1527.891812122363
 30
0.0
 11
2546.930301396407
 21
1423.580251702226
 31
0.0
  0
LINE
  5
57F
330
4FB
100
AcDbEntity
  8
Bemassung
 62
     0
 48
0.3
370
    -2
100
AcDbLine
 10
2765.930301396406
 20
1424.830251702227
 30
0.0
 11
2550.930301396407
 21
1424.830251702227
 31
0.0
  0
SOLID
  5
580
330
4FB
100
AcDbEntity
  8
Bemassung
 62
     0
 48
0.3
100
AcDbTrace
 10
2765.930301396406
 20
1425.496918368893
 30
0.0
 11
2765.930301396406
 21
1424.16358503556
 31
0.0
 12
2769.930301396406
 22
1424.830251702227
 32
0.0
 13
2769.930301396406
 23
1424.830251702227
 33
0.0
  0
SOLID
  5
581
330
4FB
100
AcDbEntity
  8
Bemassung
 62
     0
 48
0.3
100
AcDbTrace
 10
2550.930301396407
 20
1425.496918368893
 30
0.0
 11
2550.930301396407
 21
1424.16358503556
 31
0.0
 12
2546.930301396407
 22
1424.830251702227
 32
0.0
 13
2546.930301396407
 23
1424.830251702227
 33
0.0
  0
MTEXT
  5
582
330
4FB
100
AcDbEntity
  8
Bemassung
 62
     0
 48
0.3
370
    35
100
AcDbMText
 10
2658.430301396407
 20
1428.455842253408
 30
0.0
 40
6.0
 41
0.0
 71
     5
 72
     1
  1
\A1;223
 73
     1
 44
1.0
1001
ACAD
1000
MTEXTBEGIN
1070
    73
1070
     1
1070
    44
1040
1.0
1070
    74
1070
     0
1000
MTEXTEND
  0
POINT
  5
583
330
4FB
100
AcDbEntity
  8
Defpoints
 62
     0
 48
0.3
100
AcDbPoint
 10
2769.930301396406
 20
1528.516812122362
 30
0.0
  0
POINT
  5
584
330
4FB
100
AcDbEntity
  8
Defpoints
 62
     0
 48
0.3
100
AcDbPoint
 10
2546.930301396407
 20
1528.516812122363
 30
0.0
  0
POINT
  5
585
330
4FB
100
AcDbEntity
  8
Defpoints
 62
     0
 48
0.3
100
AcDbPoint
 10
2546.930301396407
 20
1424.830251702227
 30
0.0
  0
ENDBLK
  5
4FD
330
4FB
100
AcDbEntity
  8
0
100
AcDbBlockEnd
  0
BLOCK
  5
508
330
507
100
AcDbEntity
  8
0
100
AcDbBlockBegin
  2
*D24
 70
     1
 10
0.0
 20
0.0
 30
0.0
  3
*D24
  1

  0
LINE
  5
818
330
507
100
AcDbEntity
  8
Bemassung
 62
     0
 48
0.3
370
    -2
100
AcDbLine
 10
2402.273178211546
 20
1369.141812122362
 30
0.0
 11
2402.273178211546
 21
1382.958657456345
 31
0.0
  0
LINE
  5
819
330
507
100
AcDbEntity
  8
Bemassung
 62
     0
 48
0.3
370
    -2
100
AcDbLine
 10
2080.403052688017
 20
1369.141812122362
 30
0.0
 11
2080.403052688017
 21
1382.958657456345
 31
0.0
  0
LINE
  5
81A
330
507
100
AcDbEntity
  8
Bemassung
 62
     0
 48
0.3
370
    -2
100
AcDbLine
 10
2398.273178211545
 20
1381.708657456345
 30
0.0
 11
2084.403052688017
 21
1381.708657456345
 31
0.0
  0
SOLID
  5
81B
330
507
100
AcDbEntity
  8
Bemassung
 62
     0
 48
0.3
100
AcDbTrace
 10
2398.273178211545
 20
1382.375324123012
 30
0.0
 11
2398.273178211545
 21
1381.041990789678
 31
0.0
 12
2402.273178211546
 22
1381.708657456345
 32
0.0
 13
2402.273178211546
 23
1381.708657456345
 33
0.0
  0
SOLID
  5
81C
330
507
100
AcDbEntity
  8
Bemassung
 62
     0
 48
0.3
100
AcDbTrace
 10
2084.403052688017
 20
1382.375324123012
 30
0.0
 11
2084.403052688017
 21
1381.041990789678
 31
0.0
 12
2080.403052688017
 22
1381.708657456345
 32
0.0
 13
2080.403052688017
 23
1381.708657456345
 33
0.0
  0
MTEXT
  5
81D
330
507
100
AcDbEntity
  8
Bemassung
 62
     0
 48
0.3
370
    35
100
AcDbMText
 10
2241.338115449781
 20
1385.334248007526
 30
0.0
 40
6.0
 41
0.0
 71
     5
 72
     1
  1
\A1;320
 73
     1
 44
1.0
1001
ACAD
1000
MTEXTBEGIN
1070
    73
1070
     1
1070
    44
1040
1.0
1070
    74
1070
     0
1000
MTEXTEND
  0
POINT
  5
81E
330
507
100
AcDbEntity
  8
Defpoints
 62
     0
 48
0.3
100
AcDbPoint
 10
2402.273178211546
 20
1368.516812122362
 30
0.0
  0
POINT
  5
81F
330
507
100
AcDbEntity
  8
Defpoints
 62
     0
 48
0.3
100
AcDbPoint
 10
2080.403052688017
 20
1368.516812122362
 30
0.0
  0
POINT
  5
820
330
507
100
AcDbEntity
  8
Defpoints
 62
     0
 48
0.3
100
AcDbPoint
 10
2080.403052688017
 20
1381.708657456345
 30
0.0
  0
ENDBLK
  5
509
330
507
100
AcDbEntity
  8
0
100
AcDbBlockEnd
  0
BLOCK
  5
514
330
513
100
AcDbEntity
  8
0
100
AcDbBlockBegin
  2
*D25
 70
     1
 10
0.0
 20
0.0
 30
0.0
  3
*D25
  1

  0
LINE
  5
58F
330
513
100
AcDbEntity
  8
Bemassung
 62
     0
 48
0.3
370
    -2
100
AcDbLine
 10
2448.96311544978
 20
1368.516812122362
 30
0.0
 11
2471.11859927069
 21
1368.516812122362
 31
0.0
  0
LINE
  5
590
330
513
100
AcDbEntity
  8
Bemassung
 62
     0
 48
0.3
370
    -2
100
AcDbLine
 10
2241.963115449779
 20
1148.516812122362
 30
0.0
 11
2471.11859927069
 21
1148.516812122362
 31
0.0
  0
LINE
  5
591
330
513
100
AcDbEntity
  8
Bemassung
 62
     0
 48
0.3
370
    -2
100
AcDbLine
 10
2469.86859927069
 20
1364.516812122362
 30
0.0
 11
2469.86859927069
 21
1152.516812122362
 31
0.0
  0
SOLID
  5
592
330
513
100
AcDbEntity
  8
Bemassung
 62
     0
 48
0.3
100
AcDbTrace
 10
2469.201932604024
 20
1364.516812122362
 30
0.0
 11
2470.535265937357
 21
1364.516812122362
 31
0.0
 12
2469.86859927069
 22
1368.516812122362
 32
0.0
 13
2469.86859927069
 23
1368.516812122362
 33
0.0
  0
SOLID
  5
593
330
513
100
AcDbEntity
  8
Bemassung
 62
     0
 48
0.3
100
AcDbTrace
 10
2469.201932604024
 20
1152.516812122362
 30
0.0
 11
2470.535265937357
 21
1152.516812122362
 31
0.0
 12
2469.86859927069
 22
1148.516812122362
 32
0.0
 13
2469.86859927069
 23
1148.516812122362
 33
0.0
  0
MTEXT
  5
594
330
513
100
AcDbEntity
  8
Bemassung
 62
     0
 48
0.3
370
    35
100
AcDbMText
 10
2466.243008719509
 20
1258.516812122363
 30
0.0
 40
6.0
 41
0.0
 71
     5
 72
     1
  1
\A1;220
 11
0.0000000000000001
 21
1.0
 31
0.0
 73
     1
 44
1.0
1001
ACAD
1000
MTEXTBEGIN
1070
    73
1070
     1
1070
    44
1040
1.0
1070
    74
1070
     0
1000
MTEXTEND
  0
POINT
  5
595
330
513
100
AcDbEntity
  8
Defpoints
 62
     0
 48
0.3
100
AcDbPoint
 10
2448.33811544978
 20
1368.516812122362
 30
0.0
  0
POINT
  5
596
330
513
100
AcDbEntity
  8
Defpoints
 62
     0
 48
0.3
100
AcDbPoint
 10
2241.338115449779
 20
1148.516812122362
 30
0.0
  0
POINT
  5
597
330
513
100
AcDbEntity
  8
Defpoints
 62
     0
 48
0.3
100
AcDbPoint
 10
2469.86859927069
 20
1148.516812122362
 30
0.0
  0
ENDBLK
  5
515
330
513
100
AcDbEntity
  8
0
100
AcDbBlockEnd
  0
BLOCK
  5
520
330
51F
100
AcDbEntity
  8
0
100
AcDbBlockBegin
  2
*D26
 70
     1
 10
0.0
 20
0.0
 30
0.0
  3
*D26
  1

  0
LINE
  5
598
330
51F
100
AcDbEntity
  8
Bemassung
 62
     0
 48
0.3
370
    -2
100
AcDbLine
 10
2448.96311544978
 20
1368.516812122362
 30
0.0
 11
2484.933809071877
 21
1368.516812122362
 31
0.0
  0
LINE
  5
599
330
51F
100
AcDbEntity
  8
Bemassung
 62
     0
 48
0.3
370
    -2
100
AcDbLine
 10
2241.963115449782
 20
1130.516812122361
 30
0.0
 11
2484.933809071877
 21
1130.516812122361
 31
0.0
  0
LINE
  5
59A
330
51F
100
AcDbEntity
  8
Bemassung
 62
     0
 48
0.3
370
    -2
100
AcDbLine
 10
2483.683809071877
 20
1364.516812122362
 30
0.0
 11
2483.683809071877
 21
1134.516812122361
 31
0.0
  0
SOLID
  5
59B
330
51F
100
AcDbEntity
  8
Bemassung
 62
     0
 48
0.3
100
AcDbTrace
 10
2483.01714240521
 20
1364.516812122362
 30
0.0
 11
2484.350475738543
 21
1364.516812122362
 31
0.0
 12
2483.683809071877
 22
1368.516812122362
 32
0.0
 13
2483.683809071877
 23
1368.516812122362
 33
0.0
  0
SOLID
  5
59C
330
51F
100
AcDbEntity
  8
Bemassung
 62
     0
 48
0.3
100
AcDbTrace
 10
2483.01714240521
 20
1134.516812122361
 30
0.0
 11
2484.350475738543
 21
1134.516812122361
 31
0.0
 12
2483.683809071877
 22
1130.516812122361
 32
0.0
 13
2483.683809071877
 23
1130.516812122361
 33
0.0
  0
MTEXT
  5
59D
330
51F
100
AcDbEntity
  8
Bemassung
 62
     0
 48
0.3
370
    35
100
AcDbMText
 10
2480.058218520695
 20
1249.516812122362
 30
0.0
 40
6.0
 41
0.0
 71
     5
 72
     1
  1
\A1;238
 11
0.0000000000000001
 21
1.0
 31
0.0
 73
     1
 44
1.0
1001
ACAD
1000
MTEXTBEGIN
1070
    73
1070
     1
1070
    44
1040
1.0
1070
    74
1070
     0
1000
MTEXTEND
  0
POINT
  5
59E
330
51F
100
AcDbEntity
  8
Defpoints
 62
     0
 48
0.3
100
AcDbPoint
 10
2448.33811544978
 20
1368.516812122362
 30
0.0
  0
POINT
  5
59F
330
51F
100
AcDbEntity
  8
Defpoints
 62
     0
 48
0.3
100
AcDbPoint
 10
2241.338115449782
 20
1130.516812122361
 30
0.0
  0
POINT
  5
5A0
330
51F
100
AcDbEntity
  8
Defpoints
 62
     0
 48
0.3
100
AcDbPoint
 10
2483.683809071877
 20
1130.516812122361
 30
0.0
  0
ENDBLK
  5
521
330
51F
100
AcDbEntity
  8
0
100
AcDbBlockEnd
  0
BLOCK
  5
52C
330
52B
100
AcDbEntity
  8
0
100
AcDbBlockBegin
  2
*D27
 70
     1
 10
0.0
 20
0.0
 30
0.0
  3
*D27
  1

  0
LINE
  5
5A1
330
52B
100
AcDbEntity
  8
AM_5
 62
     0
370
    -2
100
AcDbLine
 10
2463.455818650361
 20
1790.436665433627
 30
0.0
 11
2444.577287044114
 21
1782.138421079595
 31
0.0
  0
LINE
  5
5A2
330
52B
100
AcDbEntity
  8
AM_5
 62
     0
370
    -2
100
AcDbLine
 10
2428.098943855444
 20
1774.895203165128
 30
0.0
 11
2424.437089813518
 21
1773.285599184136
 31
0.0
  0
MTEXT
  5
5A3
102
{ACAD_XDICTIONARY
360
870
102
}
330
52B
100
AcDbEntity
  8
AM_5
 62
     0
100
AcDbMText
 10
2459.042980069111
 20
1791.091273024399
 30
0.0
 40
3.5
 41
0.0
 71
     5
 72
     1
  1
\A1;\U+220510
 11
0.9154635104816152
 21
0.40240099524812
 31
0.0
 73
     1
 44
1.0
1001
ACAD
1000
MTEXTBEGIN
1070
    73
1070
     1
1070
    44
1040
1.0
1070
    74
1070
     0
1000
MTEXTEND
  0
LINE
  5
5A4
330
52B
100
AcDbEntity
  8
AM_5
 62
     0
370
    -2
100
AcDbLine
 10
2431.760797897371
 20
1776.504807146121
 30
0.0
 11
2440.915433002187
 21
1780.528817098602
 31
0.0
  0
SOLID
  5
5A5
330
52B
100
AcDbEntity
  8
AM_5
 62
     0
100
AcDbTrace
 10
2427.830676525279
 20
1775.505512172116
 30
0.0
 11
2428.36721118561
 21
1774.284894158141
 31
0.0
 12
2431.760797897371
 22
1776.504807146121
 32
0.0
 13
2431.760797897371
 23
1776.504807146121
 33
0.0
  0
SOLID
  5
5A6
330
52B
100
AcDbEntity
  8
AM_5
 62
     0
100
AcDbTrace
 10
2444.309019713948
 20
1782.748730086583
 30
0.0
 11
2444.845554374279
 21
1781.528112072607
 31
0.0
 12
2440.915433002187
 22
1780.528817098602
 32
0.0
 13
2440.915433002187
 23
1780.528817098602
 33
0.0
  0
POINT
  5
5A7
330
52B
100
AcDbEntity
  8
Defpoints
 62
     0
100
AcDbPoint
 10
2440.915433002187
 20
1780.528817098602
 30
0.0
  0
POINT
  5
5A8
330
52B
100
AcDbEntity
  8
Defpoints
 62
     0
100
AcDbPoint
 10
2431.760797897371
 20
1776.504807146121
 30
0.0
  0
ENDBLK
  5
52D
330
52B
100
AcDbEntity
  8
0
100
AcDbBlockEnd
  0
BLOCK
  5
5C8
330
5C7
100
AcDbEntity
  8
0
100
AcDbBlockBegin
  2
*D28
 70
     1
 10
0.0
 20
0.0
 30
0.0
  3
*D28
  1

  0
LINE
  5
5EB
330
5C7
100
AcDbEntity
  8
Bemassung
 62
     0
 48
0.3
370
    -2
100
AcDbLine
 10
3137.069946532053
 20
1527.891812122362
 30
0.0
 11
3137.069946532053
 21
1423.580251702226
 31
0.0
  0
LINE
  5
5EC
330
5C7
100
AcDbEntity
  8
Bemassung
 62
     0
 48
0.3
370
    -2
100
AcDbLine
 10
2914.069946532052
 20
1527.891812122363
 30
0.0
 11
2914.069946532052
 21
1423.580251702226
 31
0.0
  0
LINE
  5
5ED
330
5C7
100
AcDbEntity
  8
Bemassung
 62
     0
 48
0.3
370
    -2
100
AcDbLine
 10
3133.069946532053
 20
1424.830251702227
 30
0.0
 11
2918.069946532052
 21
1424.830251702227
 31
0.0
  0
SOLID
  5
5EE
330
5C7
100
AcDbEntity
  8
Bemassung
 62
     0
 48
0.3
100
AcDbTrace
 10
3133.069946532053
 20
1425.496918368893
 30
0.0
 11
3133.069946532053
 21
1424.16358503556
 31
0.0
 12
3137.069946532053
 22
1424.830251702227
 32
0.0
 13
3137.069946532053
 23
1424.830251702227
 33
0.0
  0
SOLID
  5
5EF
330
5C7
100
AcDbEntity
  8
Bemassung
 62
     0
 48
0.3
100
AcDbTrace
 10
2918.069946532052
 20
1425.496918368893
 30
0.0
 11
2918.069946532052
 21
1424.16358503556
 31
0.0
 12
2914.069946532052
 22
1424.830251702227
 32
0.0
 13
2914.069946532052
 23
1424.830251702227
 33
0.0
  0
MTEXT
  5
5F0
330
5C7
100
AcDbEntity
  8
Bemassung
 62
     0
 48
0.3
370
    35
100
AcDbMText
 10
3025.569946532052
 20
1428.455842253408
 30
0.0
 40
6.0
 41
0.0
 71
     5
 72
     1
  1
\A1;223
 73
     1
 44
1.0
1001
ACAD
1000
MTEXTBEGIN
1070
    73
1070
     1
1070
    44
1040
1.0
1070
    74
1070
     0
1000
MTEXTEND
  0
POINT
  5
5F1
330
5C7
100
AcDbEntity
  8
Defpoints
 62
     0
 48
0.3
100
AcDbPoint
 10
3137.069946532053
 20
1528.516812122362
 30
0.0
  0
POINT
  5
5F2
330
5C7
100
AcDbEntity
  8
Defpoints
 62
     0
 48
0.3
100
AcDbPoint
 10
2914.069946532052
 20
1528.516812122363
 30
0.0
  0
POINT
  5
5F3
330
5C7
100
AcDbEntity
  8
Defpoints
 62
     0
 48
0.3
100
AcDbPoint
 10
2914.069946532052
 20
1424.830251702227
 30
0.0
  0
ENDBLK
  5
5C9
330
5C7
100
AcDbEntity
  8
0
100
AcDbBlockEnd
  0
BLOCK
  5
5D4
330
5D3
100
AcDbEntity
  8
0
100
AcDbBlockBegin
  2
*D29
 70
     1
 10
0.0
 20
0.0
 30
0.0
  3
*D29
  1

  0
LINE
  5
5F4
330
5D3
100
AcDbEntity
  8
Bemassung
 62
     0
 48
0.3
370
    -2
100
AcDbLine
 10
2914.069946532052
 20
1869.141812122362
 30
0.0
 11
2914.069946532052
 21
1877.861011144161
 31
0.0
  0
LINE
  5
5F5
330
5D3
100
AcDbEntity
  8
Bemassung
 62
     0
 48
0.3
370
    -2
100
AcDbLine
 10
3164.069946532052
 20
1869.141812122362
 30
0.0
 11
3164.069946532052
 21
1877.861011144161
 31
0.0
  0
LINE
  5
5F6
330
5D3
100
AcDbEntity
  8
Bemassung
 62
     0
 48
0.3
370
    -2
100
AcDbLine
 10
2918.069946532052
 20
1876.611011144161
 30
0.0
 11
3160.069946532053
 21
1876.611011144161
 31
0.0
  0
SOLID
  5
5F7
330
5D3
100
AcDbEntity
  8
Bemassung
 62
     0
 48
0.3
100
AcDbTrace
 10
2918.069946532052
 20
1877.277677810828
 30
0.0
 11
2918.069946532052
 21
1875.944344477494
 31
0.0
 12
2914.069946532052
 22
1876.611011144161
 32
0.0
 13
2914.069946532052
 23
1876.611011144161
 33
0.0
  0
SOLID
  5
5F8
330
5D3
100
AcDbEntity
  8
Bemassung
 62
     0
 48
0.3
100
AcDbTrace
 10
3160.069946532053
 20
1877.277677810828
 30
0.0
 11
3160.069946532053
 21
1875.944344477494
 31
0.0
 12
3164.069946532052
 22
1876.611011144161
 32
0.0
 13
3164.069946532052
 23
1876.611011144161
 33
0.0
  0
MTEXT
  5
5F9
330
5D3
100
AcDbEntity
  8
Bemassung
 62
     0
 48
0.3
370
    35
100
AcDbMText
 10
3039.069946532052
 20
1880.236601695342
 30
0.0
 40
6.0
 41
0.0
 71
     5
 72
     1
  1
\A1;250
 73
     1
 44
1.0
1001
ACAD
1000
MTEXTBEGIN
1070
    73
1070
     1
1070
    44
1040
1.0
1070
    74
1070
     0
1000
MTEXTEND
  0
POINT
  5
5FA
330
5D3
100
AcDbEntity
  8
Defpoints
 62
     0
 48
0.3
100
AcDbPoint
 10
2914.069946532052
 20
1868.516812122362
 30
0.0
  0
POINT
  5
5FB
330
5D3
100
AcDbEntity
  8
Defpoints
 62
     0
 48
0.3
100
AcDbPoint
 10
3164.069946532052
 20
1868.516812122362
 30
0.0
  0
POINT
  5
5FC
330
5D3
100
AcDbEntity
  8
Defpoints
 62
     0
 48
0.3
100
AcDbPoint
 10
3164.069946532052
 20
1876.611011144161
 30
0.0
  0
ENDBLK
  5
5D5
330
5D3
100
AcDbEntity
  8
0
100
AcDbBlockEnd
  0
BLOCK
  5
5E0
330
5DF
100
AcDbEntity
  8
0
100
AcDbBlockBegin
  2
*D30
 70
     1
 10
0.0
 20
0.0
 30
0.0
  3
*D30
  1

  0
LINE
  5
5FD
330
5DF
100
AcDbEntity
  8
Bemassung
 62
     0
 48
0.3
370
    -2
100
AcDbLine
 10
3164.694946532052
 20
1868.516812122362
 30
0.0
 11
3179.455864334219
 21
1868.516812122362
 31
0.0
  0
LINE
  5
5FE
330
5DF
100
AcDbEntity
  8
Bemassung
 62
     0
 48
0.3
370
    -2
100
AcDbLine
 10
3152.694946532053
 20
1448.516812122362
 30
0.0
 11
3179.455864334219
 21
1448.516812122362
 31
0.0
  0
LINE
  5
5FF
330
5DF
100
AcDbEntity
  8
Bemassung
 62
     0
 48
0.3
370
    -2
100
AcDbLine
 10
3178.205864334219
 20
1864.516812122362
 30
0.0
 11
3178.205864334219
 21
1452.516812122362
 31
0.0
  0
SOLID
  5
600
330
5DF
100
AcDbEntity
  8
Bemassung
 62
     0
 48
0.3
100
AcDbTrace
 10
3177.539197667553
 20
1864.516812122362
 30
0.0
 11
3178.872531000886
 21
1864.516812122362
 31
0.0
 12
3178.205864334219
 22
1868.516812122362
 32
0.0
 13
3178.205864334219
 23
1868.516812122362
 33
0.0
  0
SOLID
  5
601
330
5DF
100
AcDbEntity
  8
Bemassung
 62
     0
 48
0.3
100
AcDbTrace
 10
3177.539197667553
 20
1452.516812122362
 30
0.0
 11
3178.872531000886
 21
1452.516812122362
 31
0.0
 12
3178.205864334219
 22
1448.516812122362
 32
0.0
 13
3178.205864334219
 23
1448.516812122362
 33
0.0
  0
MTEXT
  5
602
330
5DF
100
AcDbEntity
  8
Bemassung
 62
     0
 48
0.3
370
    35
100
AcDbMText
 10
3174.580273783038
 20
1658.516812122362
 30
0.0
 40
6.0
 41
0.0
 71
     5
 72
     1
  1
\A1;420
 11
0.0000000000000001
 21
1.0
 31
0.0
 73
     1
 44
1.0
1001
ACAD
1000
MTEXTBEGIN
1070
    73
1070
     1
1070
    44
1040
1.0
1070
    74
1070
     0
1000
MTEXTEND
  0
POINT
  5
603
330
5DF
100
AcDbEntity
  8
Defpoints
 62
     0
 48
0.3
100
AcDbPoint
 10
3164.069946532052
 20
1868.516812122362
 30
0.0
  0
POINT
  5
604
330
5DF
100
AcDbEntity
  8
Defpoints
 62
     0
 48
0.3
100
AcDbPoint
 10
3152.069946532052
 20
1448.516812122362
 30
0.0
  0
POINT
  5
605
330
5DF
100
AcDbEntity
  8
Defpoints
 62
     0
 48
0.3
100
AcDbPoint
 10
3178.205864334219
 20
1448.516812122362
 30
0.0
  0
ENDBLK
  5
5E1
330
5DF
100
AcDbEntity
  8
0
100
AcDbBlockEnd
  0
BLOCK
  5
661
330
644
100
AcDbEntity
  8
0
100
AcDbBlockBegin
  2
A$C2A8D6760
 70
     0
 10
0.0
 20
0.0
 30
0.0
  3
A$C2A8D6760
  1

  0
LINE
  5
645
330
644
100
AcDbEntity
  8
Mittellinie
 48
0.3
370
    35
100
AcDbLine
 10
0.0000027790447348
 20
419.9999994205692
 30
0.0
 11
0.0000027790447348
 21
-0.000000579430889
 31
0.0
  0
LINE
  5
646
330
644
100
AcDbEntity
  8
Mittellinie
 48
0.3
370
    35
100
AcDbLine
 10
3.000002779044733
 20
403.9999994205691
 30
0.0
 11
3.000002779044733
 21
-0.000000579430889
 31
0.0
  0
LINE
  5
647
330
644
100
AcDbEntity
  8
Mittellinie
 48
0.3
370
    35
100
AcDbLine
 10
238.0000027790448
 20
403.9999994205691
 30
0.0
 11
238.0000027790448
 21
229.9999994205691
 31
0.0
  0
LINE
  5
648
330
644
100
AcDbEntity
  8
Mittellinie
 48
0.3
370
    35
100
AcDbLine
 10
247.0000027790447
 20
419.9999994205692
 30
0.0
 11
247.0000027790447
 21
410.9999994205692
 31
0.0
  0
LINE
  5
649
330
644
100
AcDbEntity
  8
Mittellinie
 48
0.3
370
    35
100
AcDbLine
 10
241.0000027790447
 20
403.9999994205691
 30
0.0
 11
241.0000027790447
 21
229.9999994205691
 31
0.0
  0
LINE
  5
64A
330
644
100
AcDbEntity
  8
Mittellinie
 48
0.3
370
    35
100
AcDbLine
 10
250.0000027790447
 20
419.9999994205692
 30
0.0
 11
250.0000027790447
 21
410.9999994205692
 31
0.0
  0
LINE
  5
64B
330
644
100
AcDbEntity
  8
Mittellinie
 48
0.3
370
    35
100
AcDbLine
 10
0.0000027790447348
 20
419.9999994205692
 30
0.0
 11
250.0000027790447
 21
419.9999994205692
 31
0.0
  0
LINE
  5
64C
330
644
100
AcDbEntity
  8
Mittellinie
 48
0.3
370
    35
100
AcDbLine
 10
0.0000027790447348
 20
408.9999994205689
 30
0.0
 11
245.0000027790447
 21
408.9999994205689
 31
0.0
  0
LINE
  5
64D
330
644
100
AcDbEntity
  8
Mittellinie
 48
0.3
370
    35
100
AcDbLine
 10
5.000002779044733
 20
405.9999994205691
 30
0.0
 11
245.0000027790447
 21
405.9999994205691
 31
0.0
  0
ARC
  5
64E
330
644
100
AcDbEntity
  8
Mittellinie
 48
0.3
370
    35
100
AcDbCircle
 10
243.0000027790447
 20
403.9999994205691
 30
0.0
 40
5.0
100
AcDbArc
 50
90.0
 51
180.0
  0
ARC
  5
64F
330
644
100
AcDbEntity
  8
Mittellinie
 48
0.3
370
    35
100
AcDbCircle
 10
243.0000027790447
 20
403.9999994205691
 30
0.0
 40
2.0
100
AcDbArc
 50
90.0
 51
180.0
  0
ARC
  5
650
330
644
100
AcDbEntity
  8
Mittellinie
 48
0.3
370
    35
100
AcDbCircle
 10
245.0000027790447
 20
410.9999994205692
 30
0.0
 40
2.0
100
AcDbArc
 50
270.0
 51
0.0
  0
ARC
  5
651
330
644
100
AcDbEntity
  8
Mittellinie
 48
0.3
370
    35
100
AcDbCircle
 10
245.0000027790447
 20
410.9999994205692
 30
0.0
 40
5.0
100
AcDbArc
 50
270.0
 51
0.0
  0
ARC
  5
652
330
644
100
AcDbEntity
  8
Mittellinie
 48
0.3
370
    35
100
AcDbCircle
 10
5.000002779044733
 20
403.9999994205691
 30
0.0
 40
2.0
100
AcDbArc
 50
90.0
 51
180.0
  0
LINE
  5
653
330
644
100
AcDbEntity
  8
Mittellinie
 48
0.3
370
    35
100
AcDbLine
 10
0.0000027790447348
 20
-0.000000579430889
 30
0.0
 11
238.0000027790448
 21
-0.000000579430889
 31
0.0
  0
LINE
  5
654
102
{ACAD_REACTORS
330
675
102
}
330
644
100
AcDbEntity
  8
Mittellinie
 48
0.3
370
    35
100
AcDbLine
 10
3.000002779044733
 20
229.99999942057
 30
0.0
 11
241.0000027790447
 21
229.9999994205691
 31
0.0
  0
LINE
  5
655
330
644
100
AcDbEntity
  8
Mittellinie
 48
0.3
370
    35
100
AcDbLine
 10
3.000002779044733
 20
199.99999942057
 30
0.0
 11
226.0000027790447
 21
199.9999994205691
 31
0.0
  0
LINE
  5
656
330
644
100
AcDbEntity
  8
Mittellinie
 48
0.3
370
    35
100
AcDbLine
 10
3.000002779044733
 20
79.99999942056911
 30
0.0
 11
226.0000027790447
 21
79.99999942056911
 31
0.0
  0
LINE
  5
657
330
644
100
AcDbEntity
  8
Mittellinie
 48
0.3
370
    35
100
AcDbLine
 10
3.000002779044733
 20
29.99999942056911
 30
0.0
 11
238.0000027790448
 21
29.99999942056911
 31
0.0
  0
LINE
  5
658
330
644
100
AcDbEntity
  8
Mittellinie
 48
0.3
370
    35
100
AcDbLine
 10
226.0000027790447
 20
199.9999994205691
 30
0.0
 11
226.0000027790447
 21
79.99999942056911
 31
0.0
  0
LINE
  5
659
330
644
100
AcDbEntity
  8
Mittellinie
 48
0.3
370
    35
100
AcDbLine
 10
223.0000027790447
 20
199.9999994205691
 30
0.0
 11
223.0000027790447
 21
79.99999942056911
 31
0.0
  0
LINE
  5
65A
330
644
100
AcDbEntity
  8
Mittellinie
 48
0.3
370
    35
100
AcDbLine
 10
238.0000027790448
 20
29.99999942056911
 30
0.0
 11
238.0000027790448
 21
-0.000000579430889
 31
0.0
  0
LINE
  5
65B
330
644
100
AcDbEntity
  8
Mittellinie
 48
0.3
370
    35
100
AcDbLine
 10
235.0000027790447
 20
29.99999942056911
 30
0.0
 11
235.0000027790447
 21
-0.000000579430889
 31
0.0
  0
LINE
  5
65C
330
644
100
AcDbEntity
  8
Mittellinie
 48
0.3
370
    35
100
AcDbLine
 10
226.0000027790447
 20
199.9999994205691
 30
0.0
 11
241.0000027790447
 21
229.9999994205691
 31
0.0
  0
LINE
  5
65D
330
644
100
AcDbEntity
  8
Mittellinie
 48
0.3
370
    35
100
AcDbLine
 10
223.3167212060453
 20
201.3416402070689
 30
0.0
 11
238.3167212060453
 21
231.3416402070688
 31
0.0
  0
LINE
  5
65E
330
644
100
AcDbEntity
  8
Mittellinie
 48
0.3
370
    35
100
AcDbLine
 10
226.0000027790447
 20
79.99999942056911
 30
0.0
 11
238.0000027790448
 21
29.99999942056911
 31
0.0
  0
LINE
  5
65F
330
644
100
AcDbEntity
  8
Mittellinie
 48
0.3
370
    35
100
AcDbLine
 10
223.0828408731031
 20
79.29988056314323
 30
0.0
 11
235.0828408731031
 21
29.29988056314324
 31
0.0
  0
ENDBLK
  5
662
330
644
100
AcDbEntity
  8
0
100
AcDbBlockEnd
  0
BLOCK
  5
669
330
668
100
AcDbEntity
  8
0
100
AcDbBlockBegin
  2
*D32
 70
     1
 10
0.0
 20
0.0
 30
0.0
  3
*D32
  1

  0
LINE
  5
6AF
330
668
100
AcDbEntity
  8
Bemassung
 62
     0
 48
0.3
370
    -2
100
AcDbLine
 10
3152.340844565804
 20
1448.516812122362
 30
0.0
 11
3177.319947542052
 21
1448.516812122362
 31
0.0
  0
LINE
  5
6B0
330
668
100
AcDbEntity
  8
Bemassung
 62
     0
 48
0.3
370
    -2
100
AcDbLine
 10
3140.694946532053
 20
1638.516812122362
 30
0.0
 11
3177.319947542052
 21
1638.516812122362
 31
0.0
  0
LINE
  5
6B1
330
668
100
AcDbEntity
  8
Bemassung
 62
     0
 48
0.3
370
    -2
100
AcDbLine
 10
3176.069947542052
 20
1452.516812122362
 30
0.0
 11
3176.069947542052
 21
1634.516812122362
 31
0.0
  0
SOLID
  5
6B2
330
668
100
AcDbEntity
  8
Bemassung
 62
     0
 48
0.3
100
AcDbTrace
 10
3175.403280875385
 20
1452.516812122362
 30
0.0
 11
3176.736614208718
 21
1452.516812122362
 31
0.0
 12
3176.069947542052
 22
1448.516812122362
 32
0.0
 13
3176.069947542052
 23
1448.516812122362
 33
0.0
  0
SOLID
  5
6B3
330
668
100
AcDbEntity
  8
Bemassung
 62
     0
 48
0.3
100
AcDbTrace
 10
3175.403280875385
 20
1634.516812122362
 30
0.0
 11
3176.736614208718
 21
1634.516812122362
 31
0.0
 12
3176.069947542052
 22
1638.516812122362
 32
0.0
 13
3176.069947542052
 23
1638.516812122362
 33
0.0
  0
MTEXT
  5
6B4
330
668
100
AcDbEntity
  8
Bemassung
 62
     0
 48
0.3
370
    35
100
AcDbMText
 10
3172.444947542051
 20
1543.516812122363
 30
0.0
 40
6.0
 41
0.0
 71
     5
 72
     1
  1
\A1;190
 11
0.0000000000000001
 21
1.0
 31
0.0
 73
     1
 44
1.0
1001
ACAD
1000
MTEXTBEGIN
1070
    73
1070
     1
1070
    44
1040
1.0
1070
    74
1070
     0
1000
MTEXTEND
  0
POINT
  5
6B5
330
668
100
AcDbEntity
  8
Defpoints
 62
     0
 48
0.3
100
AcDbPoint
 10
3151.715844565803
 20
1448.516812122362
 30
0.0
  0
POINT
  5
6B6
330
668
100
AcDbEntity
  8
Defpoints
 62
     0
 48
0.3
100
AcDbPoint
 10
3140.069946532052
 20
1638.516812122362
 30
0.0
  0
POINT
  5
6B7
330
668
100
AcDbEntity
  8
Defpoints
 62
     0
 48
0.3
100
AcDbPoint
 10
3176.069947542052
 20
1638.516812122362
 30
0.0
  0
ENDBLK
  5
66A
330
668
100
AcDbEntity
  8
0
100
AcDbBlockEnd
  0
ENDSEC
  0
SECTION
  2
ENTITIES
  0
LINE
  5
3F9
330
1F
100
AcDbEntity
  8
Verdeckte Kante
 48
0.3
370
    35
100
AcDbLine
 10
2034.33811544978
 20
1868.516812122362
 30
0.0
 11
2034.33811544978
 21
1859.516812122362
 31
0.0
  0
LINE
  5
3FA
330
1F
100
AcDbEntity
  8
0
 48
0.3
370
    35
100
AcDbLine
 10
2031.33811544978
 20
1868.516812122362
 30
0.0
 11
2241.33811544978
 21
1868.516812122362
 31
0.0
  0
LINE
  5
3FB
330
1F
100
AcDbEntity
  8
Mittellinie
 48
0.3
370
    35
100
AcDbLine
 10
2241.33811544978
 20
1868.516812122363
 30
0.0
 11
2241.33811544978
 21
1448.516812122362
 31
0.0
  0
LINE
  5
3FC
330
1F
100
AcDbEntity
  8
Verdeckte Kante
 48
0.3
370
    35
100
AcDbLine
 10
2036.33811544978
 20
1857.516812122362
 30
0.0
 11
2241.33811544978
 21
1857.51681212236
 31
0.0
  0
LINE
  5
3FD
330
1F
100
AcDbEntity
  8
0
 48
0.3
370
    35
100
AcDbLine
 10
2031.33811544978
 20
1868.516812122362
 30
0.0
 11
2031.33811544978
 21
1778.516812122363
 31
0.0
  0
LINE
  5
3FE
330
1F
100
AcDbEntity
  8
0
 48
0.3
370
    35
100
AcDbLine
 10
2036.33811544978
 20
1854.516812122361
 30
0.0
 11
2241.33811544978
 21
1854.516812122362
 31
0.0
  0
ARC
  5
3FF
330
1F
100
AcDbEntity
  8
Verdeckte Kante
 48
0.3
370
    35
100
AcDbCircle
 10
2036.33811544978
 20
1859.516812122362
 30
0.0
 40
2.0
100
AcDbArc
 50
180.0
 51
270.0
  0
ARC
  5
400
330
1F
100
AcDbEntity
  8
0
 48
0.3
370
    35
100
AcDbCircle
 10
2036.33811544978
 20
1859.516812122361
 30
0.0
 40
5.0
100
AcDbArc
 50
180.0
 51
270.0
  0
CIRCLE
  5
401
330
1F
100
AcDbEntity
  8
0
 48
0.3
370
    35
100
AcDbCircle
 10
2046.338115449779
 20
1778.516812122362
 30
0.0
 40
5.0
  0
LINE
  5
402
330
1F
100
AcDbEntity
  8
0
370
    35
100
AcDbLine
 10
2042.33811544978
 20
1778.516812122362
 30
0.0
 11
2050.33811544978
 21
1778.516812122362
 31
0.0
  0
LINE
  5
403
330
1F
100
AcDbEntity
  8
0
370
    35
100
AcDbLine
 10
2046.338115449779
 20
1774.516812122362
 30
0.0
 11
2046.338115449779
 21
1782.516812122362
 31
0.0
  0
LINE
  5
404
330
1F
100
AcDbEntity
  8
0
370
    35
100
AcDbLine
 10
2046.338115449779
 20
1574.516812122362
 30
0.0
 11
2046.338115449779
 21
1582.516812122362
 31
0.0
  0
LINE
  5
405
330
1F
100
AcDbEntity
  8
0
370
    35
100
AcDbLine
 10
2042.33811544978
 20
1578.516812122362
 30
0.0
 11
2050.33811544978
 21
1578.516812122362
 31
0.0
  0
CIRCLE
  5
406
330
1F
100
AcDbEntity
  8
0
 48
0.3
370
    35
100
AcDbCircle
 10
2046.338115449779
 20
1578.516812122362
 30
0.0
 40
5.0
  0
LINE
  5
407
330
1F
100
AcDbEntity
  8
0
 48
0.3
370
    35
100
AcDbLine
 10
2063.33811544978
 20
1448.516812122361
 30
0.0
 11
2241.33811544978
 21
1448.516812122362
 31
0.0
  0
LINE
  5
408
330
1F
100
AcDbEntity
  8
0
 48
0.3
370
    35
100
AcDbLine
 10
2063.33811544978
 20
1478.516812122362
 30
0.0
 11
2241.33811544978
 21
1478.516812122362
 31
0.0
  0
LINE
  5
409
330
1F
100
AcDbEntity
  8
0
 48
0.3
370
    35
100
AcDbLine
 10
2077.33811544978
 20
1528.516812122362
 30
0.0
 11
2241.33811544978
 21
1528.516812122362
 31
0.0
  0
LINE
  5
40A
330
1F
100
AcDbEntity
  8
0
 48
0.3
370
    35
100
AcDbLine
 10
2077.33811544978
 20
1648.516812122362
 30
0.0
 11
2241.33811544978
 21
1648.516812122362
 31
0.0
  0
LINE
  5
40B
330
1F
100
AcDbEntity
  8
0
 48
0.3
370
    35
100
AcDbLine
 10
2060.338115449781
 20
1678.516812122362
 30
0.0
 11
2241.33811544978
 21
1678.516812122362
 31
0.0
  0
LINE
  5
40C
330
1F
100
AcDbEntity
  8
Verdeckte Kante
 48
0.3
370
    35
100
AcDbLine
 10
2063.33811544978
 20
1852.516812122362
 30
0.0
 11
2063.33811544978
 21
1679.307731998679
 31
0.0
  0
LINE
  5
40D
330
1F
100
AcDbEntity
  8
0
 48
0.3
370
    35
100
AcDbLine
 10
2060.338115449781
 20
1852.516812122361
 30
0.0
 11
2060.338115449781
 21
1678.516812122362
 31
0.0
  0
LINE
  5
40E
330
1F
100
AcDbEntity
  8
0
 48
0.3
370
    35
100
AcDbLine
 10
2043.33811544978
 20
1760.18650934254
 30
0.0
 11
2043.33811544978
 21
1674.034932823229
 31
0.0
  0
LINE
  5
40F
330
1F
100
AcDbEntity
  8
0
 48
0.3
370
    35
100
AcDbLine
 10
2077.33811544978
 20
1648.516812122362
 30
0.0
 11
2077.33811544978
 21
1528.516812122362
 31
0.0
  0
LINE
  5
410
330
1F
100
AcDbEntity
  8
Verdeckte Kante
 48
0.3
370
    35
100
AcDbLine
 10
2080.33811544978
 20
1649.307731998679
 30
0.0
 11
2080.33811544978
 21
1528.516812122362
 31
0.0
  0
LINE
  5
411
330
1F
100
AcDbEntity
  8
0
 48
0.3
370
    35
100
AcDbLine
 10
2060.338115449781
 20
1644.034932823229
 30
0.0
 11
2060.338115449781
 21
1598.516812122363
 31
0.0
  0
ARC
  5
412
330
1F
100
AcDbEntity
  8
0
 48
0.3
370
    35
100
AcDbCircle
 10
2055.33811544978
 20
1598.516812122363
 30
0.0
 40
5.0
100
AcDbArc
 50
270.0
 51
0.0
1001
GENIUS_GENODEF_13
1002
{
1000
HIER
1070
     0
1002
}
1002
{
1000
MANEDIT
1070
     0
1002
}
1002
{
1000
NOSEL
1070
     0
1002
}
1002
{
1000
BEHIND
1070
     0
1002
}
1002
{
1000
OTHER
1070
     0
1002
}
1002
{
1000
REACTOR
1002
}
1001
GENIUS_GENOBJ-N-FIL_13
1002
{
1000
OWNER
1000
GEN
1002
}
  0
LINE
  5
413
330
1F
100
AcDbEntity
  8
0
 48
0.3
370
    35
100
AcDbLine
 10
2063.338115449779
 20
1558.516812122363
 30
0.0
 11
2063.33811544978
 21
1448.516812122362
 31
0.0
  0
LINE
  5
414
330
1F
100
AcDbEntity
  8
Verdeckte Kante
 48
0.3
370
    35
100
AcDbLine
 10
2066.33811544978
 20
1478.020756174238
 30
0.0
 11
2066.33811544978
 21
1448.516812122362
 31
0.0
  0
LINE
  5
415
330
1F
100
AcDbEntity
  8
0
 48
0.3
370
    35
100
AcDbLine
 10
2546.930301396407
 20
1868.516812122362
 30
0.0
 11
2546.930301396407
 21
1448.516812122362
 31
0.0
  0
LINE
  5
416
330
1F
100
AcDbEntity
  8
0
 48
0.3
370
    35
100
AcDbLine
 10
2549.930301396406
 20
1852.516812122362
 30
0.0
 11
2549.930301396406
 21
1448.516812122362
 31
0.0
  0
LINE
  5
417
330
1F
100
AcDbEntity
  8
Verdeckte Kante
 48
0.3
370
    35
100
AcDbLine
 10
2784.930301396407
 20
1852.516812122362
 30
0.0
 11
2784.930301396407
 21
1678.516812122362
 31
0.0
  0
LINE
  5
418
330
1F
100
AcDbEntity
  8
Verdeckte Kante
 48
0.3
370
    35
100
AcDbLine
 10
2793.930301396406
 20
1868.516812122362
 30
0.0
 11
2793.930301396406
 21
1859.516812122362
 31
0.0
  0
LINE
  5
419
330
1F
100
AcDbEntity
  8
0
 48
0.3
370
    35
100
AcDbLine
 10
2787.930301396406
 20
1852.516812122362
 30
0.0
 11
2787.930301396406
 21
1678.516812122362
 31
0.0
  0
LINE
  5
41A
330
1F
100
AcDbEntity
  8
0
 48
0.3
370
    35
100
AcDbLine
 10
2796.930301396407
 20
1868.516812122362
 30
0.0
 11
2796.930301396407
 21
1859.516812122362
 31
0.0
  0
LINE
  5
41B
330
1F
100
AcDbEntity
  8
0
 48
0.3
370
    35
100
AcDbLine
 10
2546.930301396407
 20
1868.516812122362
 30
0.0
 11
2796.930301396407
 21
1868.516812122362
 31
0.0
  0
LINE
  5
41C
330
1F
100
AcDbEntity
  8
Verdeckte Kante
 48
0.3
370
    35
100
AcDbLine
 10
2546.930301396407
 20
1857.516812122362
 30
0.0
 11
2791.930301396407
 21
1857.516812122362
 31
0.0
  0
LINE
  5
41D
330
1F
100
AcDbEntity
  8
0
 48
0.3
370
    35
100
AcDbLine
 10
2551.930301396406
 20
1854.516812122362
 30
0.0
 11
2791.930301396407
 21
1854.516812122362
 31
0.0
  0
ARC
  5
41E
330
1F
100
AcDbEntity
  8
0
 48
0.3
370
    35
100
AcDbCircle
 10
2058.33811544978
 20
1852.516812122361
 30
0.0
 40
2.0
100
AcDbArc
 50
0.0
 51
90.0
  0
ARC
  5
41F
330
1F
100
AcDbEntity
  8
Verdeckte Kante
 48
0.3
370
    35
100
AcDbCircle
 10
2058.33811544978
 20
1852.516812122362
 30
0.0
 40
5.0
100
AcDbArc
 50
0.0
 51
90.0
  0
ARC
  5
420
330
1F
100
AcDbEntity
  8
Verdeckte Kante
 48
0.3
370
    35
100
AcDbCircle
 10
2789.930301396406
 20
1852.516812122362
 30
0.0
 40
5.0
100
AcDbArc
 50
90.0
 51
180.0
  0
ARC
  5
421
330
1F
100
AcDbEntity
  8
0
 48
0.3
370
    35
100
AcDbCircle
 10
2789.930301396406
 20
1852.516812122362
 30
0.0
 40
2.0
100
AcDbArc
 50
90.0
 51
180.0
  0
ARC
  5
422
330
1F
100
AcDbEntity
  8
Verdeckte Kante
 48
0.3
370
    35
100
AcDbCircle
 10
2791.930301396407
 20
1859.516812122362
 30
0.0
 40
2.0
100
AcDbArc
 50
270.0
 51
0.0
  0
ARC
  5
423
330
1F
100
AcDbEntity
  8
0
 48
0.3
370
    35
100
AcDbCircle
 10
2791.930301396407
 20
1859.516812122362
 30
0.0
 40
5.0
100
AcDbArc
 50
270.0
 51
0.0
  0
ARC
  5
424
330
1F
100
AcDbEntity
  8
0
 48
0.3
370
    35
100
AcDbCircle
 10
2551.930301396406
 20
1852.516812122362
 30
0.0
 40
2.0
100
AcDbArc
 50
90.0
 51
180.0
  0
LINE
  5
425
330
1F
100
AcDbEntity
  8
0
 48
0.3
370
    35
100
AcDbLine
 10
2546.930301396407
 20
1448.516812122362
 30
0.0
 11
2784.930301396407
 21
1448.516812122362
 31
0.0
  0
DIMENSION
  5
426
330
1F
100
AcDbEntity
  8
Bemassung
 48
0.3
370
    35
100
AcDbDimension
  2
*D15
 10
2796.930301396407
 20
1876.611011144161
 30
0.0
 11
2671.930301396407
 21
1880.236601695342
 31
0.0
 70
    32
 71
     5
 42
250.0
  3
MEA
100
AcDbAlignedDimension
 13
2546.930301396407
 23
1868.516812122362
 33
0.0
 14
2796.930301396407
 24
1868.516812122362
 34
0.0
100
AcDbRotatedDimension
1001
ACAD
1000
DSTYLE
1002
{
1070
    40
1040
1.0
1070
   140
1040
6.0
1002
}
  0
DIMENSION
  5
427
330
1F
100
AcDbEntity
  8
Bemassung
 48
0.3
370
    35
100
AcDbDimension
  2
*D16
 10
2811.066219198573
 20
1448.516812122362
 30
0.0
 11
2807.440628647391
 21
1658.516812122362
 31
0.0
 70
    32
 71
     5
 42
420.0
  3
MEA
100
AcDbAlignedDimension
 13
2796.930301396407
 23
1868.516812122362
 33
0.0
 14
2784.930301396407
 24
1448.516812122362
 34
0.0
 50
90.0
100
AcDbRotatedDimension
1001
ACAD
1000
DSTYLE
1002
{
1070
    40
1040
1.0
1070
   140
1040
6.0
1002
}
  0
DIMENSION
  5
428
330
1F
100
AcDbEntity
  8
Bemassung
 48
0.3
370
    35
100
AcDbDimension
  2
*D17
 10
2014.121835780537
 20
1778.516812122362
 30
0.0
 11
2010.496835780537
 21
1823.516812122363
 31
0.0
 70
    32
 71
     5
 42
90.0
  3
MEA
100
AcDbAlignedDimension
 13
2031.33811544978
 23
1868.516812122362
 33
0.0
 14
2042.33811544978
 24
1778.516812122362
 34
0.0
 50
90.0
100
AcDbRotatedDimension
1001
ACAD
1000
DSTYLE
1002
{
1070
    40
1040
1.0
1070
   140
1040
6.0
1002
}
  0
DIMENSION
  5
429
330
1F
100
AcDbEntity
  8
Bemassung
 48
0.3
370
    35
100
AcDbDimension
  2
*D18
 10
2014.121835780537
 20
1578.516812122362
 30
0.0
 11
2010.496245229355
 21
1678.516812122363
 31
0.0
 70
    32
 71
     5
 42
200.0
  3
MEA
100
AcDbAlignedDimension
 13
2042.33811544978
 23
1778.516812122362
 33
0.0
 14
2042.33811544978
 24
1578.516812122362
 34
0.0
 50
90.0
100
AcDbRotatedDimension
1001
ACAD
1000
DSTYLE
1002
{
1070
   140
1040
6.0
1070
    40
1040
1.0
1002
}
  0
DIMENSION
  5
42A
330
1F
100
AcDbEntity
  8
Bemassung
 48
0.3
370
    35
100
AcDbDimension
  2
*D19
 10
2451.338115449781
 20
1880.196276649751
 30
0.0
 11
2241.33811544978
 21
1883.821867200932
 31
0.0
 70
    32
 71
     5
 42
420.0
  3
MEA
100
AcDbAlignedDimension
 13
2031.33811544978
 23
1868.516812122362
 33
0.0
 14
2451.338115449781
 24
1868.516812122362
 34
0.0
100
AcDbRotatedDimension
1001
ACAD
1000
DSTYLE
1002
{
1070
    40
1040
1.0
1070
   140
1040
6.0
1002
}
  0
LINE
  5
42B
330
1F
100
AcDbEntity
  8
0
 48
0.3
370
    35
100
AcDbLine
 10
2060.338115449781
 20
1678.516812122362
 30
0.0
 11
2077.33811544978
 21
1648.516812122362
 31
0.0
  0
LINE
  5
42C
330
1F
100
AcDbEntity
  8
Verdeckte Kante
 48
0.3
370
    35
100
AcDbLine
 10
2063.33811544978
 20
1679.307731998679
 30
0.0
 11
2080.33811544978
 21
1649.307731998679
 31
0.0
  0
LINE
  5
42D
330
1F
100
AcDbEntity
  8
0
 48
0.3
370
    35
100
AcDbLine
 10
2043.33811544978
 20
1674.034932823229
 30
0.0
 11
2060.338115449781
 21
1644.034932823229
 31
0.0
  0
LINE
  5
42E
330
1F
100
AcDbEntity
  8
0
 48
0.3
370
    35
100
AcDbLine
 10
2077.33811544978
 20
1528.516812122362
 30
0.0
 11
2063.33811544978
 21
1478.516812122362
 31
0.0
  0
LINE
  5
42F
330
1F
100
AcDbEntity
  8
Verdeckte Kante
 48
0.3
370
    35
100
AcDbLine
 10
2080.178433684239
 20
1527.551103922647
 30
0.0
 11
2066.33811544978
 21
1478.020756174238
 31
0.0
  0
ARC
  5
430
330
1F
100
AcDbEntity
  8
0
 48
0.3
370
    35
100
AcDbCircle
 10
2046.33811544978
 20
1778.516812122363
 30
0.0
 40
15.0
100
AcDbArc
 50
180.0
 51
246.4218215217809
1001
GENIUS_GENODEF_13
1002
{
1000
HIER
1070
     0
1002
}
1002
{
1000
MANEDIT
1070
     0
1002
}
1002
{
1000
NOSEL
1070
     0
1002
}
1002
{
1000
BEHIND
1070
     0
1002
}
1002
{
1000
OTHER
1070
     0
1002
}
1002
{
1000
REACTOR
1002
}
1001
GENIUS_GENOBJ-N-FIL_13
1002
{
1000
OWNER
1000
GEN
1002
}
  0
ARC
  5
431
330
1F
100
AcDbEntity
  8
0
 48
0.3
370
    35
100
AcDbCircle
 10
2038.33811544978
 20
1760.18650934254
 30
0.0
 40
5.0
100
AcDbArc
 50
0.0
 51
66.42182152178091
1001
GENIUS_GENODEF_13
1002
{
1000
HIER
1070
     0
1002
}
1002
{
1000
MANEDIT
1070
     0
1002
}
1002
{
1000
NOSEL
1070
     0
1002
}
1002
{
1000
BEHIND
1070
     0
1002
}
1002
{
1000
OTHER
1070
     0
1002
}
1002
{
1000
REACTOR
1002
}
1001
GENIUS_GENOBJ-N-FIL_13
1002
{
1000
OWNER
1000
GEN
1002
}
  0
LINE
  5
432
330
1F
100
AcDbEntity
  8
0
 48
0.3
370
    35
100
AcDbLine
 10
2058.33811544978
 20
1563.516812122363
 30
0.0
 11
2046.338115449779
 21
1563.516812122363
 31
0.0
  0
ARC
  5
433
330
1F
100
AcDbEntity
  8
0
 48
0.3
370
    35
100
AcDbCircle
 10
2058.338115449779
 20
1558.516812122363
 30
0.0
 40
5.0
100
AcDbArc
 50
0.0
 51
90.0
1001
GENIUS_GENODEF_13
1002
{
1000
HIER
1070
     0
1002
}
1002
{
1000
MANEDIT
1070
     0
1002
}
1002
{
1000
NOSEL
1070
     0
1002
}
1002
{
1000
BEHIND
1070
     0
1002
}
1002
{
1000
OTHER
1070
     0
1002
}
1002
{
1000
REACTOR
1002
}
1001
GENIUS_GENOBJ-N-FIL_13
1002
{
1000
OWNER
1000
GEN
1002
}
  0
LINE
  5
434
330
1F
100
AcDbEntity
  8
0
 48
0.3
370
    35
100
AcDbLine
 10
2055.33811544978
 20
1593.516812122363
 30
0.0
 11
2046.338115449779
 21
1593.516812122362
 31
0.0
  0
ARC
  5
435
330
1F
100
AcDbEntity
  8
0
 48
0.3
370
    35
100
AcDbCircle
 10
2046.338115449779
 20
1578.516812122362
 30
0.0
 40
15.0
100
AcDbArc
 50
90.0
 51
270.0
  0
LINE
  5
436
330
1F
100
AcDbEntity
  8
0
 48
0.3
370
    35
100
AcDbLine
 10
2549.930301396406
 20
1678.516812122363
 30
0.0
 11
2787.930301396406
 21
1678.516812122362
 31
0.0
  0
LINE
  5
437
330
1F
100
AcDbEntity
  8
0
 48
0.3
370
    35
100
AcDbLine
 10
2549.930301396406
 20
1648.516812122363
 30
0.0
 11
2772.930301396407
 21
1648.516812122362
 31
0.0
  0
LINE
  5
438
330
1F
100
AcDbEntity
  8
0
 48
0.3
370
    35
100
AcDbLine
 10
2549.930301396406
 20
1528.516812122362
 30
0.0
 11
2772.930301396407
 21
1528.516812122362
 31
0.0
  0
LINE
  5
439
330
1F
100
AcDbEntity
  8
0
 48
0.3
370
    35
100
AcDbLine
 10
2549.930301396406
 20
1478.516812122362
 30
0.0
 11
2784.930301396407
 21
1478.516812122362
 31
0.0
  0
LINE
  5
43A
330
1F
100
AcDbEntity
  8
0
 48
0.3
370
    35
100
AcDbLine
 10
2772.930301396407
 20
1648.516812122362
 30
0.0
 11
2772.930301396407
 21
1528.516812122362
 31
0.0
  0
LINE
  5
43B
330
1F
100
AcDbEntity
  8
Verdeckte Kante
 48
0.3
370
    35
100
AcDbLine
 10
2769.930301396406
 20
1648.516812122362
 30
0.0
 11
2769.930301396406
 21
1528.516812122362
 31
0.0
  0
LINE
  5
43C
330
1F
100
AcDbEntity
  8
0
 48
0.3
370
    35
100
AcDbLine
 10
2784.930301396407
 20
1478.516812122362
 30
0.0
 11
2784.930301396407
 21
1448.516812122362
 31
0.0
  0
LINE
  5
43D
330
1F
100
AcDbEntity
  8
Verdeckte Kante
 48
0.3
370
    35
100
AcDbLine
 10
2781.930301396406
 20
1478.516812122362
 30
0.0
 11
2781.930301396406
 21
1448.516812122362
 31
0.0
  0
LINE
  5
43E
330
1F
100
AcDbEntity
  8
0
 48
0.3
370
    35
100
AcDbLine
 10
2772.930301396407
 20
1648.516812122362
 30
0.0
 11
2787.930301396406
 21
1678.516812122362
 31
0.0
  0
LINE
  5
43F
330
1F
100
AcDbEntity
  8
Verdeckte Kante
 48
0.3
370
    35
100
AcDbLine
 10
2770.247019823407
 20
1649.858452908862
 30
0.0
 11
2785.247019823407
 21
1679.858452908862
 31
0.0
  0
LINE
  5
440
330
1F
100
AcDbEntity
  8
0
 48
0.3
370
    35
100
AcDbLine
 10
2772.930301396407
 20
1528.516812122362
 30
0.0
 11
2784.930301396407
 21
1478.516812122362
 31
0.0
  0
LINE
  5
441
330
1F
100
AcDbEntity
  8
Verdeckte Kante
 48
0.3
370
    35
100
AcDbLine
 10
2770.013139490465
 20
1527.816693264936
 30
0.0
 11
2782.013139490465
 21
1477.816693264936
 31
0.0
  0
LINE
  5
442
330
1F
100
AcDbEntity
  8
Verdeckte Kante
 48
0.3
370
    35
100
AcDbLine
 10
2448.33811544978
 20
1868.516812122362
 30
0.0
 11
2448.33811544978
 21
1859.516812122362
 31
0.0
  0
LINE
  5
443
330
1F
100
AcDbEntity
  8
0
 48
0.3
370
    35
100
AcDbLine
 10
2451.338115449781
 20
1868.516812122362
 30
0.0
 11
2241.33811544978
 21
1868.516812122362
 31
0.0
  0
LINE
  5
444
330
1F
100
AcDbEntity
  8
Verdeckte Kante
 48
0.3
370
    35
100
AcDbLine
 10
2446.33811544978
 20
1857.516812122362
 30
0.0
 11
2241.33811544978
 21
1857.51681212236
 31
0.0
  0
LINE
  5
445
330
1F
100
AcDbEntity
  8
0
 48
0.3
370
    35
100
AcDbLine
 10
2451.338115449781
 20
1868.516812122362
 30
0.0
 11
2451.338115449779
 21
1778.516812122363
 31
0.0
  0
LINE
  5
446
330
1F
100
AcDbEntity
  8
0
 48
0.3
370
    35
100
AcDbLine
 10
2446.33811544978
 20
1854.516812122361
 30
0.0
 11
2241.33811544978
 21
1854.516812122362
 31
0.0
  0
ARC
  5
447
330
1F
100
AcDbEntity
  8
Verdeckte Kante
 48
0.3
370
    35
100
AcDbCircle
 10
2446.33811544978
 20
1859.516812122362
 30
0.0
 40
2.0
100
AcDbArc
 50
270.0
 51
0.0
  0
ARC
  5
448
330
1F
100
AcDbEntity
  8
0
 48
0.3
370
    35
100
AcDbCircle
 10
2446.33811544978
 20
1859.516812122361
 30
0.0
 40
5.0
100
AcDbArc
 50
270.0
 51
0.0
  0
CIRCLE
  5
449
330
1F
100
AcDbEntity
  8
0
 48
0.3
370
    35
100
AcDbCircle
 10
2436.33811544978
 20
1778.516812122362
 30
0.0
 40
5.0
  0
LINE
  5
44A
330
1F
100
AcDbEntity
  8
0
370
    35
100
AcDbLine
 10
2440.33811544978
 20
1778.516812122362
 30
0.0
 11
2432.33811544978
 21
1778.516812122362
 31
0.0
  0
LINE
  5
44B
330
1F
100
AcDbEntity
  8
0
370
    35
100
AcDbLine
 10
2436.33811544978
 20
1774.516812122362
 30
0.0
 11
2436.33811544978
 21
1782.516812122362
 31
0.0
  0
LINE
  5
44C
330
1F
100
AcDbEntity
  8
0
370
    35
100
AcDbLine
 10
2436.33811544978
 20
1574.516812122362
 30
0.0
 11
2436.33811544978
 21
1582.516812122362
 31
0.0
  0
LINE
  5
44D
330
1F
100
AcDbEntity
  8
0
370
    35
100
AcDbLine
 10
2440.33811544978
 20
1578.516812122362
 30
0.0
 11
2432.33811544978
 21
1578.516812122362
 31
0.0
  0
CIRCLE
  5
44E
330
1F
100
AcDbEntity
  8
0
 48
0.3
370
    35
100
AcDbCircle
 10
2436.33811544978
 20
1578.516812122362
 30
0.0
 40
5.0
  0
LINE
  5
44F
330
1F
100
AcDbEntity
  8
0
 48
0.3
370
    35
100
AcDbLine
 10
2419.338115449781
 20
1448.516812122361
 30
0.0
 11
2241.33811544978
 21
1448.516812122362
 31
0.0
  0
LINE
  5
450
330
1F
100
AcDbEntity
  8
0
 48
0.3
370
    35
100
AcDbLine
 10
2419.338115449779
 20
1478.516812122362
 30
0.0
 11
2241.33811544978
 21
1478.516812122362
 31
0.0
  0
LINE
  5
451
330
1F
100
AcDbEntity
  8
0
 48
0.3
370
    35
100
AcDbLine
 10
2405.33811544978
 20
1528.516812122362
 30
0.0
 11
2241.33811544978
 21
1528.516812122362
 31
0.0
  0
LINE
  5
452
330
1F
100
AcDbEntity
  8
0
 48
0.3
370
    35
100
AcDbLine
 10
2405.33811544978
 20
1648.516812122362
 30
0.0
 11
2241.33811544978
 21
1648.516812122362
 31
0.0
  0
LINE
  5
453
330
1F
100
AcDbEntity
  8
0
 48
0.3
370
    35
100
AcDbLine
 10
2422.33811544978
 20
1678.516812122362
 30
0.0
 11
2241.33811544978
 21
1678.516812122362
 31
0.0
  0
LINE
  5
454
330
1F
100
AcDbEntity
  8
Verdeckte Kante
 48
0.3
370
    35
100
AcDbLine
 10
2419.338115449781
 20
1852.516812122362
 30
0.0
 11
2419.338115449779
 21
1679.307731998679
 31
0.0
  0
LINE
  5
455
330
1F
100
AcDbEntity
  8
0
 48
0.3
370
    35
100
AcDbLine
 10
2422.33811544978
 20
1852.516812122361
 30
0.0
 11
2422.33811544978
 21
1678.516812122362
 31
0.0
  0
LINE
  5
456
330
1F
100
AcDbEntity
  8
0
 48
0.3
370
    35
100
AcDbLine
 10
2439.338115449781
 20
1760.18650934254
 30
0.0
 11
2439.338115449781
 21
1674.034932823229
 31
0.0
  0
LINE
  5
457
330
1F
100
AcDbEntity
  8
0
 48
0.3
370
    35
100
AcDbLine
 10
2405.33811544978
 20
1648.516812122362
 30
0.0
 11
2405.33811544978
 21
1528.516812122362
 31
0.0
  0
LINE
  5
458
330
1F
100
AcDbEntity
  8
Verdeckte Kante
 48
0.3
370
    35
100
AcDbLine
 10
2402.33811544978
 20
1649.307731998679
 30
0.0
 11
2402.33811544978
 21
1528.516812122362
 31
0.0
  0
LINE
  5
459
330
1F
100
AcDbEntity
  8
0
 48
0.3
370
    35
100
AcDbLine
 10
2422.33811544978
 20
1644.034932823229
 30
0.0
 11
2422.33811544978
 21
1598.516812122363
 31
0.0
  0
ARC
  5
45A
330
1F
100
AcDbEntity
  8
0
 48
0.3
370
    35
100
AcDbCircle
 10
2427.33811544978
 20
1598.516812122363
 30
0.0
 40
5.0
100
AcDbArc
 50
180.0
 51
270.0
1001
GENIUS_GENODEF_13
1002
{
1000
HIER
1070
     0
1002
}
1002
{
1000
MANEDIT
1070
     0
1002
}
1002
{
1000
NOSEL
1070
     0
1002
}
1002
{
1000
BEHIND
1070
     0
1002
}
1002
{
1000
OTHER
1070
     0
1002
}
1002
{
1000
REACTOR
1002
}
1001
GENIUS_GENOBJ-N-FIL_13
1002
{
1000
OWNER
1000
GEN
1002
}
  0
LINE
  5
45B
330
1F
100
AcDbEntity
  8
0
 48
0.3
370
    35
100
AcDbLine
 10
2419.338115449781
 20
1558.516812122363
 30
0.0
 11
2419.338115449781
 21
1448.516812122362
 31
0.0
  0
LINE
  5
45C
330
1F
100
AcDbEntity
  8
Verdeckte Kante
 48
0.3
370
    35
100
AcDbLine
 10
2416.338115449779
 20
1478.020756174238
 30
0.0
 11
2416.33811544978
 21
1448.516812122362
 31
0.0
  0
ARC
  5
45D
330
1F
100
AcDbEntity
  8
0
 48
0.3
370
    35
100
AcDbCircle
 10
2424.33811544978
 20
1852.516812122361
 30
0.0
 40
2.0
100
AcDbArc
 50
90.0
 51
180.0
  0
ARC
  5
45E
330
1F
100
AcDbEntity
  8
Verdeckte Kante
 48
0.3
370
    35
100
AcDbCircle
 10
2424.33811544978
 20
1852.516812122362
 30
0.0
 40
5.0
100
AcDbArc
 50
90.0
 51
180.0
  0
LINE
  5
45F
330
1F
100
AcDbEntity
  8
0
 48
0.3
370
    35
100
AcDbLine
 10
2422.33811544978
 20
1678.516812122362
 30
0.0
 11
2405.33811544978
 21
1648.516812122362
 31
0.0
  0
LINE
  5
460
330
1F
100
AcDbEntity
  8
Verdeckte Kante
 48
0.3
370
    35
100
AcDbLine
 10
2419.338115449779
 20
1679.307731998679
 30
0.0
 11
2402.33811544978
 21
1649.307731998679
 31
0.0
  0
LINE
  5
461
330
1F
100
AcDbEntity
  8
0
 48
0.3
370
    35
100
AcDbLine
 10
2439.338115449781
 20
1674.034932823229
 30
0.0
 11
2422.33811544978
 21
1644.034932823229
 31
0.0
  0
LINE
  5
462
330
1F
100
AcDbEntity
  8
0
 48
0.3
370
    35
100
AcDbLine
 10
2405.33811544978
 20
1528.516812122362
 30
0.0
 11
2419.338115449779
 21
1478.516812122362
 31
0.0
  0
LINE
  5
463
330
1F
100
AcDbEntity
  8
Verdeckte Kante
 48
0.3
370
    35
100
AcDbLine
 10
2402.497797215321
 20
1527.551103922647
 30
0.0
 11
2416.338115449779
 21
1478.020756174238
 31
0.0
  0
ARC
  5
464
330
1F
100
AcDbEntity
  8
0
 48
0.3
370
    35
100
AcDbCircle
 10
2436.33811544978
 20
1778.516812122363
 30
0.0
 40
15.0
100
AcDbArc
 50
293.5781784782191
 51
0.0
1001
GENIUS_GENODEF_13
1002
{
1000
HIER
1070
     0
1002
}
1002
{
1000
MANEDIT
1070
     0
1002
}
1002
{
1000
NOSEL
1070
     0
1002
}
1002
{
1000
BEHIND
1070
     0
1002
}
1002
{
1000
OTHER
1070
     0
1002
}
1002
{
1000
REACTOR
1002
}
1001
GENIUS_GENOBJ-N-FIL_13
1002
{
1000
OWNER
1000
GEN
1002
}
  0
ARC
  5
465
330
1F
100
AcDbEntity
  8
0
 48
0.3
370
    35
100
AcDbCircle
 10
2444.33811544978
 20
1760.18650934254
 30
0.0
 40
5.0
100
AcDbArc
 50
113.5781784782191
 51
180.0
1001
GENIUS_GENODEF_13
1002
{
1000
HIER
1070
     0
1002
}
1002
{
1000
MANEDIT
1070
     0
1002
}
1002
{
1000
NOSEL
1070
     0
1002
}
1002
{
1000
BEHIND
1070
     0
1002
}
1002
{
1000
OTHER
1070
     0
1002
}
1002
{
1000
REACTOR
1002
}
1001
GENIUS_GENOBJ-N-FIL_13
1002
{
1000
OWNER
1000
GEN
1002
}
  0
LINE
  5
466
330
1F
100
AcDbEntity
  8
0
 48
0.3
370
    35
100
AcDbLine
 10
2424.33811544978
 20
1563.516812122363
 30
0.0
 11
2436.33811544978
 21
1563.516812122363
 31
0.0
  0
ARC
  5
467
330
1F
100
AcDbEntity
  8
0
 48
0.3
370
    35
100
AcDbCircle
 10
2424.33811544978
 20
1558.516812122363
 30
0.0
 40
5.0
100
AcDbArc
 50
90.0
 51
180.0
1001
GENIUS_GENODEF_13
1002
{
1000
HIER
1070
     0
1002
}
1002
{
1000
MANEDIT
1070
     0
1002
}
1002
{
1000
NOSEL
1070
     0
1002
}
1002
{
1000
BEHIND
1070
     0
1002
}
1002
{
1000
OTHER
1070
     0
1002
}
1002
{
1000
REACTOR
1002
}
1001
GENIUS_GENOBJ-N-FIL_13
1002
{
1000
OWNER
1000
GEN
1002
}
  0
LINE
  5
468
330
1F
100
AcDbEntity
  8
0
 48
0.3
370
    35
100
AcDbLine
 10
2427.33811544978
 20
1593.516812122363
 30
0.0
 11
2436.33811544978
 21
1593.516812122362
 31
0.0
  0
ARC
  5
469
330
1F
100
AcDbEntity
  8
0
 48
0.3
370
    35
100
AcDbCircle
 10
2436.33811544978
 20
1578.516812122362
 30
0.0
 40
15.0
100
AcDbArc
 50
270.0
 51
90.0
  0
LINE
  5
46A
330
1F
100
AcDbEntity
  8
0
 48
0.3
370
    35
100
AcDbLine
 10
2034.33811544978
 20
1368.516812122362
 30
0.0
 11
2034.33811544978
 21
1123.516812122363
 31
0.0
  0
LINE
  5
46B
330
1F
100
AcDbEntity
  8
0
 48
0.3
370
    35
100
AcDbLine
 10
2031.33811544978
 20
1368.516812122362
 30
0.0
 11
2080.403052688017
 21
1368.516812122362
 31
0.0
  0
LINE
  5
46C
330
1F
100
AcDbEntity
  8
Verdeckte Kante
 48
0.3
370
    35
100
AcDbLine
 10
2031.33811544978
 20
1365.516812122362
 30
0.0
 11
2077.654059165964
 21
1365.516812122362
 31
0.0
  0
LINE
  5
46D
330
1F
100
AcDbEntity
  8
Mittellinie
 48
0.3
370
    35
100
AcDbLine
 10
2241.33811544978
 20
1368.516812122363
 30
0.0
 11
2241.33811544978
 21
1118.516812122362
 31
0.0
  0
LINE
  5
46E
330
1F
100
AcDbEntity
  8
0
 48
0.3
370
    35
100
AcDbLine
 10
2036.33811544978
 20
1121.516812122363
 30
0.0
 11
2241.33811544978
 21
1121.51681212236
 31
0.0
  0
ARC
  5
46F
330
1F
100
AcDbEntity
  8
0
 48
0.3
370
    35
100
AcDbCircle
 10
2036.33811544978
 20
1123.516812122363
 30
0.0
 40
2.0
100
AcDbArc
 50
180.0
 51
270.0
1001
GENIUS_GENODEF_13
1002
{
1000
HIER
1070
     0
1002
}
1002
{
1000
MANEDIT
1070
     0
1002
}
1002
{
1000
NOSEL
1070
     0
1002
}
1002
{
1000
BEHIND
1070
     0
1002
}
1002
{
1000
OTHER
1070
     0
1002
}
1002
{
1000
REACTOR
1002
}
1001
GENIUS_GENOBJ-N-FIL_13
1002
{
1000
OWNER
1000
GEN
1002
}
  0
LINE
  5
470
330
1F
100
AcDbEntity
  8
0
 48
0.3
370
    35
100
AcDbLine
 10
2031.33811544978
 20
1368.516812122362
 30
0.0
 11
2031.33811544978
 21
1123.516812122359
 31
0.0
  0
LINE
  5
471
330
1F
100
AcDbEntity
  8
0
 48
0.3
370
    35
100
AcDbLine
 10
2036.33811544978
 20
1118.51681212236
 30
0.0
 11
2241.33811544978
 21
1118.516812122362
 31
0.0
  0
LINE
  5
472
330
1F
100
AcDbEntity
  8
0
 48
0.3
370
    35
100
AcDbLine
 10
2175.793534770693
 20
1130.516812122359
 30
0.0
 11
2306.882696128871
 21
1130.516812122363
 31
0.0
  0
LINE
  5
473
330
1F
100
AcDbEntity
  8
0
 48
0.3
370
    35
100
AcDbLine
 10
2175.793534770693
 20
1147.51681212236
 30
0.0
 11
2306.882696128869
 21
1147.516812122363
 31
0.0
  0
LINE
  5
474
330
1F
100
AcDbEntity
  8
Verdeckte Kante
 48
0.3
370
    35
100
AcDbLine
 10
2175.793534770693
 20
1127.516812122359
 30
0.0
 11
2306.882696128871
 21
1127.516812122363
 31
0.0
  0
LINE
  5
475
330
1F
100
AcDbEntity
  8
Verdeckte Kante
 48
0.3
370
    35
100
AcDbLine
 10
2175.793534770693
 20
1144.516812122359
 30
0.0
 11
2306.882696128869
 21
1144.516812122363
 31
0.0
  0
ARC
  5
476
330
1F
100
AcDbEntity
  8
0
 48
0.3
370
    35
100
AcDbCircle
 10
2175.793534770693
 20
1230.516812122359
 30
0.0
 40
100.0
100
AcDbArc
 50
185.0000000000254
 51
270.0
1001
GENIUS_GENODEF_13
1002
{
1000
HIER
1070
     0
1002
}
1002
{
1000
MANEDIT
1070
     0
1002
}
1002
{
1000
NOSEL
1070
     0
1002
}
1002
{
1000
BEHIND
1070
     0
1002
}
1002
{
1000
OTHER
1070
     0
1002
}
1002
{
1000
REACTOR
1002
}
1001
GENIUS_GENOBJ-N-FIL_13
1002
{
1000
OWNER
1000
GEN
1002
}
  0
ARC
  5
477
330
1F
100
AcDbEntity
  8
0
 48
0.3
370
    35
100
AcDbCircle
 10
2175.793534770693
 20
1230.516812122359
 30
0.0
 40
83.0
100
AcDbArc
 50
185.0000000000254
 51
270.0
1001
GENIUS_GENODEF_13
1002
{
1000
HIER
1070
     0
1002
}
1002
{
1000
MANEDIT
1070
     0
1002
}
1002
{
1000
NOSEL
1070
     0
1002
}
1002
{
1000
BEHIND
1070
     0
1002
}
1002
{
1000
OTHER
1070
     0
1002
}
1002
{
1000
REACTOR
1002
}
1001
GENIUS_GENOBJ-N-FIL_13
1002
{
1000
OWNER
1000
GEN
1002
}
  0
ARC
  5
478
330
1F
100
AcDbEntity
  8
Verdeckte Kante
 48
0.3
370
    35
100
AcDbCircle
 10
2175.793534770693
 20
1230.516812122359
 30
0.0
 40
103.0
100
AcDbArc
 50
185.0000000000254
 51
270.0
1001
GENIUS_GENODEF_13
1002
{
1000
HIER
1070
     0
1002
}
1002
{
1000
MANEDIT
1070
     0
1002
}
1002
{
1000
NOSEL
1070
     0
1002
}
1002
{
1000
BEHIND
1070
     0
1002
}
1002
{
1000
OTHER
1070
     0
1002
}
1002
{
1000
REACTOR
1002
}
1001
GENIUS_GENOBJ-N-FIL_13
1002
{
1000
OWNER
1000
GEN
1002
}
  0
ARC
  5
479
330
1F
100
AcDbEntity
  8
Verdeckte Kante
 48
0.3
370
    35
100
AcDbCircle
 10
2175.793534770693
 20
1230.516812122359
 30
0.0
 40
86.0
100
AcDbArc
 50
185.0000000000254
 51
270.0
1001
GENIUS_GENODEF_13
1002
{
1000
HIER
1070
     0
1002
}
1002
{
1000
MANEDIT
1070
     0
1002
}
1002
{
1000
NOSEL
1070
     0
1002
}
1002
{
1000
BEHIND
1070
     0
1002
}
1002
{
1000
OTHER
1070
     0
1002
}
1002
{
1000
REACTOR
1002
}
1001
GENIUS_GENOBJ-N-FIL_13
1002
{
1000
OWNER
1000
GEN
1002
}
  0
ARC
  5
47A
330
1F
100
AcDbEntity
  8
0
 48
0.3
370
    35
100
AcDbCircle
 10
2036.33811544978
 20
1123.516812122359
 30
0.0
 40
5.0
100
AcDbArc
 50
180.0
 51
270.0
1001
GENIUS_GENODEF_13
1002
{
1000
HIER
1070
     0
1002
}
1002
{
1000
MANEDIT
1070
     0
1002
}
1002
{
1000
NOSEL
1070
     0
1002
}
1002
{
1000
BEHIND
1070
     0
1002
}
1002
{
1000
OTHER
1070
     0
1002
}
1002
{
1000
REACTOR
1002
}
1001
GENIUS_GENOBJ-N-FIL_13
1002
{
1000
OWNER
1000
GEN
1002
}
  0
LINE
  5
47B
330
1F
100
AcDbEntity
  8
0
 48
0.3
370
    35
100
AcDbLine
 10
2448.33811544978
 20
1368.516812122362
 30
0.0
 11
2448.33811544978
 21
1123.516812122363
 31
0.0
  0
LINE
  5
47C
330
1F
100
AcDbEntity
  8
0
 48
0.3
370
    35
100
AcDbLine
 10
2451.338115449781
 20
1368.516812122362
 30
0.0
 11
2402.273178211546
 21
1368.516812122362
 31
0.0
  0
LINE
  5
47D
330
1F
100
AcDbEntity
  8
Verdeckte Kante
 48
0.3
370
    35
100
AcDbLine
 10
2451.338115449781
 20
1365.516812122362
 30
0.0
 11
2405.259273445641
 21
1365.516812122362
 31
0.0
  0
LINE
  5
47E
330
1F
100
AcDbEntity
  8
0
 48
0.3
370
    35
100
AcDbLine
 10
2446.33811544978
 20
1121.516812122363
 30
0.0
 11
2241.33811544978
 21
1121.51681212236
 31
0.0
  0
ARC
  5
47F
330
1F
100
AcDbEntity
  8
0
 48
0.3
370
    35
100
AcDbCircle
 10
2446.33811544978
 20
1123.516812122363
 30
0.0
 40
2.0
100
AcDbArc
 50
270.0
 51
0.0
1001
GENIUS_GENODEF_13
1002
{
1000
HIER
1070
     0
1002
}
1002
{
1000
MANEDIT
1070
     0
1002
}
1002
{
1000
NOSEL
1070
     0
1002
}
1002
{
1000
BEHIND
1070
     0
1002
}
1002
{
1000
OTHER
1070
     0
1002
}
1002
{
1000
REACTOR
1002
}
1001
GENIUS_GENOBJ-N-FIL_13
1002
{
1000
OWNER
1000
GEN
1002
}
  0
LINE
  5
480
330
1F
100
AcDbEntity
  8
0
 48
0.3
370
    35
100
AcDbLine
 10
2451.338115449781
 20
1368.516812122362
 30
0.0
 11
2451.338115449779
 21
1123.516812122359
 31
0.0
  0
ARC
  5
481
330
1F
100
AcDbEntity
  8
0
 48
0.3
370
    35
100
AcDbCircle
 10
2446.338115449779
 20
1123.516812122359
 30
0.0
 40
5.0
100
AcDbArc
 50
270.0
 51
0.0
1001
GENIUS_GENODEF_13
1002
{
1000
HIER
1070
     0
1002
}
1002
{
1000
MANEDIT
1070
     0
1002
}
1002
{
1000
NOSEL
1070
     0
1002
}
1002
{
1000
BEHIND
1070
     0
1002
}
1002
{
1000
OTHER
1070
     0
1002
}
1002
{
1000
REACTOR
1002
}
1001
GENIUS_GENOBJ-N-FIL_13
1002
{
1000
OWNER
1000
GEN
1002
}
  0
LINE
  5
482
330
1F
100
AcDbEntity
  8
0
 48
0.3
370
    35
100
AcDbLine
 10
2446.338115449779
 20
1118.51681212236
 30
0.0
 11
2241.33811544978
 21
1118.516812122362
 31
0.0
  0
LINE
  5
483
330
1F
100
AcDbEntity
  8
0
 48
0.3
370
    35
100
AcDbLine
 10
2063.33811544978
 20
1368.516812122362
 30
0.0
 11
2076.174064961518
 21
1221.801237847593
 31
0.0
  0
LINE
  5
484
330
1F
100
AcDbEntity
  8
0
 48
0.3
370
    35
100
AcDbLine
 10
2080.403052688017
 20
1368.516812122362
 30
0.0
 11
2093.109374829078
 21
1223.282885474304
 31
0.0
  0
LINE
  5
485
330
1F
100
AcDbEntity
  8
Verdeckte Kante
 48
0.3
370
    35
100
AcDbLine
 10
2060.589121927728
 20
1365.516812122362
 30
0.0
 11
2073.185480867243
 21
1221.53977061935
 31
0.0
  0
LINE
  5
486
330
1F
100
AcDbEntity
  8
Verdeckte Kante
 48
0.3
370
    35
100
AcDbLine
 10
2077.524431795287
 20
1365.516812122362
 30
0.0
 11
2090.120790734803
 21
1223.02141824606
 31
0.0
  0
LINE
  5
487
330
1F
100
AcDbEntity
  8
0
 48
0.3
370
    35
100
AcDbLine
 10
2419.338115449782
 20
1368.516812122363
 30
0.0
 11
2406.502165938045
 21
1221.801237847597
 31
0.0
  0
LINE
  5
488
330
1F
100
AcDbEntity
  8
0
 48
0.3
370
    35
100
AcDbLine
 10
2402.273178211546
 20
1368.516812122362
 30
0.0
 11
2389.566856070485
 21
1223.282885474308
 31
0.0
  0
LINE
  5
489
330
1F
100
AcDbEntity
  8
Verdeckte Kante
 48
0.3
370
    35
100
AcDbLine
 10
2422.326699544057
 20
1365.516812122362
 30
0.0
 11
2409.49075003232
 21
1221.539770619354
 31
0.0
  0
LINE
  5
48A
330
1F
100
AcDbEntity
  8
Verdeckte Kante
 48
0.3
370
    35
100
AcDbLine
 10
2405.259273445641
 20
1365.516812122362
 30
0.0
 11
2392.557909759068
 21
1223.049379933234
 31
0.0
  0
ARC
  5
48B
330
1F
100
AcDbEntity
  8
0
 48
0.3
370
    35
100
AcDbCircle
 10
2306.882696128869
 20
1230.516812122363
 30
0.0
 40
100.0
100
AcDbArc
 50
270.0
 51
355.0000000000265
1001
GENIUS_GENODEF_13
1002
{
1000
HIER
1070
     0
1002
}
1002
{
1000
MANEDIT
1070
     0
1002
}
1002
{
1000
NOSEL
1070
     0
1002
}
1002
{
1000
BEHIND
1070
     0
1002
}
1002
{
1000
OTHER
1070
     0
1002
}
1002
{
1000
REACTOR
1002
}
1001
GENIUS_GENOBJ-N-FIL_13
1002
{
1000
OWNER
1000
GEN
1002
}
  0
ARC
  5
48C
330
1F
100
AcDbEntity
  8
0
 48
0.3
370
    35
100
AcDbCircle
 10
2306.882696128869
 20
1230.516812122363
 30
0.0
 40
83.0
100
AcDbArc
 50
270.0
 51
355.0000000000265
1001
GENIUS_GENODEF_13
1002
{
1000
HIER
1070
     0
1002
}
1002
{
1000
MANEDIT
1070
     0
1002
}
1002
{
1000
NOSEL
1070
     0
1002
}
1002
{
1000
BEHIND
1070
     0
1002
}
1002
{
1000
OTHER
1070
     0
1002
}
1002
{
1000
REACTOR
1002
}
1001
GENIUS_GENOBJ-N-FIL_13
1002
{
1000
OWNER
1000
GEN
1002
}
  0
ARC
  5
48D
330
1F
100
AcDbEntity
  8
Verdeckte Kante
 48
0.3
370
    35
100
AcDbCircle
 10
2306.882696128869
 20
1230.516812122363
 30
0.0
 40
103.0
100
AcDbArc
 50
270.0
 51
355.0000000000265
1001
GENIUS_GENODEF_13
1002
{
1000
HIER
1070
     0
1002
}
1002
{
1000
MANEDIT
1070
     0
1002
}
1002
{
1000
NOSEL
1070
     0
1002
}
1002
{
1000
BEHIND
1070
     0
1002
}
1002
{
1000
OTHER
1070
     0
1002
}
1002
{
1000
REACTOR
1002
}
1001
GENIUS_GENOBJ-N-FIL_13
1002
{
1000
OWNER
1000
GEN
1002
}
  0
ARC
  5
48E
330
1F
100
AcDbEntity
  8
Verdeckte Kante
 48
0.3
370
    35
100
AcDbCircle
 10
2306.882696128869
 20
1230.516812122363
 30
0.0
 40
86.0
100
AcDbArc
 50
270.0
 51
355.0000000000265
1001
GENIUS_GENODEF_13
1002
{
1000
HIER
1070
     0
1002
}
1002
{
1000
MANEDIT
1070
     0
1002
}
1002
{
1000
NOSEL
1070
     0
1002
}
1002
{
1000
BEHIND
1070
     0
1002
}
1002
{
1000
OTHER
1070
     0
1002
}
1002
{
1000
REACTOR
1002
}
1001
GENIUS_GENOBJ-N-FIL_13
1002
{
1000
OWNER
1000
GEN
1002
}
  0
DIMENSION
  5
48F
330
1F
100
AcDbEntity
  8
Bemassung
 48
0.3
370
    35
100
AcDbDimension
  2
*D20
 10
2436.33811544978
 20
1617.384277429693
 30
0.0
 11
2241.33811544978
 21
1621.009277429693
 31
0.0
 70
    32
 71
     5
 42
390.0
  3
MEA
100
AcDbAlignedDimension
 13
2046.338115449779
 23
1582.516812122362
 33
0.0
 14
2436.33811544978
 24
1582.516812122362
 34
0.0
100
AcDbRotatedDimension
1001
ACAD
1000
DSTYLE
1002
{
1070
    40
1040
1.0
1070
   140
1040
6.0
1002
}
  0
DIMENSION
  5
490
330
1F
100
AcDbEntity
  8
Bemassung
 48
0.3
370
    35
100
AcDbDimension
  2
*D21
 10
2419.338115449782
 20
1393.485544806328
 30
0.0
 11
2241.338115449781
 21
1397.110544806328
 31
0.0
 70
    32
 71
     5
 42
356.0000000000023
  3
MEA
100
AcDbAlignedDimension
 13
2063.33811544978
 23
1368.516812122362
 33
0.0
 14
2419.338115449782
 24
1368.516812122362
 34
0.0
100
AcDbRotatedDimension
1001
ACAD
1000
DSTYLE
1002
{
1070
    40
1040
1.0
1070
   140
1040
6.0
1002
}
  0
LINE
  5
492
330
1F
100
AcDbEntity
  8
Bemassung
 48
0.3
370
    25
100
AcDbLine
 10
2080.403052688017
 20
1368.516812122362
 30
0.0
 11
2402.273178211546
 21
1368.516812122362
 31
0.0
  0
DIMENSION
  5
495
330
1F
100
AcDbEntity
  8
Bemassung
 48
0.3
370
    35
100
AcDbDimension
  2
*D23
 10
2546.930301396407
 20
1424.830251702227
 30
0.0
 11
2658.430301396407
 21
1428.455842253408
 31
0.0
 70
    32
 71
     5
 42
223.0
  3
MEA
100
AcDbAlignedDimension
 13
2769.930301396406
 23
1528.516812122362
 33
0.0
 14
2546.930301396407
 24
1528.516812122363
 34
0.0
100
AcDbRotatedDimension
1001
ACAD
1000
DSTYLE
1002
{
1070
    40
1040
1.0
1070
   140
1040
6.0
1002
}
  0
DIMENSION
  5
496
330
1F
100
AcDbEntity
  8
Bemassung
 48
0.3
370
    35
100
AcDbDimension
  2
*D24
 10
2080.403052688017
 20
1381.708657456345
 30
0.0
 11
2241.338115449781
 21
1381.708657456345
 31
0.0
 70
   160
  1
320
 71
     5
 42
321.8701255235282
  3
MEA$0
100
AcDbAlignedDimension
 13
2402.273178211546
 23
1368.516812122362
 33
0.0
 14
2080.403052688017
 24
1368.516812122362
 34
0.0
100
AcDbRotatedDimension
1001
ACAD
1000
DSTYLE
1002
{
1070
    40
1040
1.0
1070
   140
1040
6.0
1002
}
1001
ACAD_DSTYLE_DIMINSPECT
1070
   396
1000
100%
1070
   395
1000

1070
   394
1070
    33
1070
   393
1070
     0
  0
DIMENSION
  5
497
330
1F
100
AcDbEntity
  8
Bemassung
 48
0.3
370
    35
100
AcDbDimension
  2
*D25
 10
2469.86859927069
 20
1148.516812122362
 30
0.0
 11
2469.86859927069
 21
1258.516812122363
 31
0.0
 70
   160
 71
     5
 42
220.0
  3
MEA$0
100
AcDbAlignedDimension
 13
2448.33811544978
 23
1368.516812122362
 33
0.0
 14
2241.338115449779
 24
1148.516812122362
 34
0.0
 50
90.0
100
AcDbRotatedDimension
1001
ACAD_DSTYLE_DIMINSPECT
1070
   396
1000
100%
1070
   395
1000

1070
   394
1070
    33
1070
   393
1070
     0
1001
ACAD
1000
DSTYLE
1002
{
1070
    40
1040
1.0
1070
   140
1040
6.0
1002
}
  0
DIMENSION
  5
498
330
1F
100
AcDbEntity
  8
Bemassung
 48
0.3
370
    35
100
AcDbDimension
  2
*D26
 10
2483.683809071877
 20
1130.516812122361
 30
0.0
 11
2480.058218520695
 21
1249.516812122362
 31
0.0
 70
    32
 71
     5
 42
238.0000000000009
  3
MEA$0
100
AcDbAlignedDimension
 13
2448.33811544978
 23
1368.516812122362
 33
0.0
 14
2241.338115449782
 24
1130.516812122361
 34
0.0
 50
90.0
100
AcDbRotatedDimension
1001
ACAD_DSTYLE_DIMINSPECT
1070
   396
1000
100%
1070
   395
1000

1070
   394
1070
    33
1070
   393
1070
     0
1001
ACAD
1000
DSTYLE
1002
{
1070
    40
1040
1.0
1070
   140
1040
6.0
1002
}
  0
DIMENSION
  5
499
330
1F
100
AcDbEntity
  8
AM_5
100
AcDbDimension
  2
*D27
 10
2431.760797897371
 20
1776.504807146121
 30
0.0
 11
2459.998682432825
 21
1788.917047187005
 31
0.0
 70
   163
 71
     5
 42
10.00000000000091
  3
MEA$3
100
AcDbDiametricDimension
 15
2440.915433002187
 25
1780.528817098602
 35
0.0
 40
0.0
1001
ACAD
1000
DSTYLE
1002
{
1070
    40
1040
1.0
1002
}
1001
ACAD_DSTYLE_DIMRADIAL_EXTENSION
1070
   387
1070
     1
1070
   388
1040
0.0
1070
   390
1040
0.0
1001
ACAD_DSTYLE_DIMINSPECT
1070
   396
1000
100%
1070
   395
1000

1070
   394
1070
    33
1070
   393
1070
     0
  0
MTEXT
  5
49A
330
1F
100
AcDbEntity
  8
Bemassung
 48
0.3
370
    25
100
AcDbMText
 10
2934.823927318988
 20
1083.203633231022
 30
0.0
 40
20.0
 41
316.4062895559018
 71
     1
 72
     5
  1
MEA Lüftungsschacht
 73
     1
 44
1.0
1001
ACAD
1000
ACAD_MTEXT_COLUMN_INFO_BEGIN
1070
    75
1070
     2
1070
    79
1070
     0
1070
    76
1070
     1
1070
    78
1070
     0
1070
    48
1040
316.4062895559018
1070
    49
1040
35.0
1070
    50
1070
     1
1040
0.0
1000
ACAD_MTEXT_COLUMN_INFO_END
1000
MTEXTBEGIN
1070
    73
1070
     1
1070
    44
1040
1.0
1070
    74
1070
     0
1000
MTEXTEND
  0
LWPOLYLINE
  5
49B
330
1F
100
AcDbEntity
  8
Bemassung
 48
0.3
370
    25
100
AcDbPolyline
 90
        4
 70
     1
 43
0.0
 10
2928.65953745643
 20
1058.094598620546
 10
3209.453434296885
 20
1058.094598620546
 10
3209.453434296885
 20
1086.866077348142
 10
2928.65953745643
 20
1086.866077348142
1001
GENIUS_GENREC_14
1002
{
1000
PYDIR
1011
2928.65953745643
1021
1086.866077348142
1031
0.0
1002
}
1002
{
1000
PXDIR
1011
3209.453434296885
1021
1058.094598620546
1031
0.0
1002
}
1002
{
1000
PORI
1011
2928.65953745643
1021
1058.094598620546
1031
0.0
1002
}
1002
{
1000
PINS
1011
2928.65953745643
1021
1058.094598620546
1031
0.0
1002
}
1002
{
1000
PINS2
1011
3209.453434296885
1021
1086.866077348142
1031
0.0
1002
}
1002
{
1000
C
1070
     1
1002
}
1001
GENIUS_GENOBJ-N-REC_13
1002
{
1000
OWNER
1000
GEN
1002
}
1001
GENIUS_GENODEF_13
1002
{
1000
HIER
1070
     0
1002
}
1002
{
1000
MANEDIT
1070
     0
1002
}
1002
{
1000
NOSEL
1070
     0
1002
}
1002
{
1000
BEHIND
1070
     0
1002
}
1002
{
1000
OTHER
1070
     0
1002
}
1002
{
1000
REACTOR
1002
}
  0
LINE
  5
5A9
330
1F
100
AcDbEntity
  8
0
 48
0.3
370
    35
100
AcDbLine
 10
2914.069946532052
 20
1868.516812122362
 30
0.0
 11
2914.069946532052
 21
1448.516812122362
 31
0.0
  0
LINE
  5
5AA
330
1F
100
AcDbEntity
  8
0
 48
0.3
370
    35
100
AcDbLine
 10
2917.069946532052
 20
1852.516812122362
 30
0.0
 11
2917.069946532052
 21
1448.516812122362
 31
0.0
  0
LINE
  5
5AB
330
1F
100
AcDbEntity
  8
Verdeckte Kante
 48
0.3
370
    35
100
AcDbLine
 10
3152.069946532052
 20
1852.516812122362
 30
0.0
 11
3152.069946532052
 21
1678.516812122362
 31
0.0
  0
LINE
  5
5AC
330
1F
100
AcDbEntity
  8
Verdeckte Kante
 48
0.3
370
    35
100
AcDbLine
 10
3161.069946532052
 20
1868.516812122362
 30
0.0
 11
3161.069946532052
 21
1859.516812122362
 31
0.0
  0
LINE
  5
5AD
330
1F
100
AcDbEntity
  8
0
 48
0.3
370
    35
100
AcDbLine
 10
3155.069946532052
 20
1852.516812122362
 30
0.0
 11
3155.069946532052
 21
1678.516812122362
 31
0.0
  0
LINE
  5
5AE
330
1F
100
AcDbEntity
  8
0
 48
0.3
370
    35
100
AcDbLine
 10
3164.069946532052
 20
1868.516812122362
 30
0.0
 11
3164.069946532052
 21
1859.516812122362
 31
0.0
  0
LINE
  5
5AF
330
1F
100
AcDbEntity
  8
0
 48
0.3
370
    35
100
AcDbLine
 10
2914.069946532052
 20
1868.516812122362
 30
0.0
 11
3164.069946532052
 21
1868.516812122362
 31
0.0
  0
LINE
  5
5B0
330
1F
100
AcDbEntity
  8
Verdeckte Kante
 48
0.3
370
    35
100
AcDbLine
 10
2914.069946532052
 20
1857.516812122362
 30
0.0
 11
3159.069946532052
 21
1857.516812122362
 31
0.0
  0
LINE
  5
5B1
330
1F
100
AcDbEntity
  8
0
 48
0.3
370
    35
100
AcDbLine
 10
2919.069946532053
 20
1854.516812122362
 30
0.0
 11
3159.069946532052
 21
1854.516812122362
 31
0.0
  0
ARC
  5
5B2
330
1F
100
AcDbEntity
  8
Verdeckte Kante
 48
0.3
370
    35
100
AcDbCircle
 10
3157.069946532053
 20
1852.516812122362
 30
0.0
 40
5.0
100
AcDbArc
 50
90.0
 51
180.0
  0
ARC
  5
5B3
330
1F
100
AcDbEntity
  8
0
 48
0.3
370
    35
100
AcDbCircle
 10
3157.069946532053
 20
1852.516812122362
 30
0.0
 40
2.0
100
AcDbArc
 50
90.0
 51
180.0
  0
ARC
  5
5B4
330
1F
100
AcDbEntity
  8
Verdeckte Kante
 48
0.3
370
    35
100
AcDbCircle
 10
3159.069946532052
 20
1859.516812122362
 30
0.0
 40
2.0
100
AcDbArc
 50
270.0
 51
0.0
  0
ARC
  5
5B5
330
1F
100
AcDbEntity
  8
0
 48
0.3
370
    35
100
AcDbCircle
 10
3159.069946532052
 20
1859.516812122362
 30
0.0
 40
5.0
100
AcDbArc
 50
270.0
 51
0.0
  0
ARC
  5
5B6
330
1F
100
AcDbEntity
  8
0
 48
0.3
370
    35
100
AcDbCircle
 10
2919.069946532053
 20
1852.516812122362
 30
0.0
 40
2.0
100
AcDbArc
 50
90.0
 51
180.0
  0
LINE
  5
5B7
330
1F
100
AcDbEntity
  8
0
 48
0.3
370
    35
100
AcDbLine
 10
2914.069946532052
 20
1448.516812122362
 30
0.0
 11
3152.069946532052
 21
1448.516812122362
 31
0.0
  0
LINE
  5
5BA
330
1F
100
AcDbEntity
  8
0
 48
0.3
370
    35
100
AcDbLine
 10
2917.069946532052
 20
1678.516812122363
 30
0.0
 11
3155.069946532052
 21
1678.516812122362
 31
0.0
  0
LINE
  5
5BB
330
1F
100
AcDbEntity
  8
0
 48
0.3
370
    35
100
AcDbLine
 10
2917.069946532052
 20
1648.516812122363
 30
0.0
 11
3140.069946532052
 21
1648.516812122362
 31
0.0
  0
LINE
  5
5BC
330
1F
100
AcDbEntity
  8
0
 48
0.3
370
    35
100
AcDbLine
 10
2917.069946532052
 20
1528.516812122362
 30
0.0
 11
3140.069946532052
 21
1528.516812122362
 31
0.0
  0
LINE
  5
5BD
330
1F
100
AcDbEntity
  8
0
 48
0.3
370
    35
100
AcDbLine
 10
2917.069946532052
 20
1478.516812122362
 30
0.0
 11
3152.069946532052
 21
1478.516812122362
 31
0.0
  0
LINE
  5
5BE
330
1F
100
AcDbEntity
  8
0
 48
0.3
370
    35
100
AcDbLine
 10
3140.069946532052
 20
1648.516812122362
 30
0.0
 11
3140.069946532052
 21
1528.516812122362
 31
0.0
  0
LINE
  5
5BF
330
1F
100
AcDbEntity
  8
Verdeckte Kante
 48
0.3
370
    35
100
AcDbLine
 10
3137.069946532053
 20
1648.516812122362
 30
0.0
 11
3137.069946532053
 21
1528.516812122362
 31
0.0
  0
LINE
  5
5C0
330
1F
100
AcDbEntity
  8
0
 48
0.3
370
    35
100
AcDbLine
 10
3152.069946532052
 20
1478.516812122362
 30
0.0
 11
3152.069946532052
 21
1448.516812122362
 31
0.0
  0
LINE
  5
5C1
330
1F
100
AcDbEntity
  8
Verdeckte Kante
 48
0.3
370
    35
100
AcDbLine
 10
3149.069946532052
 20
1478.516812122362
 30
0.0
 11
3149.069946532052
 21
1448.516812122362
 31
0.0
  0
LINE
  5
5C2
330
1F
100
AcDbEntity
  8
0
 48
0.3
370
    35
100
AcDbLine
 10
3140.069946532052
 20
1648.516812122362
 30
0.0
 11
3155.069946532052
 21
1678.516812122362
 31
0.0
  0
LINE
  5
5C3
330
1F
100
AcDbEntity
  8
Verdeckte Kante
 48
0.3
370
    35
100
AcDbLine
 10
3137.386664959053
 20
1649.858452908862
 30
0.0
 11
3152.386664959053
 21
1679.858452908862
 31
0.0
  0
LINE
  5
5C4
330
1F
100
AcDbEntity
  8
0
 48
0.3
370
    35
100
AcDbLine
 10
3140.069946532052
 20
1528.516812122362
 30
0.0
 11
3152.069946532052
 21
1478.516812122362
 31
0.0
  0
LINE
  5
5C5
330
1F
100
AcDbEntity
  8
Verdeckte Kante
 48
0.3
370
    35
100
AcDbLine
 10
3137.152784626111
 20
1527.816693264936
 30
0.0
 11
3149.152784626111
 21
1477.816693264936
 31
0.0
  0
INSERT
  5
663
102
{ACAD_REACTORS
330
675
102
}
330
1F
100
AcDbEntity
  8
0
100
AcDbBlockReference
  2
A$C2A8D6760
 10
2914.069943753008
 20
1218.516812701793
 30
0.0
  0
DIMENSION
  5
667
102
{ACAD_XDICTIONARY
360
674
102
}
102
{ACAD_REACTORS
330
675
102
}
330
1F
100
AcDbEntity
  8
Bemassung
 48
0.3
370
    35
100
AcDbDimension
  2
*D32
 10
3176.069947542052
 20
1638.516812122362
 30
0.0
 11
3172.444947542051
 21
1543.516812122363
 31
0.0
 70
    32
  1
<>
 71
     5
 42
190.0
  3
MEA$0
100
AcDbAlignedDimension
 13
3151.715844565803
 23
1448.516812122362
 33
0.0
 14
3140.069946532052
 24
1638.516812122362
 34
0.0
 50
89.99999999999976
100
AcDbRotatedDimension
1001
ACAD
1000
DSTYLE
1002
{
1070
    40
1040
1.0
1070
   140
1040
6.0
1002
}
1001
ACAD_DSTYLE_DIMINSPECT
1070
   396
1000
100%
1070
   395
1000

1070
   394
1070
    33
1070
   393
1070
     0
  0
LWPOLYLINE
  5
6B8
330
1F
100
AcDbEntity
  8
Bemassung
 48
0.3
370
    25
100
AcDbPolyline
 90
        4
 70
     1
 43
0.0
 10
1969.587246591327
 20
1940.073199277563
 10
3209.453434296885
 20
1940.073199277563
 10
3209.453434296885
 20
1058.094598620546
 10
1969.587246591327
 20
1058.094598620546
1001
GENIUS_GENREC_14
1002
{
1000
PYDIR
1011
1969.587246591327
1021
1058.094598620546
1031
0.0
1002
}
1002
{
1000
PXDIR
1011
3209.453434296885
1021
1978.503639460511
1031
0.0
1002
}
1002
{
1000
PORI
1011
1969.587246591327
1021
1978.503639460511
1031
0.0
1002
}
1002
{
1000
PINS
1011
1969.587246591327
1021
1978.503639460511
1031
0.0
1002
}
1002
{
1000
PINS2
1011
3209.453434296885
1021
1058.094598620546
1031
0.0
1002
}
1002
{
1000
C
1070
     1
1002
}
1001
GENIUS_GENOBJ-N-REC_13
1002
{
1000
OWNER
1000
GEN
1002
}
1001
GENIUS_GENODEF_13
1002
{
1000
HIER
1070
     0
1002
}
1002
{
1000
MANEDIT
1070
     0
1002
}
1002
{
1000
NOSEL
1070
     0
1002
}
1002
{
1000
BEHIND
1070
     0
1002
}
1002
{
1000
OTHER
1070
     0
1002
}
1002
{
1000
REACTOR
1002
}
  0
LWPOLYLINE
  5
6B9
330
1F
100
AcDbEntity
  8
Bemassung
 48
0.3
370
    25
100
AcDbPolyline
 90
        4
 70
     1
 43
0.0
 10
1964.587246591326
 20
1945.073199277564
 10
3214.453434296884
 20
1945.073199277564
 10
3214.453434296884
 20
1053.094598620546
 10
1964.587246591326
 20
1053.094598620546
1001
GENIUS_GENREC_14
1002
{
1000
PYDIR
1011
1969.587246591327
1021
1058.094598620546
1031
0.0
1002
}
1002
{
1000
PXDIR
1011
3209.453434296885
1021
1978.503639460511
1031
0.0
1002
}
1002
{
1000
PORI
1011
1969.587246591327
1021
1978.503639460511
1031
0.0
1002
}
1002
{
1000
PINS
1011
1969.587246591327
1021
1978.503639460511
1031
0.0
1002
}
1002
{
1000
PINS2
1011
3209.453434296885
1021
1058.094598620546
1031
0.0
1002
}
1002
{
1000
C
1070
     1
1002
}
1001
GENIUS_GENOBJ-N-REC_13
1002
{
1000
OWNER
1000
GEN
1002
}
1001
GENIUS_GENODEF_13
1002
{
1000
HIER
1070
     0
1002
}
1002
{
1000
MANEDIT
1070
     0
1002
}
1002
{
1000
NOSEL
1070
     0
1002
}
1002
{
1000
BEHIND
1070
     0
1002
}
1002
{
1000
OTHER
1070
     0
1002
}
1002
{
1000
REACTOR
1002
}
  0
ENDSEC
  0
SECTION
  2
OBJECTS
  0
DICTIONARY
  5
C
330
0
100
AcDbDictionary
281
     1
  3
ACAD_2007HEADERVARS_RT
350
82B
  3
ACAD_CIP_PREVIOUS_PRODUCT_INFO
350
216
  3
ACAD_COLOR
350
6B
  3
ACAD_GROUP
350
D
  3
ACAD_LAYOUT
350
1A
  3
ACAD_MATERIAL
350
6A
  3
ACAD_MLEADERSTYLE
350
12D
  3
ACAD_MLINESTYLE
350
17
  3
ACAD_PLOTSETTINGS
350
19
  3
ACAD_PLOTSTYLENAME
350
E
  3
ACAD_SCALELIST
350
10C
  3
ACAD_TABLESTYLE
350
7E
  3
ACAD_VISUALSTYLE
350
EF
  3
ACDB_RECOMPOSE_DATA
350
829
  3
AcDbVariableDictionary
350
5E
  3
AcmDictionary
350
24C
  3
AMG
350
234
  3
AMGSNAPSETTINGS
350
293
  3
DWGPROPS
350
82A
  0
DICTIONARY
  5
1FF
330
2
100
AcDbDictionary
280
     1
281
     1
  3
ACAD_LAYERSTATES
360
200
  0
DICTIONARY
  5
13C
330
10
100
AcDbDictionary
280
     1
281
     1
  0
DICTIONARY
  5
337
330
336
100
AcDbDictionary
280
     1
281
     1
  0
DICTIONARY
  5
339
330
338
100
AcDbDictionary
280
     1
281
     1
  0
DICTIONARY
  5
33B
330
33A
100
AcDbDictionary
280
     1
281
     1
  0
DICTIONARY
  5
33D
330
33C
100
AcDbDictionary
280
     1
281
     1
  0
DICTIONARY
  5
1CE
330
1F
100
AcDbDictionary
280
     1
281
     1
  3
ACAD_SORTENTS
360
6BA
  0
DICTIONARY
  5
660
330
644
100
AcDbDictionary
280
     1
281
     1
  0
DICTIONARY
  5
86A
330
2F3
100
AcDbDictionary
280
     1
281
     1
  3
ACAD_MTEXT_RT
360
86B
  0
DICTIONARY
  5
86C
330
32E
100
AcDbDictionary
280
     1
281
     1
  3
ACAD_MTEXT_RT
360
86D
  0
DICTIONARY
  5
86E
330
577
100
AcDbDictionary
280
     1
281
     1
  3
ACAD_MTEXT_RT
360
86F
  0
DICTIONARY
  5
870
330
5A3
100
AcDbDictionary
280
     1
281
     1
  3
ACAD_MTEXT_RT
360
871
  0
DICTIONARY
  5
674
330
667
100
AcDbDictionary
280
     1
281
     1
  3
ACAD_DIMASSOC
360
675
  0
DICTIONARY
  5
82B
102
{ACAD_REACTORS
330
C
102
}
330
C
100
AcDbDictionary
281
     1
  3
DIMJOGANG
350
82C
  3
DIMLTEX1
350
82E
  3
DIMLTEX2
350
82F
  3
DIMLTYPE
350
82D
  0
XRECORD
  5
216
102
{ACAD_REACTORS
330
C
102
}
330
C
100
AcDbXrecord
280
     1
300
AMECH_PP
300
2012
300
PDSP_F_S
  0
DICTIONARY
  5
6B
102
{ACAD_REACTORS
330
C
102
}
330
C
100
AcDbDictionary
281
     1
  0
DICTIONARY
  5
D
102
{ACAD_REACTORS
330
C
102
}
330
C
100
AcDbDictionary
281
     1
  0
DICTIONARY
  5
1A
102
{ACAD_REACTORS
330
C
102
}
330
C
100
AcDbDictionary
281
     1
  3
Layout1
350
D3
  3
Layout2
350
D7
  3
Model
350
22
  0
DICTIONARY
  5
6A
102
{ACAD_REACTORS
330
C
102
}
330
C
100
AcDbDictionary
281
     1
  3
ByBlock
350
ED
  3
ByLayer
350
EC
  3
Global
350
EE
  0
DICTIONARY
  5
12D
102
{ACAD_REACTORS
330
C
102
}
330
C
100
AcDbDictionary
281
     1
  3
Annotative
350
13B
  3
Standard
350
12E
  0
DICTIONARY
  5
17
102
{ACAD_REACTORS
330
C
102
}
330
C
100
AcDbDictionary
281
     1
  3
Standard
350
18
  0
DICTIONARY
  5
19
102
{ACAD_REACTORS
330
C
102
}
330
C
100
AcDbDictionary
281
     1
  0
ACDBDICTIONARYWDFLT
  5
E
102
{ACAD_REACTORS
330
C
102
}
330
C
100
AcDbDictionary
281
     1
  3
Normal
350
F
100
AcDbDictionaryWithDefault
340
F
  0
DICTIONARY
  5
10C
102
{ACAD_REACTORS
330
C
102
}
330
C
100
AcDbDictionary
281
     1
  3
A0
350
10D
  3
A1
350
1BE
  3
A2
350
1BF
  3
A3
350
1C0
  3
A4
350
1C1
  3
A5
350
1C2
  3
A6
350
1C3
  3
A7
350
1C4
  3
A8
350
1C5
  3
A9
350
1C6
  3
B0
350
1C7
  3
B1
350
1C8
  3
B2
350
1C9
  3
B3
350
1CA
  3
B4
350
1CB
  3
B5
350
1CC
  3
B6
350
1CD
  0
DICTIONARY
  5
7E
102
{ACAD_REACTORS
330
C
102
}
330
C
100
AcDbDictionary
281
     1
  3
Standard
350
7F
  0
DICTIONARY
  5
EF
102
{ACAD_REACTORS
330
C
102
}
330
C
100
AcDbDictionary
281
     1
  3
2dWireframe
350
F5
  3
3D Hidden
350
21A
  3
3dWireframe
350
219
  3
Basic
350
F4
  3
Brighten
350
FB
  3
ColorChange
350
FF
  3
Conceptual
350
F8
  3
Dim
350
FA
  3
EdgeColorOff
350
1E6
  3
Facepattern
350
FE
  3
Flat
350
F0
  3
FlatWithEdges
350
F1
  3
Gouraud
350
F2
  3
GouraudWithEdges
350
F3
  3
Hidden
350
F7
  3
JitterOff
350
1E4
  3
Linepattern
350
FD
  3
OverhangOff
350
1E5
  3
Realistic
350
F9
  3
Shaded
350
1F3
  3
Shaded with edges
350
1F2
  3
Shades of Gray
350
1EF
  3
Sketchy
350
1F0
  3
Thicken
350
FC
  3
Wireframe
350
F6
  3
X-Ray
350
1F1
  0
XRECORD
  5
829
102
{ACAD_REACTORS
330
C
102
}
330
C
100
AcDbXrecord
280
     1
 90
        1
330
7F
330
49A
  0
DICTIONARY
  5
5E
102
{ACAD_REACTORS
330
C
102
}
330
C
100
AcDbDictionary
281
     1
  3
CANNOSCALE
350
146
  3
CMLEADERSTYLE
350
145
  3
CTABLESTYLE
350
84
  3
DIMASSOC
350
5F
  3
HIDETEXT
350
63
  3
INDEXCTL
350
71C
  3
LAYEREVAL
350
1AE
  3
LAYERNOTIFY
350
1AF
  3
LIGHTINGUNITS
350
71A
  3
MSLTSCALE
350
719
  3
PSOLHEIGHT
350
822
  3
PSOLWIDTH
350
821
  3
SORTENTS
350
71B
  3
XCLIPFRAME
350
823
  0
DICTIONARY
  5
24C
102
{ACAD_REACTORS
330
C
102
}
330
C
100
AcDbDictionary
281
     1
  3
AcmStdDictionary
350
24E
  0
DICTIONARY
  5
234
102
{ACAD_REACTORS
330
C
102
}
330
C
100
AcDbDictionary
281
     1
  0
DICTIONARY
  5
293
102
{ACAD_REACTORS
330
C
102
}
330
C
100
AcDbDictionary
281
     1
  0
XRECORD
  5
82A
102
{ACAD_REACTORS
330
C
102
}
330
C
100
AcDbXrecord
280
     1
  1
DWGPROPS COOKIE
  2

  3

  4

  6

  7

  8
avgrahammj
  9

300
=
301
=
302
=
303
=
304
=
305
=
306
=
307
=
308
=
309
=
 40
0.0092918171296296
 41
2456514.304821181
 42
2456567.489007581
  1

 90
        0
  0
DICTIONARY
  5
200
102
{ACAD_REACTORS
330
1FF
102
}
330
1FF
100
AcDbDictionary
281
     1
  0
SORTENTSTABLE
  5
6BA
102
{ACAD_REACTORS
330
1CE
102
}
330
1CE
100
AcDbSortentsTable
330
1F
331
445
  5
445
331
441
  5
441
331
43D
  5
43D
331
47C
  5
47C
331
478
  5
478
331
439
  5
439
331
667
  5
667
331
663
  5
663
331
435
  5
435
331
474
  5
474
331
431
  5
431
331
470
  5
470
331
41D
  5
41D
331
46C
  5
46C
331
468
  5
468
331
419
  5
419
331
49B
  5
49B
331
5C4
  5
5C4
331
5C0
  5
5C0
331
497
  5
497
331
5AE
  5
5AE
331
5AA
  5
5AA
331
415
  5
415
331
464
  5
464
331
411
  5
411
331
460
  5
460
331
40D
  5
40D
331
45C
  5
45C
331
5BF
  5
5BF
331
458
  5
458
331
5BB
  5
5BB
331
409
  5
409
331
48F
  5
48F
331
48B
  5
48B
331
42F
  5
42F
331
42B
  5
42B
331
405
  5
405
331
454
  5
454
331
5B7
  5
5B7
331
401
  5
401
331
450
  5
450
331
5B3
  5
5B3
331
3FD
  5
3FD
331
44C
  5
44C
331
487
  5
487
331
448
  5
448
331
483
  5
483
331
3F9
  5
3F9
331
427
  5
427
331
423
  5
423
331
444
  5
444
331
440
  5
440
331
47F
  5
47F
331
47B
  5
47B
331
43C
  5
43C
331
438
  5
438
331
477
  5
477
331
434
  5
434
331
473
  5
473
331
430
  5
430
331
46F
  5
46F
331
41C
  5
41C
331
46B
  5
46B
331
418
  5
418
331
49A
  5
49A
331
5C3
  5
5C3
331
496
  5
496
331
492
  5
492
331
5AD
  5
5AD
331
467
  5
467
331
5A9
  5
5A9
331
414
  5
414
331
463
  5
463
331
410
  5
410
331
45F
  5
45F
331
5BE
  5
5BE
331
40C
  5
40C
331
45B
  5
45B
331
5BA
  5
5BA
331
408
  5
408
331
48E
  5
48E
331
48A
  5
48A
331
42E
  5
42E
331
42A
  5
42A
331
457
  5
457
331
404
  5
404
331
453
  5
453
331
5B6
  5
5B6
331
400
  5
400
331
44F
  5
44F
331
5B2
  5
5B2
331
3FC
  5
3FC
331
44B
  5
44B
331
486
  5
486
331
482
  5
482
331
426
  5
426
331
422
  5
422
331
447
  5
447
331
443
  5
443
331
43F
  5
43F
331
47E
  5
47E
331
47A
  5
47A
331
43B
  5
43B
331
437
  5
437
331
476
  5
476
331
433
  5
433
331
472
  5
472
331
41F
  5
41F
331
46E
  5
46E
331
46A
  5
46A
331
41B
  5
41B
331
499
  5
499
331
5C2
  5
5C2
331
495
  5
495
331
5AC
  5
5AC
331
466
  5
466
331
417
  5
417
331
413
  5
413
331
462
  5
462
331
40F
  5
40F
331
45E
  5
45E
331
6B9
  5
6B9
331
5BD
  5
5BD
331
40B
  5
40B
331
45A
  5
45A
331
48D
  5
48D
331
489
  5
489
331
42D
  5
42D
331
429
  5
429
331
456
  5
456
331
407
  5
407
331
403
  5
403
331
452
  5
452
331
5B5
  5
5B5
331
3FF
  5
3FF
331
44E
  5
44E
331
5B1
  5
5B1
331
485
  5
485
331
3FB
  5
3FB
331
44A
  5
44A
331
481
  5
481
331
425
  5
425
331
421
  5
421
331
446
  5
446
331
442
  5
442
331
43E
  5
43E
331
47D
  5
47D
331
479
  5
479
331
43A
  5
43A
331
436
  5
436
331
475
  5
475
331
432
  5
432
331
471
  5
471
331
41E
  5
41E
331
46D
  5
46D
331
469
  5
469
331
41A
  5
41A
331
5C5
  5
5C5
331
498
  5
498
331
5C1
  5
5C1
331
490
  5
490
331
5AF
  5
5AF
331
5AB
  5
5AB
331
416
  5
416
331
465
  5
465
331
412
  5
412
331
461
  5
461
331
40E
  5
40E
331
45D
  5
45D
331
6B8
  5
6B8
331
459
  5
459
331
5BC
  5
5BC
331
40A
  5
40A
331
48C
  5
48C
331
488
  5
488
331
42C
  5
42C
331
428
  5
428
331
455
  5
455
331
406
  5
406
331
402
  5
402
331
451
  5
451
331
5B4
  5
5B4
331
3FE
  5
3FE
331
44D
  5
44D
331
5B0
  5
5B0
331
484
  5
484
331
3FA
  5
3FA
331
449
  5
449
331
480
  5
480
331
424
  5
424
331
420
  5
420
  0
XRECORD
  5
86B
102
{ACAD_REACTORS
330
86A
102
}
330
86A
100
AcDbXrecord
280
     1
 40
5685.0
  1
\A1;\U+2205200
  0
XRECORD
  5
86D
102
{ACAD_REACTORS
330
86C
102
}
330
86C
100
AcDbXrecord
280
     1
 40
5001.0
  1
\A1;\U+220510
  0
XRECORD
  5
86F
102
{ACAD_REACTORS
330
86E
102
}
330
86E
100
AcDbXrecord
280
     1
 40
5685.0
  1
\A1;\U+2205200
  0
XRECORD
  5
871
102
{ACAD_REACTORS
330
870
102
}
330
870
100
AcDbXrecord
280
     1
 40
5001.0
  1
\A1;\U+220510
  0
DIMASSOC
  5
675
102
{ACAD_REACTORS
330
674
102
}
330
674
100
AcDbDimAssoc
330
667
 90
        1
 70
     0
 71
     0
  1
AcDbOsnapPointRef
 72
     6
331
663
331
65D
 73
     0
 91
        0
 40
0.9552786404500087
 10
0.0
 20
0.0
 30
0.0
332
654
 74
     0
 92
        0
 75
     0
  0
XRECORD
  5
82C
102
{ACAD_REACTORS
330
82B
102
}
330
82B
100
AcDbXrecord
280
     1
 40
1.570796326794896
  0
XRECORD
  5
82E
102
{ACAD_REACTORS
330
82B
102
}
330
82B
100
AcDbXrecord
280
     1
340
14
  0
XRECORD
  5
82F
102
{ACAD_REACTORS
330
82B
102
}
330
82B
100
AcDbXrecord
280
     1
340
14
  0
XRECORD
  5
82D
102
{ACAD_REACTORS
330
82B
102
}
330
82B
100
AcDbXrecord
280
     1
340
14
  0
LAYOUT
  5
D3
102
{ACAD_XDICTIONARY
360
832
102
}
102
{ACAD_REACTORS
330
1A
102
}
330
1A
100
AcDbPlotSettings
  1

  2
C:\Documents and Settings\basas\Application Data\Autodesk\AutoCAD 2005\R16.1\enu\plotters\Default Windows System Printer.pc3
  4

  6

 40
0.0
 41
0.0
 42
0.0
 43
0.0
 44
0.0
 45
0.0
 46
0.0
 47
0.0
 48
0.0
 49
0.0
140
0.0
141
0.0
142
1.0
143
1.0
 70
   688
 72
     0
 73
     0
 74
     5
  7

 75
    16
147
1.0
148
0.0
149
0.0
100
AcDbLayout
  1
Layout1
 70
     1
 71
     1
 10
0.0
 20
0.0
 11
12.0
 21
9.0
 12
0.0
 22
0.0
 32
0.0
 14
0.0
 24
0.0
 34
0.0
 15
0.0
 25
0.0
 35
0.0
146
0.0
 13
0.0
 23
0.0
 33
0.0
 16
1.0
 26
0.0
 36
0.0
 17
0.0
 27
1.0
 37
0.0
 76
     0
330
D2
  0
LAYOUT
  5
D7
102
{ACAD_XDICTIONARY
360
834
102
}
102
{ACAD_REACTORS
330
1A
102
}
330
1A
100
AcDbPlotSettings
  1

  2
C:\Documents and Settings\basas\Application Data\Autodesk\AutoCAD 2005\R16.1\enu\plotters\Default Windows System Printer.pc3
  4

  6

 40
0.0
 41
0.0
 42
0.0
 43
0.0
 44
0.0
 45
0.0
 46
0.0
 47
0.0
 48
0.0
 49
0.0
140
0.0
141
0.0
142
1.0
143
1.0
 70
   688
 72
     0
 73
     0
 74
     5
  7

 75
    16
147
1.0
148
0.0
149
0.0
100
AcDbLayout
  1
Layout2
 70
     1
 71
     2
 10
0.0
 20
0.0
 11
12.0
 21
9.0
 12
0.0
 22
0.0
 32
0.0
 14
0.0
 24
0.0
 34
0.0
 15
0.0
 25
0.0
 35
0.0
146
0.0
 13
0.0
 23
0.0
 33
0.0
 16
1.0
 26
0.0
 36
0.0
 17
0.0
 27
1.0
 37
0.0
 76
     0
330
D6
  0
LAYOUT
  5
22
102
{ACAD_XDICTIONARY
360
205
102
}
102
{ACAD_REACTORS
330
1A
102
}
330
1A
100
AcDbPlotSettings
  1

  2
none_device
  4
ISO_A4_(210.00_x_297.00_MM)
  6

 40
7.5
 41
20.0
 42
7.5
 43
20.0
 44
210.0
 45
297.0
 46
11.54999923706054
 47
-13.65000009536743
 48
0.0
 49
0.0
140
0.0
141
0.0
142
1.0
143
8.704084754739808
 70
 11952
 72
     1
 73
     0
 74
     0
  7

 75
     0
147
0.1148885871608098
148
0.0
149
0.0
100
AcDbLayout
  1
Model
 70
     1
 71
     0
 10
0.0
 20
0.0
 11
12.0
 21
9.0
 12
0.0
 22
0.0
 32
0.0
 14
0.0
 24
0.0
 34
0.0
 15
0.0
 25
0.0
 35
0.0
146
0.0
 13
0.0
 23
0.0
 33
0.0
 16
1.0
 26
0.0
 36
0.0
 17
0.0
 27
1.0
 37
0.0
 76
     0
330
1F
331
EA
1001
ACAD_PSEXT
1000
None
1000
None
1000
Not applicable
1000
The layout will not be plotted unless a new plotter configuration name is selected.
1070
     0
  0
MATERIAL
  5
ED
102
{ACAD_XDICTIONARY
360
1F9
102
}
102
{ACAD_REACTORS
330
6A
102
}
330
6A
100
AcDbMaterial
  1
ByBlock
  0
MATERIAL
  5
EC
102
{ACAD_XDICTIONARY
360
1F7
102
}
102
{ACAD_REACTORS
330
6A
102
}
330
6A
100
AcDbMaterial
  1
ByLayer
  0
MATERIAL
  5
EE
102
{ACAD_XDICTIONARY
360
173
102
}
102
{ACAD_REACTORS
330
6A
102
}
330
6A
100
AcDbMaterial
  1
Global
 43
0.0007999999797903
 43
0.0
 43
0.0
 43
0.0
 43
0.0
 43
0.0007999999797903
 43
0.0
 43
0.0
 43
0.0
 43
0.0
 43
1.0
 43
0.0
 43
0.0
 43
0.0
 43
0.0
 43
1.0
 49
0.0007999999797903
 49
0.0
 49
0.0
 49
0.0
 49
0.0
 49
0.0007999999797903
 49
0.0
 49
0.0
 49
0.0
 49
0.0
 49
1.0
 49
0.0
 49
0.0
 49
0.0
 49
0.0
 49
1.0
142
0.0007999999797903
142
0.0
142
0.0
142
0.0
142
0.0
142
0.0007999999797903
142
0.0
142
0.0
142
0.0
142
0.0
142
1.0
142
0.0
142
0.0
142
0.0
142
0.0
142
1.0
144
0.0007999999797903
144
0.0
144
0.0
144
0.0
144
0.0
144
0.0007999999797903
144
0.0
144
0.0
144
0.0
144
0.0
144
1.0
144
0.0
144
0.0
144
0.0
144
0.0
144
1.0
1001
ACAD
1070
    -1
1070
     3
1070
     0
1000

1071
        0
1070
     0
  0
MLEADERSTYLE
  5
13B
102
{ACAD_XDICTIONARY
360
827
102
}
102
{ACAD_REACTORS
330
12D
102
}
330
12D
100
AcDbMLeaderStyle
170
     2
171
     1
172
     0
 90
        2
 40
0.0
 41
0.0
173
     1
 91
-1056964608
340
14
 92
       -2
290
     1
 42
2.0
291
     1
 43
8.0
  3
Standard
 44
4.0
300

342
11
174
     1
178
     1
175
     1
176
     0
 93
-1056964608
 45
4.0
292
     0
297
     0
 46
4.0
 94
-1056964608
 47
1.0
 49
1.0
140
1.0
293
     1
141
0.0
294
     1
177
     0
142
1.0
295
     0
296
     1
143
3.75
1001
ACAD_MLEADERVER
1070
     2
  0
MLEADERSTYLE
  5
12E
102
{ACAD_XDICTIONARY
360
825
102
}
102
{ACAD_REACTORS
330
12D
102
}
330
12D
100
AcDbMLeaderStyle
170
     2
171
     1
172
     0
 90
        2
 40
0.0
 41
0.0
173
     1
 91
-1056964608
340
14
 92
       -2
290
     1
 42
2.0
291
     1
 43
8.0
  3
Standard
 44
4.0
300

342
11
174
     1
178
     1
175
     1
176
     0
 93
-1056964608
 45
4.0
292
     0
297
     0
 46
4.0
 94
-1056964608
 47
1.0
 49
1.0
140
1.0
293
     1
141
0.0
294
     1
177
     0
142
1.0
295
     0
296
     0
143
3.75
1001
ACAD_MLEADERVER
1070
     2
  0
MLINESTYLE
  5
18
102
{ACAD_REACTORS
330
17
102
}
330
17
100
AcDbMlineStyle
  2
STANDARD
 70
     0
  3

 62
   256
 51
90.0
 52
90.0
 71
     2
 49
0.5
 62
   256
  6
BYLAYER
 49
-0.5
 62
   256
  6
BYLAYER
  0
ACDBPLACEHOLDER
  5
F
102
{ACAD_REACTORS
330
E
102
}
330
E
  0
SCALE
  5
10D
102
{ACAD_REACTORS
330
10C
102
}
330
10C
100
AcDbScale
 70
     0
300
1:1
140
1.0
141
1.0
290
     1
  0
SCALE
  5
1BE
102
{ACAD_REACTORS
330
10C
102
}
330
10C
100
AcDbScale
 70
     0
300
1:2
140
1.0
141
2.0
290
     0
  0
SCALE
  5
1BF
102
{ACAD_REACTORS
330
10C
102
}
330
10C
100
AcDbScale
 70
     0
300
1:4
140
1.0
141
4.0
290
     0
  0
SCALE
  5
1C0
102
{ACAD_REACTORS
330
10C
102
}
330
10C
100
AcDbScale
 70
     0
300
1:5
140
1.0
141
5.0
290
     0
  0
SCALE
  5
1C1
102
{ACAD_REACTORS
330
10C
102
}
330
10C
100
AcDbScale
 70
     0
300
1:8
140
1.0
141
8.0
290
     0
  0
SCALE
  5
1C2
102
{ACAD_REACTORS
330
10C
102
}
330
10C
100
AcDbScale
 70
     0
300
1:10
140
1.0
141
10.0
290
     0
  0
SCALE
  5
1C3
102
{ACAD_REACTORS
330
10C
102
}
330
10C
100
AcDbScale
 70
     0
300
1:16
140
1.0
141
16.0
290
     0
  0
SCALE
  5
1C4
102
{ACAD_REACTORS
330
10C
102
}
330
10C
100
AcDbScale
 70
     0
300
1:20
140
1.0
141
20.0
290
     0
  0
SCALE
  5
1C5
102
{ACAD_REACTORS
330
10C
102
}
330
10C
100
AcDbScale
 70
     0
300
1:30
140
1.0
141
30.0
290
     0
  0
SCALE
  5
1C6
102
{ACAD_REACTORS
330
10C
102
}
330
10C
100
AcDbScale
 70
     0
300
1:40
140
1.0
141
40.0
290
     0
  0
SCALE
  5
1C7
102
{ACAD_REACTORS
330
10C
102
}
330
10C
100
AcDbScale
 70
     0
300
1:50
140
1.0
141
50.0
290
     0
  0
SCALE
  5
1C8
102
{ACAD_REACTORS
330
10C
102
}
330
10C
100
AcDbScale
 70
     0
300
1:100
140
1.0
141
100.0
290
     0
  0
SCALE
  5
1C9
102
{ACAD_REACTORS
330
10C
102
}
330
10C
100
AcDbScale
 70
     0
300
2:1
140
2.0
141
1.0
290
     0
  0
SCALE
  5
1CA
102
{ACAD_REACTORS
330
10C
102
}
330
10C
100
AcDbScale
 70
     0
300
4:1
140
4.0
141
1.0
290
     0
  0
SCALE
  5
1CB
102
{ACAD_REACTORS
330
10C
102
}
330
10C
100
AcDbScale
 70
     0
300
8:1
140
8.0
141
1.0
290
     0
  0
SCALE
  5
1CC
102
{ACAD_REACTORS
330
10C
102
}
330
10C
100
AcDbScale
 70
     0
300
10:1
140
10.0
141
1.0
290
     0
  0
SCALE
  5
1CD
102
{ACAD_REACTORS
330
10C
102
}
330
10C
100
AcDbScale
 70
     0
300
100:1
140
100.0
141
1.0
290
     0
  0
TABLESTYLE
  5
7F
102
{ACAD_XDICTIONARY
360
162
102
}
102
{ACAD_REACTORS
330
7E
102
}
330
7E
100
AcDbTableStyle
  3
Standard
 70
     0
 71
     0
 40
1.5
 41
1.5
280
     0
281
     0
  7
STANDARD
140
4.5
170
     2
 62
     0
 63
     7
283
     0
274
    -2
284
     1
 64
     0
275
    -2
285
     1
 65
     0
276
    -2
286
     1
 66
     0
277
    -2
287
     1
 67
     0
278
    -2
288
     1
 68
     0
279
    -2
289
     1
 69
     0
  7
STANDARD
140
6.0
170
     5
 62
     0
 63
     7
283
     0
274
    -2
284
     1
 64
     0
275
    -2
285
     1
 65
     0
276
    -2
286
     1
 66
     0
277
    -2
287
     1
 67
     0
278
    -2
288
     1
 68
     0
279
    -2
289
     1
 69
     0
  7
STANDARD
140
4.5
170
     5
 62
     0
 63
     7
283
     0
274
    -2
284
     1
 64
     0
275
    -2
285
     1
 65
     0
276
    -2
286
     1
 66
     0
277
    -2
287
     1
 67
     0
278
    -2
288
     1
 68
     0
279
    -2
289
     1
 69
     0
  0
VISUALSTYLE
  5
F5
102
{ACAD_XDICTIONARY
360
840
102
}
102
{ACAD_REACTORS
330
EF
102
}
330
EF
100
AcDbVisualStyle
  2

 70
     4
 71
     0
 72
     2
 73
     1
 90
        0
 40
-0.6
 41
-30.0
 62
     5
 63
     7
 74
     1
 91
        4
 64
     7
 65
   257
 75
     1
175
     1
 42
1.0
 92
        0
 66
   257
 43
1.0
 76
     1
 77
     6
 78
     2
 67
     7
 79
     5
170
     0
171
     0
290
     0
174
     0
 93
        1
 44
0.0
173
     0
291
     0
 45
0.0
1001
ACAD
1000
AcDbSavedByObjectVersion
1070
     0
  0
VISUALSTYLE
  5
21A
102
{ACAD_XDICTIONARY
360
868
102
}
102
{ACAD_REACTORS
330
EF
102
}
330
EF
100
AcDbVisualStyle
  2

 70
     6
 71
     1
 72
     2
 73
     2
 90
        0
 40
-0.6
 41
-30.0
 62
     5
 63
     7
 74
     2
 91
        2
 64
     7
 65
   257
 75
     2
175
     1
 42
179.0
 92
        0
 66
   257
 43
1.0
 76
     1
 77
     6
 78
     2
 67
     7
 79
     3
170
     0
171
     0
290
     0
174
     0
 93
        1
 44
0.0
173
     0
291
     0
 45
0.0
1001
ACAD
1000
AcDbSavedByObjectVersion
1070
     0
  0
VISUALSTYLE
  5
219
102
{ACAD_XDICTIONARY
360
866
102
}
102
{ACAD_REACTORS
330
EF
102
}
330
EF
100
AcDbVisualStyle
  2

 70
     5
 71
     0
 72
     2
 73
     0
 90
        0
 40
-0.6
 41
-30.0
 62
     5
 63
     7
 74
     1
 91
        4
 64
     7
 65
   257
 75
     1
175
     1
 42
1.0
 92
        0
 66
   257
 43
1.0
 76
     1
 77
     6
 78
     2
 67
     7
 79
     5
170
     0
171
     0
290
     0
174
     0
 93
        1
 44
0.0
173
     0
291
     0
 45
0.0
1001
ACAD
1000
AcDbSavedByObjectVersion
1070
     0
  0
VISUALSTYLE
  5
F4
102
{ACAD_XDICTIONARY
360
83E
102
}
102
{ACAD_REACTORS
330
EF
102
}
330
EF
100
AcDbVisualStyle
  2

 70
     7
 71
     1
 72
     0
 73
     1
 90
        0
 40
-0.6
 41
-30.0
 62
     5
 63
     7
 74
     0
 91
        4
 64
     7
 65
   257
 75
     1
175
     1
 42
1.0
 92
        8
 66
     7
 43
1.0
 76
     1
 77
     6
 78
     2
 67
     7
 79
     5
170
     0
171
     0
290
     0
174
     0
 93
        1
 44
0.0
173
     0
291
     1
 45
0.0
1001
ACAD
1000
AcDbSavedByObjectVersion
1070
     0
  0
VISUALSTYLE
  5
FB
102
{ACAD_XDICTIONARY
360
84C
102
}
102
{ACAD_REACTORS
330
EF
102
}
330
EF
100
AcDbVisualStyle
  2

 70
    12
 71
     2
 72
     2
 73
     1
 90
        0
 40
-0.6
 41
-30.0
 62
     5
 63
     7
 74
     1
 91
        4
 64
     7
 65
   257
 75
     1
175
     1
 42
1.0
 92
        8
 66
     7
 43
1.0
 76
     1
 77
     6
 78
     2
 67
     7
 79
     5
170
     0
171
     0
290
     0
174
     0
 93
        1
 44
50.0
173
     0
291
     1
 45
0.0
1001
ACAD
1000
AcDbSavedByObjectVersion
1070
     0
  0
VISUALSTYLE
  5
FF
102
{ACAD_XDICTIONARY
360
854
102
}
102
{ACAD_REACTORS
330
EF
102
}
330
EF
100
AcDbVisualStyle
  2

 70
    16
 71
     2
 72
     2
 73
     3
 90
        0
 40
-0.6
 41
-30.0
 62
     5
 63
     8
 74
     1
 91
        4
 64
     7
 65
   257
 75
     1
175
     1
 42
1.0
 92
        8
 66
     8
 43
1.0
 76
     1
 77
     6
 78
     2
 67
     7
 79
     5
170
     0
171
     0
290
     0
174
     0
 93
        1
 44
0.0
173
     0
291
     1
 45
0.0
1001
ACAD
1000
AcDbSavedByObjectVersion
1070
     0
  0
VISUALSTYLE
  5
F8
102
{ACAD_XDICTIONARY
360
846
102
}
102
{ACAD_REACTORS
330
EF
102
}
330
EF
100
AcDbVisualStyle
  2

 70
     9
 71
     3
 72
     2
 73
     1
 90
        0
 40
-0.6
 41
-30.0
 62
     5
 63
     7
 74
     2
 91
        2
 64
     7
 65
   257
 75
     1
175
     1
 42
40.0
 92
        8
 66
     7
 43
1.0
 76
     1
 77
     6
 78
     2
 67
     7
 79
     3
170
     0
171
     0
290
     0
174
     0
 93
        1
 44
0.0
173
     0
291
     0
 45
0.0
1001
ACAD
1000
AcDbSavedByObjectVersion
1070
     0
  0
VISUALSTYLE
  5
FA
102
{ACAD_XDICTIONARY
360
84A
102
}
102
{ACAD_REACTORS
330
EF
102
}
330
EF
100
AcDbVisualStyle
  2

 70
    11
 71
     2
 72
     2
 73
     1
 90
        0
 40
-0.6
 41
-30.0
 62
     5
 63
     7
 74
     1
 91
        4
 64
     7
 65
   257
 75
     1
175
     1
 42
1.0
 92
        8
 66
     7
 43
1.0
 76
     1
 77
     6
 78
     2
 67
     7
 79
     5
170
     0
171
     0
290
     0
174
     0
 93
        1
 44
-50.0
173
     0
291
     1
 45
0.0
1001
ACAD
1000
AcDbSavedByObjectVersion
1070
     0
  0
VISUALSTYLE
  5
1E6
102
{ACAD_XDICTIONARY
360
85A
102
}
102
{ACAD_REACTORS
330
EF
102
}
330
EF
100
AcDbVisualStyle
  2

 70
    22
 71
     2
 72
     2
 73
     0
 90
        0
 40
-0.6
 41
-30.0
 62
     5
 63
     7
 74
     1
 91
        4
 64
     7
 65
   257
 75
     1
175
     1
 42
1.0
 92
        8
 66
     7
 43
1.0
 76
     1
 77
     6
 78
     2
 67
     7
 79
     5
170
     0
171
     0
290
     0
174
     0
 93
        1
 44
0.0
173
     0
291
     1
 45
0.0
1001
ACAD
1000
AcDbSavedByObjectVersion
1070
     0
  0
VISUALSTYLE
  5
FE
102
{ACAD_XDICTIONARY
360
852
102
}
102
{ACAD_REACTORS
330
EF
102
}
330
EF
100
AcDbVisualStyle
  2

 70
    15
 71
     2
 72
     2
 73
     1
 90
        0
 40
-0.6
 41
-30.0
 62
     5
 63
     7
 74
     1
 91
        4
 64
     7
 65
   257
 75
     1
175
     1
 42
1.0
 92
        8
 66
     7
 43
1.0
 76
     1
 77
     6
 78
     2
 67
     7
 79
     5
170
     0
171
     0
290
     0
174
     0
 93
        1
 44
0.0
173
     0
291
     1
 45
0.0
1001
ACAD
1000
AcDbSavedByObjectVersion
1070
     0
  0
VISUALSTYLE
  5
F0
102
{ACAD_XDICTIONARY
360
836
102
}
102
{ACAD_REACTORS
330
EF
102
}
330
EF
100
AcDbVisualStyle
  2

 70
     0
 71
     2
 72
     1
 73
     1
 90
        2
 40
-0.6
 41
30.0
 62
     5
 63
     7
 74
     0
 91
        0
 64
     7
 65
   257
 75
     1
175
     1
 42
1.0
 92
        8
 66
     7
 43
1.0
 76
     1
 77
     6
 78
     2
 67
     7
 79
     5
170
     0
171
     0
290
     0
174
     0
 93
       13
 44
0.0
173
     0
291
     1
 45
0.0
1001
ACAD
1000
AcDbSavedByObjectVersion
1070
     0
  0
VISUALSTYLE
  5
F1
102
{ACAD_XDICTIONARY
360
838
102
}
102
{ACAD_REACTORS
330
EF
102
}
330
EF
100
AcDbVisualStyle
  2

 70
     1
 71
     2
 72
     1
 73
     1
 90
        2
 40
-0.6
 41
30.0
 62
     5
 63
     7
 74
     1
 91
        0
 64
     7
 65
   257
 75
     1
175
     1
 42
1.0
 92
        0
 66
   257
 43
1.0
 76
     1
 77
     6
 78
     2
 67
     7
 79
     5
170
     0
171
     0
290
     0
174
     0
 93
       13
 44
0.0
173
     0
291
     1
 45
0.0
1001
ACAD
1000
AcDbSavedByObjectVersion
1070
     0
  0
VISUALSTYLE
  5
F2
102
{ACAD_XDICTIONARY
360
83A
102
}
102
{ACAD_REACTORS
330
EF
102
}
330
EF
100
AcDbVisualStyle
  2

 70
     2
 71
     2
 72
     2
 73
     1
 90
        2
 40
-0.6
 41
30.0
 62
     5
 63
     7
 74
     0
 91
        0
 64
     7
 65
   257
 75
     1
175
     1
 42
1.0
 92
        0
 66
     7
 43
1.0
 76
     1
 77
     6
 78
     2
 67
     7
 79
     5
170
     0
171
     0
290
     0
174
     0
 93
       13
 44
0.0
173
     0
291
     1
 45
0.0
1001
ACAD
1000
AcDbSavedByObjectVersion
1070
     0
  0
VISUALSTYLE
  5
F3
102
{ACAD_XDICTIONARY
360
83C
102
}
102
{ACAD_REACTORS
330
EF
102
}
330
EF
100
AcDbVisualStyle
  2

 70
     3
 71
     2
 72
     2
 73
     1
 90
        2
 40
-0.6
 41
30.0
 62
     5
 63
     7
 74
     1
 91
        0
 64
     7
 65
   257
 75
     1
175
     1
 42
1.0
 92
        0
 66
   257
 43
1.0
 76
     1
 77
     6
 78
     2
 67
     7
 79
     5
170
     0
171
     0
290
     0
174
     0
 93
       13
 44
0.0
173
     0
291
     1
 45
0.0
1001
ACAD
1000
AcDbSavedByObjectVersion
1070
     0
  0
VISUALSTYLE
  5
F7
102
{ACAD_XDICTIONARY
360
844
102
}
102
{ACAD_REACTORS
330
EF
102
}
330
EF
100
AcDbVisualStyle
  2

 70
     6
 71
     1
 72
     2
 73
     2
 90
        0
 40
-0.6
 41
-30.0
 62
     5
 63
     7
 74
     2
 91
        2
 64
     7
 65
   257
 75
     2
175
     1
 42
40.0
 92
        0
 66
   257
 43
1.0
 76
     1
 77
     6
 78
     2
 67
     7
 79
     3
170
     0
171
     0
290
     0
174
     0
 93
        1
 44
0.0
173
     0
291
     0
 45
0.0
1001
ACAD
1000
AcDbSavedByObjectVersion
1070
     0
  0
VISUALSTYLE
  5
1E4
102
{ACAD_XDICTIONARY
360
856
102
}
102
{ACAD_REACTORS
330
EF
102
}
330
EF
100
AcDbVisualStyle
  2

 70
    20
 71
     2
 72
     2
 73
     0
 90
        0
 40
-0.6
 41
-30.0
 62
     5
 63
     7
 74
     1
 91
        4
 64
     7
 65
   257
 75
     1
175
     1
 42
1.0
 92
       10
 66
     7
 43
1.0
 76
     1
 77
     6
 78
     2
 67
     7
 79
     5
170
     0
171
     0
290
     0
174
     0
 93
        1
 44
0.0
173
     0
291
     1
 45
0.0
1001
ACAD
1000
AcDbSavedByObjectVersion
1070
     0
  0
VISUALSTYLE
  5
FD
102
{ACAD_XDICTIONARY
360
850
102
}
102
{ACAD_REACTORS
330
EF
102
}
330
EF
100
AcDbVisualStyle
  2

 70
    14
 71
     2
 72
     2
 73
     1
 90
        0
 40
-0.6
 41
-30.0
 62
     5
 63
     7
 74
     1
 91
        4
 64
     7
 65
   257
 75
     7
175
     7
 42
1.0
 92
        8
 66
     7
 43
1.0
 76
     1
 77
     6
 78
     2
 67
     7
 79
     5
170
     0
171
     0
290
     0
174
     0
 93
        1
 44
0.0
173
     0
291
     1
 45
0.0
1001
ACAD
1000
AcDbSavedByObjectVersion
1070
     0
  0
VISUALSTYLE
  5
1E5
102
{ACAD_XDICTIONARY
360
858
102
}
102
{ACAD_REACTORS
330
EF
102
}
330
EF
100
AcDbVisualStyle
  2

 70
    21
 71
     2
 72
     2
 73
     0
 90
        0
 40
-0.6
 41
-30.0
 62
     5
 63
     7
 74
     1
 91
        4
 64
     7
 65
   257
 75
     1
175
     1
 42
1.0
 92
        9
 66
     7
 43
1.0
 76
     1
 77
     6
 78
     2
 67
     7
 79
     5
170
     0
171
     0
290
     0
174
     0
 93
        1
 44
0.0
173
     0
291
     1
 45
0.0
1001
ACAD
1000
AcDbSavedByObjectVersion
1070
     0
  0
VISUALSTYLE
  5
F9
102
{ACAD_XDICTIONARY
360
848
102
}
102
{ACAD_REACTORS
330
EF
102
}
330
EF
100
AcDbVisualStyle
  2

 70
     8
 71
     2
 72
     3
 73
     0
 90
        2
 40
-0.6
 41
30.0
 62
     5
 63
     7
 74
     0
 91
        0
 64
     7
 65
   257
 75
     1
175
     1
 42
1.0
 92
        8
 66
   257
 43
1.0
 76
     1
 77
     6
 78
     2
 67
     7
 79
     3
170
     0
171
     0
290
     0
174
     0
 93
       13
 44
0.0
173
     0
291
     0
 45
0.0
1001
ACAD
1000
AcDbSavedByObjectVersion
1070
     0
  0
VISUALSTYLE
  5
1F3
102
{ACAD_XDICTIONARY
360
864
102
}
102
{ACAD_REACTORS
330
EF
102
}
330
EF
100
AcDbVisualStyle
  2

 70
    27
 71
     2
 72
     2
 73
     1
 90
        2
 40
-0.6
 41
30.0
 62
     5
 63
     7
 74
     0
 91
        4
 64
     7
 65
   257
 75
     1
175
     1
 42
1.0
 92
        8
 66
   257
 43
1.0
 76
     1
 77
     6
 78
     2
 67
     8
 79
     3
170
     0
171
     0
290
     0
174
     0
 93
        5
 44
0.0
173
     0
291
     0
 45
0.0
1001
ACAD
1000
AcDbSavedByObjectVersion
1070
     0
  0
VISUALSTYLE
  5
1F2
102
{ACAD_XDICTIONARY
360
862
102
}
102
{ACAD_REACTORS
330
EF
102
}
330
EF
100
AcDbVisualStyle
  2

 70
    26
 71
     2
 72
     2
 73
     1
 90
        2
 40
-0.6
 41
30.0
 62
     5
 63
     7
 74
     1
 91
       10
 64
     7
 65
   257
 75
     2
175
     1
 42
1.0
 92
        8
 66
   257
 43
1.0
 76
     1
 77
     6
 78
     2
 67
     7
 79
     3
170
     0
171
     0
290
     0
174
     0
 93
        5
 44
0.0
173
     0
291
     0
 45
0.0
1001
ACAD
1000
AcDbSavedByObjectVersion
1070
     0
  0
VISUALSTYLE
  5
1EF
102
{ACAD_XDICTIONARY
360
85C
102
}
102
{ACAD_REACTORS
330
EF
102
}
330
EF
100
AcDbVisualStyle
  2

 70
    23
 71
     2
 72
     2
 73
     3
 90
        0
 40
-0.6
 41
-30.0
 62
     5
 63
     7
 74
     2
 91
        2
 64
     7
 65
     7
 75
     1
175
     1
 42
40.0
 92
        8
 66
     7
 43
1.0
 76
     1
 77
     6
 78
     2
 67
     7
 79
     3
170
     0
171
     0
290
     0
174
     0
 93
        1
 44
0.0
173
     0
291
     0
 45
0.0
1001
ACAD
1000
AcDbSavedByObjectVersion
1070
     0
  0
VISUALSTYLE
  5
1F0
102
{ACAD_XDICTIONARY
360
85E
102
}
102
{ACAD_REACTORS
330
EF
102
}
330
EF
100
AcDbVisualStyle
  2

 70
    24
 71
     1
 72
     2
 73
     2
 90
        0
 40
-0.6
 41
-30.0
 62
     5
 63
     7
 74
     2
 91
        2
 64
     7
 65
     7
 75
     1
175
     1
 42
40.0
 92
       11
 66
     7
 43
1.0
 76
     1
 77
     6
 78
     2
 67
     7
 79
     6
170
     0
171
     0
290
     0
174
     0
 93
        1
 44
0.0
173
     0
291
     0
 45
0.0
1001
ACAD
1000
AcDbSavedByObjectVersion
1070
     0
  0
VISUALSTYLE
  5
FC
102
{ACAD_XDICTIONARY
360
84E
102
}
102
{ACAD_REACTORS
330
EF
102
}
330
EF
100
AcDbVisualStyle
  2

 70
    13
 71
     2
 72
     2
 73
     1
 90
        0
 40
-0.6
 41
-30.0
 62
     5
 63
     7
 74
     1
 91
        4
 64
     7
 65
   257
 75
     1
175
     1
 42
1.0
 92
       12
 66
     7
 43
1.0
 76
     1
 77
     6
 78
     2
 67
     7
 79
     5
170
     0
171
     0
290
     0
174
     0
 93
        1
 44
0.0
173
     0
291
     1
 45
0.0
1001
ACAD
1000
AcDbSavedByObjectVersion
1070
     0
  0
VISUALSTYLE
  5
F6
102
{ACAD_XDICTIONARY
360
842
102
}
102
{ACAD_REACTORS
330
EF
102
}
330
EF
100
AcDbVisualStyle
  2

 70
     5
 71
     0
 72
     2
 73
     0
 90
        0
 40
-0.6
 41
-30.0
 62
     5
 63
     7
 74
     1
 91
        4
 64
     7
 65
   257
 75
     1
175
     1
 42
1.0
 92
        0
 66
   257
 43
1.0
 76
     1
 77
     6
 78
     2
 67
     7
 79
     3
170
     0
171
     0
290
     0
174
     0
 93
        1
 44
0.0
173
     0
291
     0
 45
0.0
1001
ACAD
1000
AcDbSavedByObjectVersion
1070
     0
  0
VISUALSTYLE
  5
1F1
102
{ACAD_XDICTIONARY
360
860
102
}
102
{ACAD_REACTORS
330
EF
102
}
330
EF
100
AcDbVisualStyle
  2

 70
    25
 71
     2
 72
     2
 73
     1
 90
        1
 40
0.5
 41
-30.0
 62
     5
 63
     7
 74
     1
 91
        0
 64
     7
 65
   257
 75
     1
175
     1
 42
1.0
 92
        8
 66
     7
 43
1.0
 76
     1
 77
     6
 78
     2
 67
     7
 79
     3
170
     0
171
     0
290
     0
174
     0
 93
       13
 44
0.0
173
     0
291
     0
 45
0.0
1001
ACAD
1000
AcDbSavedByObjectVersion
1070
     0
  0
DICTIONARYVAR
  5
146
102
{ACAD_REACTORS
330
5E
102
}
330
5E
100
DictionaryVariables
280
     0
  1
1:1
  0
DICTIONARYVAR
  5
145
102
{ACAD_REACTORS
330
5E
102
}
330
5E
100
DictionaryVariables
280
     0
  1
STANDARD
  0
DICTIONARYVAR
  5
84
102
{ACAD_REACTORS
330
5E
102
}
330
5E
100
DictionaryVariables
280
     0
  1
STANDARD
  0
DICTIONARYVAR
  5
5F
102
{ACAD_REACTORS
330
5E
102
}
330
5E
100
DictionaryVariables
280
     0
  1
2
  0
DICTIONARYVAR
  5
63
102
{ACAD_REACTORS
330
5E
102
}
330
5E
100
DictionaryVariables
280
     0
  1
1
  0
DICTIONARYVAR
  5
71C
102
{ACAD_REACTORS
330
5E
102
}
330
5E
100
DictionaryVariables
280
     0
  1
0
  0
DICTIONARYVAR
  5
1AE
102
{ACAD_REACTORS
330
5E
102
}
330
5E
100
DictionaryVariables
280
     0
  1
0
  0
DICTIONARYVAR
  5
1AF
102
{ACAD_REACTORS
330
5E
102
}
330
5E
100
DictionaryVariables
280
     0
  1
0
  0
DICTIONARYVAR
  5
71A
102
{ACAD_REACTORS
330
5E
102
}
330
5E
100
DictionaryVariables
280
     0
  1
2
  0
DICTIONARYVAR
  5
719
102
{ACAD_REACTORS
330
5E
102
}
330
5E
100
DictionaryVariables
280
     0
  1
1
  0
DICTIONARYVAR
  5
822
102
{ACAD_REACTORS
330
5E
102
}
330
5E
100
DictionaryVariables
280
     0
  1
80.000000
  0
DICTIONARYVAR
  5
821
102
{ACAD_REACTORS
330
5E
102
}
330
5E
100
DictionaryVariables
280
     0
  1
5.000000
  0
DICTIONARYVAR
  5
71B
102
{ACAD_REACTORS
330
5E
102
}
330
5E
100
DictionaryVariables
280
     0
  1
127
  0
DICTIONARYVAR
  5
823
102
{ACAD_REACTORS
330
5E
102
}
330
5E
100
DictionaryVariables
280
     0
  1
2
  0
DICTIONARY
  5
24E
102
{ACAD_REACTORS
330
24C
102
}
330
24C
100
AcDbDictionary
281
     1
  0
DICTIONARY
  5
832
330
D3
100
AcDbDictionary
280
     1
281
     1
  3
ACAD_XREC_ROUNDTRIP
360
833
  0
DICTIONARY
  5
834
330
D7
100
AcDbDictionary
280
     1
281
     1
  3
ACAD_XREC_ROUNDTRIP
360
835
  0
DICTIONARY
  5
205
330
22
100
AcDbDictionary
280
     1
281
     1
  3
ACAD_XREC_ROUNDTRIP
360
830
  3
ADSK_XREC_LAYOUTTHUMBNAIL
360
206
  0
DICTIONARY
  5
1F9
330
ED
100
AcDbDictionary
280
     1
281
     1
  3
ACAD_XREC_ROUNDTRIP
360
733
  3
FBXASSET
360
1FA
  0
DICTIONARY
  5
1F7
330
EC
100
AcDbDictionary
280
     1
281
     1
  3
ACAD_XREC_ROUNDTRIP
360
732
  3
FBXASSET
360
1F8
  0
DICTIONARY
  5
173
330
EE
100
AcDbDictionary
280
     1
281
     1
  3
ACAD_XREC_ROUNDTRIP
360
734
  3
BUMPTILE
360
175
  3
DIFFUSETILE
360
174
  3
FBXASSET
360
1FB
  3
OPACITYTILE
360
176
  3
REFLECTIONTILE
360
177
  0
DICTIONARY
  5
827
330
13B
100
AcDbDictionary
280
     1
281
     1
  3
ACAD_XREC_ROUNDTRIP
360
828
  0
DICTIONARY
  5
825
330
12E
100
AcDbDictionary
280
     1
281
     1
  3
ACAD_XREC_ROUNDTRIP
360
826
  0
DICTIONARY
  5
162
330
7F
100
AcDbDictionary
280
     1
281
     1
  3
ACAD_ROUNDTRIP_2008_TABLESTYLE_CELLSTYLEMAP
360
824
  3
ACAD_XREC_ROUNDTRIP
360
831
  0
DICTIONARY
  5
840
330
F5
100
AcDbDictionary
280
     1
281
     1
  3
ACAD_XREC_ROUNDTRIP
360
841
  0
DICTIONARY
  5
868
330
21A
100
AcDbDictionary
280
     1
281
     1
  3
ACAD_XREC_ROUNDTRIP
360
869
  0
DICTIONARY
  5
866
330
219
100
AcDbDictionary
280
     1
281
     1
  3
ACAD_XREC_ROUNDTRIP
360
867
  0
DICTIONARY
  5
83E
330
F4
100
AcDbDictionary
280
     1
281
     1
  3
ACAD_XREC_ROUNDTRIP
360
83F
  0
DICTIONARY
  5
84C
330
FB
100
AcDbDictionary
280
     1
281
     1
  3
ACAD_XREC_ROUNDTRIP
360
84D
  0
DICTIONARY
  5
854
330
FF
100
AcDbDictionary
280
     1
281
     1
  3
ACAD_XREC_ROUNDTRIP
360
855
  0
DICTIONARY
  5
846
330
F8
100
AcDbDictionary
280
     1
281
     1
  3
ACAD_XREC_ROUNDTRIP
360
847
  0
DICTIONARY
  5
84A
330
FA
100
AcDbDictionary
280
     1
281
     1
  3
ACAD_XREC_ROUNDTRIP
360
84B
  0
DICTIONARY
  5
85A
330
1E6
100
AcDbDictionary
280
     1
281
     1
  3
ACAD_XREC_ROUNDTRIP
360
85B
  0
DICTIONARY
  5
852
330
FE
100
AcDbDictionary
280
     1
281
     1
  3
ACAD_XREC_ROUNDTRIP
360
853
  0
DICTIONARY
  5
836
330
F0
100
AcDbDictionary
280
     1
281
     1
  3
ACAD_XREC_ROUNDTRIP
360
837
  0
DICTIONARY
  5
838
330
F1
100
AcDbDictionary
280
     1
281
     1
  3
ACAD_XREC_ROUNDTRIP
360
839
  0
DICTIONARY
  5
83A
330
F2
100
AcDbDictionary
280
     1
281
     1
  3
ACAD_XREC_ROUNDTRIP
360
83B
  0
DICTIONARY
  5
83C
330
F3
100
AcDbDictionary
280
     1
281
     1
  3
ACAD_XREC_ROUNDTRIP
360
83D
  0
DICTIONARY
  5
844
330
F7
100
AcDbDictionary
280
     1
281
     1
  3
ACAD_XREC_ROUNDTRIP
360
845
  0
DICTIONARY
  5
856
330
1E4
100
AcDbDictionary
280
     1
281
     1
  3
ACAD_XREC_ROUNDTRIP
360
857
  0
DICTIONARY
  5
850
330
FD
100
AcDbDictionary
280
     1
281
     1
  3
ACAD_XREC_ROUNDTRIP
360
851
  0
DICTIONARY
  5
858
330
1E5
100
AcDbDictionary
280
     1
281
     1
  3
ACAD_XREC_ROUNDTRIP
360
859
  0
DICTIONARY
  5
848
330
F9
100
AcDbDictionary
280
     1
281
     1
  3
ACAD_XREC_ROUNDTRIP
360
849
  0
DICTIONARY
  5
864
330
1F3
100
AcDbDictionary
280
     1
281
     1
  3
ACAD_XREC_ROUNDTRIP
360
865
  0
DICTIONARY
  5
862
330
1F2
100
AcDbDictionary
280
     1
281
     1
  3
ACAD_XREC_ROUNDTRIP
360
863
  0
DICTIONARY
  5
85C
330
1EF
100
AcDbDictionary
280
     1
281
     1
  3
ACAD_XREC_ROUNDTRIP
360
85D
  0
DICTIONARY
  5
85E
330
1F0
100
AcDbDictionary
280
     1
281
     1
  3
ACAD_XREC_ROUNDTRIP
360
85F
  0
DICTIONARY
  5
84E
330
FC
100
AcDbDictionary
280
     1
281
     1
  3
ACAD_XREC_ROUNDTRIP
360
84F
  0
DICTIONARY
  5
842
330
F6
100
AcDbDictionary
280
     1
281
     1
  3
ACAD_XREC_ROUNDTRIP
360
843
  0
DICTIONARY
  5
860
330
1F1
100
AcDbDictionary
280
     1
281
     1
  3
ACAD_XREC_ROUNDTRIP
360
861
  0
XRECORD
  5
833
102
{ACAD_REACTORS
330
832
102
}
330
832
100
AcDbXrecord
280
     1
102
SHADEPLOT
 70
     0
102
SHADEPLOTRESLEVEL
 70
     2
102
SHADEPLOTCUSTOMDPI
 70
   300
  0
XRECORD
  5
835
102
{ACAD_REACTORS
330
834
102
}
330
834
100
AcDbXrecord
280
     1
102
SHADEPLOT
 70
     0
102
SHADEPLOTRESLEVEL
 70
     2
102
SHADEPLOTCUSTOMDPI
 70
   300
  0
XRECORD
  5
830
102
{ACAD_REACTORS
330
205
102
}
330
205
100
AcDbXrecord
280
     1
102
SHADEPLOT
 70
     0
102
SHADEPLOTRESLEVEL
 70
     2
102
SHADEPLOTCUSTOMDPI
 70
   300
  0
XRECORD
  5
206
102
{ACAD_REACTORS
330
205
102
}
330
205
100
AcDbXrecord
280
     1
310
280000000001000088000000010008000000000000880000000000000000000000010000000000009D98950000000000FFFFFF000000000000000000000000000000000000000000000000000000000000000000330000006600000099000000CC000000FF00000000330000333300006633000099330000CC330000FF3300
310
0000660000336600006666000099660000CC660000FF66000000990000339900006699000099990000CC990000FF99000000CC000033CC000066CC000099CC0000CCCC0000FFCC000000FF000033FF000066FF000099FF0000CCFF0000FFFF000000003300330033006600330099003300CC003300FF003300003333003333
310
33006633330099333300CC333300FF33330000663300336633006666330099663300CC663300FF66330000993300339933006699330099993300CC993300FF99330000CC330033CC330066CC330099CC3300CCCC3300FFCC330000FF330033FF330066FF330099FF3300CCFF3300FFFF330000006600330066006600660099
310
006600CC006600FF00660000336600333366006633660099336600CC336600FF33660000666600336666006666660099666600CC666600FF66660000996600339966006699660099996600CC996600FF99660000CC660033CC660066CC660099CC6600CCCC6600FFCC660000FF660033FF660066FF660099FF6600CCFF6600
310
FFFF660000009900330099006600990099009900CC009900FF00990000339900333399006633990099339900CC339900FF33990000669900336699006666990099669900CC669900FF66990000999900339999006699990099999900CC999900FF99990000CC990033CC990066CC990099CC9900CCCC9900FFCC990000FF99
310
0033FF990066FF990099FF9900CCFF9900FFFF99000000CC003300CC006600CC009900CC00CC00CC00FF00CC000033CC003333CC006633CC009933CC00CC33CC00FF33CC000066CC003366CC006666CC009966CC00CC66CC00FF66CC000099CC003399CC006699CC009999CC00CC99CC00FF99CC0000CCCC0033CCCC0066CC
310
CC0099CCCC00CCCCCC00FFCCCC0000FFCC0033FFCC0066FFCC0099FFCC00CCFFCC00FFFFCC000000FF003300FF006600FF009900FF00CC00FF00FF00FF000033FF003333FF006633FF009933FF00CC33FF00FF33FF000066FF003366FF006666FF009966FF00CC66FF00FF66FF000099FF003399FF006699FF009999FF00CC
310
99FF00FF99FF0000CCFF0033CCFF0066CCFF0099CCFF00CCCCFF00FFCCFF0000FFFF0033FFFF0066FFFF0099FFFF00CCFFFF00FFFFFF00000000000D0D0D001A1A1A00282828003535350043434300505050005D5D5D006B6B6B00787878008686860093939300A1A1A100AEAEAE00BBBBBB00C9C9C900D6D6D600E4E4E400
310
F1F1F100FFFFFF00000000000000000000000000000000000000000000000000000000000000000000000000000000008B608B8B608B8B608B8B608B8B3C8B8B8B608B8B608B8B608B8B608B8B3C8B8B608B8B8B608B8B608B8B608B8B3C8B8B608B8B8B608B8B608B8B608B8B3C8B8B608B8B608B8B8B608B8B608B8B3C8B
310
8B608B8B608B8B8B608B8B608B8B3C8B8B608B8B608B8B608B8B8B608B8B3C8B8B608B8B608B8B608B8B8B608B8B3C8B8B608B8B608B8B608B8B608B8B8B3C8B8B608B8B608B8B608B8B608B8B8B3C8B8B608B8B608B8B608B8B608B8B3C8B8B8B608B8B608B8B608B8B608B8B3C8B8B8B608B8B608B8B608B8B608B8B3C8B
310
8B608B8B8B608B8B608B8B608B8B3C8B8B608B8B8B608B8B608B8B608B8B3C8B8B608B8B608B8B8B608B8B608B8B3C8B8B608B608B8B608B8B608B8B608B8B3C8B8B8B608B8B608B8B608B8B608B8B3C8B8B608B8B8B608B8B608B8B608B8B3C8B8B608B8B8B608B8B608B8B608B8B3C8B8B608B8B608B8B8B608B8B608B8B
310
3C8B8B608B8B608B8B8B608B8B608B8B3C8B8B608B8B608B8B608B8B8B608B8B3C8B8B608B8B608B8B608B8B8B608B8B3C8B8B608B8B608B8B608B8B608B8B8B3C8B8B608B8B608B8B608B8B608B8B8B3C8B8B608B8B608B8B608B8B608B8B3C8B8B8B608B8B608B8B608B8B608B8B3C8B8B8B608B8B608B8B608B8B608B8B
310
3C8B8B608B8B8B608B8B608B8B608B8B3C8B8B608B8B8B608B8B608B8B608B8B3C8B8B608B8B608B8B8B608B8B608B8B3C8B8B60606060606060606060606060603C6060606060606060606060606060603C6060606060606060606060606060603C6060606060606060606060606060603C60606060606060606060606060
310
60603C6060606060606060606060606060603C6060606060606060606060606060603C6060606060606060606060606060603C6060606060606060606060606060603C6060606060606060606060606060603C60606060606060606060606060603C6060606060606060606060606060603C60606060606060606060606060
310
60603C6060606060606060606060606060603C6060606060606060606060606060603C6060606060606060606060606060603C6060608B608B8B608B8B608B8B608B8B3C8B8B8B608B8B608B8B608B8B608B8B3C8B8B608B8B8B608B8B608B8B608B8B3C8B8B608B8B8B608B8B608B8B608B8B3C8B8B608B8B608B8B8B608B
310
8B608B8B3C8B8B608B8B608B8B8B608B8B608B8B3C8B8B608B8B608B8B608B8B8B608B8B3C8B8B608B8B608B8B608B8B8B608B8B3C8B8B608B8B608B8B608B8B608B8B8B3C8B8B608B8B608B8B608B8B608B8B8B3C8B8B608B8B608B8B608B8B608B8B3C8B8B8B608B8B608B8B608B8B608B8B3C8B8B8B608B8B608B8B608B
310
8B608B8B3C8B8B608B8B8B608B8B608B8B608B8B3C8B8B608B8B8B608B8B608B8B608B8B3C8B8B608B8B608B8B8B608B8B608B8B3C8B8B608B608B8B608B8B608B8B608B8B3C8B8B8B608B8B608B8B608B8B608B8B3C8B8B608B8B8B608B8B608B8B608B8B3C8B8B608B8B8B608B8B608B8B608B8B3C8B8B608B8B608B8B8B
310
608B8B608B8B3C8B8B608B8B608B8B8B608B8B608B8B3C8B8B608B8B608B8B608B8B8B608B8B3C8B8B608B8B608B8B608B8B8B608B8B3C8B8B608B8B608B8B608B8B608B8B8B3C8B8B608B8B608B8B608B8B608B8B8B3C8B8B608B8B608B8B608B8B608B8B3C8B8B8B608B8B608B8B608B8B608B8B3C8B8B8B608B8B608B8B
310
608B8B608B8B3C8B8B608B8B8B608B8B608B8B608B8B3C8B8B608B8B8B608B8B608B8B608B8B3C8B8B608B8B608B8B8B608B8B608B8B3C8B8B60606060606060606060606060603C6060606060606060606060606060603C6060606060606060606060606060603C6060606060606060606060606060603C60606060606060
310
60606060606060603C6060606060606060606060606060603C6060606060606060606060606060603C6060606060606060606060606060603C6060606060606060606060606060603C6060606060606060606060606060603C60606060606060606060606060603C6060606060606060606060606060603C60606060606060
310
60606060606060603C6060606060606060606060606060603C6060606060606060606060606060603C6060606060606060606060606060603C6060608B608B8B608B8B608B8B608B8B3C8B8B8B608B8B608B8B608B8B608B8B3C8B8B608B8B8B608B8B608B8B608B8B3C8B8B608B8B8B608B8B608B8B608B8B3C8B8B608B8B
310
608B8B8B608B8B608B8B3C8B8B608B8B608B8B8B608B8B608B8B3C8B8B608B8B608B8B608B8B8B608B8B3C8B8B608B8B608B8B608B8B8B608B8B3C8B8B608B8B608B8B608B8B608B8B8B3C8B8B608B8B608B8B608B8B608B8B8B3C8B8B608B8B608B8B608B8B608B8B3C8B8B8B608B8B608B8B608B8B608B8B3C8B8B8B608B
310
8B608B8B608B8B608B8B3C8B8B608B8B8B608B8B608B8B608B8B3C8B8B608B8B8B608B8B608B8B608B8B3C8B8B608B8B608B8B8B608B8B608B8B3C8B8B608B608B8B608B8B608B8B608B8B3C8B8B8B608B8B608B8B608B8B608B8B3C8B8B608B8B8B608B8B608B8B608B8B3C8B8B608B8B8B608B8B608B8B608B8B3C8B8B60
310
8B8B608B8B8B608B8B608B8B3C8B8B608B8B608B8B8B608B8B608B8B3C8B8B608B8B608B8B608B8B8B608B8B3C8B8B608B8B608B8B608B8B8B608B8B3C8B8B608B8B608B8B608B8B608B8B8B3C8B8B608B8B608B8B608B8B608B8B8B3C8B8B608B8B608B8B608B8B608B8B3C8B8B8B608B8B608B8B608B8B608B8B3C8B8B8B
310
608B8B608B8B608B8B608B8B3C8B8B608B8B8B608B8B608B8B608B8B3C8B8B608B8B8B608B8B608B8B608B8B3C8B8B608B8B608B8B8B608B8B608B8B3C8B8B608B608B8B608B8B608B8B608B8B3C8B8B8B608B8B608B8B608B8B608B8B3C8B8B608B8B8B608B8B608B8B608B8B3C8B8B608B8B8B608B8B608B8B608B8B3C8B
310
8B608B8B608B8B8B608B8B608B8B3C8B8B608B8B608B8B8B608B8B608B8B3C8B8B608B8B608B8B608B8B8B608B8B3C8B8B608B8B608B8B608B8B8B608B8B3C8B8B608B8B608B8B608B8B608B8B8B3C8B8B608B8B608B8B608B8B608B8B8B3C8B8B608B8B608B8B608B8B608B8B3C8B8B8B608B8B608B8B608B8B608B8B3C8B
310
8B8B608B8B608B8B608B8B608B8B3C8B8B608B8B8B608B8B608B8B608B8B3C8B8B608B8B8B608B8B608B8B608B8B3C8B8B608B8B608B8B8B608B8B608B8B3C8B8B603C3C3C3C3C3C3C3C3C3C3C3C3C3C3C3C3C3C3C3C3C3C3C3C3C3C3C3C3C3C3C3C3C3C3C3C3C3C3C3C3C3C3C3C3C3C3C3C3C3C3C3C3C3C3C3C3C3C3C3C3C
310
3C3C3C3C3C3C3C3C3C3C3C3C3C3C3C3C3C3C3C3C3C3C3C3C3C3C3C3C3C3C3C3C3C3C3C3C3C3C3C3C3C3C3C3C3C3C3C3C3C3C3C3C3C3C3C3C3C3C3C3C3C3C3C3C3C3C3C3C3C3C3C3C3C3C3C3C3C3C3C3C3C3C3C3C3C3C3C3C3C3C3C3C3C3C3C3C3C3C3C3C3C3C3C3C3C3C3C3C3C3C3C3C3C3C3C3C3C3C3C3C3C3C3C3C3C3C3C
310
3C3C3C3C3C3C3C3C3C3C3C3C3C3C3C3C3C3C3C3C3C3C3C3C3C3C3C3C3C3C3C3C3C3C3C3C3C3C3C3C3C3C3C3C3C3C3C3C3C3C3C3C3C3C3C3C3C3C3C3C3C3C3C3C3C3C3C3C8B608B8B608B8B608B8B608B8B3C8B8B8B608B8B608B8B608B8B608B8B3C8B8B608B8B8B608B8B608B8B608B8B3C8B8B608B8B8B608B8B608B8B60
310
8B8B3C8B8B608B8B608B8B8B608B8B608B8B3C8B8B608B8B608B8B8B608B8B608B8B3C8B8B608B8B608B8B608B8B8B608B8B3C8B8B608B8B608B8B608B8B8B608B8B3C8B8B608B8B608B8B608B8B608B8B8B3C8B8B608B8B608B8B608B8B608B8B8B3C8B8B608B8B608B8B608B8B608B8B3C8B8B8B608B8B608B8B608B8B60
310
8B8B3C8B8B8B608B8B608B8B608B8B608B8B3C8B8B608B8B8B608B8B608B8B608B8B3C8B8B608B8B8B608B8B608B8B608B8B3C8B8B608B8B608B8B8B608B8B608B8B3C8B8B608B608B8B608B8B608B8B608B8B3C8B8B8B608B8B608B8B608B8B608B8B3C8B8B608B8B8B608B8B608B8B608B8B3C8B8B608B8B8B608B8B608B
310
8B608B8B3C8B8B608B8B608B8B8B608B8B608B8B3C8B8B608B8B608B8B8B608B8B608B8B3C8B8B608B8B608B8B608B8B8B608B8B3C8B8B608B8B608B8B608B8B8B608B8B3C8B8B608B8B608B8B608B8B608B8B8B3C8B8B608B8B608B8B608B8B608B8B8B3C8B8B608B8B608B8B608B8B608B8B3C8B8B8B608B8B608B8B608B
310
8B608B8B3C8B8B8B608B8B608B8B608B8B608B8B3C8B8B608B8B8B608B8B608B8B608B8B3C8B8B608B8B8B608B8B608B8B608B8B3C8B8B608B8B608B8B8B608B8B608B8B3C8B8B60606060606060606060606060603C6060606060606060606060606060603C6060606060606060606060606060603C606060606060606060
310
6060606060603C6060606060606060606060606060603C6060606060606060606060606060603C6060606060606060606060606060603C6060606060606060606060606060603C6060606060606060606060606060603C6060606060606060606060606060603C60606060606060606060606060603C606060606060606060
310
6060606060603C6060606060606060606060606060603C6060606060606060606060606060603C6060606060606060606060606060603C6060606060606060606060606060603C6060608B608B8B608B8B608B8B608B8B3C8B8B8B608B8B608B8B608B8B608B8B3C8B8B608B8B8B608B8B608B8B608B8B3C8B8B608B8B8B60
310
8B8B608B8B608B8B3C8B8B608B8B608B8B8B608B8B608B8B3C8B8B608B8B608B8B8B608B8B608B8B3C8B8B608B8B608B8B608B8B8B608B8B3C8B8B608B8B608B8B608B8B8B608B8B3C8B8B608B8B608B8B608B8B608B8B8B3C8B8B608B8B608B8B608B8B608B8B8B3C8B8B608B8B608B8B608B8B608B8B3C8B8B8B608B8B60
310
8B8B608B8B608B8B3C8B8B8B608B8B608B8B608B8B608B8B3C8B8B608B8B8B608B8B608B8B608B8B3C8B8B608B8B8B608B8B608B8B608B8B3C8B8B608B8B608B8B8B608B8B608B8B3C8B8B608B608B8B608B8B608B8B608B8B3C8B8B8B608B8B608B8B608B8B608B8B3C8B8B608B8B8B608B8B608B8B608B8B3C8B8B608B8B
310
8B608B8B608B8B608B8B3C8B8B608B8B608B8B8B608B8B608B8B3C8B8B608B8B608B8B8B608B8B608B8B3C8B8B608B8B608B8B608B8B8B608B8B3C8B8B608B8B608B8B608B8B8B608B8B3C8B8B608B8B608B8B608B8B608B8B8B3C8B8B608B8B608B8B608B8B608B8B8B3C8B8B608B8B608B8B608B8B608B8B3C8B8B8B608B
310
8B608B8B608B8B608B8B3C8B8B8B608B8B608B8B608B8B608B8B3C8B8B608B8B8B608B8B608B8B608B8B3C8B8B608B8B8B608B8B608B8B608B8B3C8B8B608B8B608B8B8B608B8B608B8B3C8B8B60606060606060606060606060603C6060606060606060606060606060603C6060606060606060606060606060603C606060
310
6060606060606060606060603C6060606060606060606060606060603C6060606060606060606060606060603C6060606060606060606060606060603C6060606060606060606060606060603C6060606060606060606060606060603C6060606060606060606060606060603C60606060606060606060606060603C606060
310
6060606060606060606060603C6060606060606060606060606060603C6060606060606060606060606060603C6060606060606060606060606060603C6060606060606060606060606060603C6060608B608B8B608B8B608B8B608B8B3C8B8B8B608B8B608B8B608B8B608B8B3C8B8B608B8B8B608B8B608B8B608B8B3C8B
310
8B608B8B8B608B8B608B8B608B8B3C8B8B608B8B608B8B8B608B8B608B8B3C8B8B608B8B608B8B8B608B8B608B8B3C8B8B608B8B608B8B608B8B8B608B8B3C8B8B608B8B608B8B608B8B8B608B8B3C8B8B608B8B608B8B608B8B608B8B8B3C8B8B608B8B608B8B608B8B608B8B8B3C8B8B608B8B608B8B608B8B608B8B3C8B
310
8B8B608B8B608B8B608B8B608B8B3C8B8B8B608B8B608B8B608B8B608B8B3C8B8B608B8B8B608B8B608B8B608B8B3C8B8B608B8B8B608B8B608B8B608B8B3C8B8B608B8B608B8B8B608B8B608B8B3C8B8B608B608B8B608B8B608B8B608B8B3C8B8B8B608B8B608B8B608B8B608B8B3C8B8B608B8B8B608B8B608B8B608B8B
310
3C8B8B608B8B8B608B8B608B8B608B8B3C8B8B608B8B608B8B8B608B8B608B8B3C8B8B608B8B608B8B8B608B8B608B8B3C8B8B608B8B608B8B608B8B8B608B8B3C8B8B608B8B608B8B608B8B8B608B8B3C8B8B608B8B608B8B608B8B608B8B8B3C8B8B608B8B608B8B608B8B608B8B8B3C8B8B608B8B608B8B608B8B608B8B
310
3C8B8B8B608B8B608B8B608B8B608B8B3C8B8B8B608B8B608B8B608B8B608B8B3C8B8B608B8B8B608B8B608B8B608B8B3C8B8B608B8B8B608B8B608B8B608B8B3C8B8B608B8B608B8B8B608B8B608B8B3C8B8B60606060606060606060606060603C6060606060606060606060606060603C60606060606060606060606060
310
60603C6060606060606060606060606060603C6060606060606060606060606060603C6060606060606060606060606060603C6060606060606060606060606060603C6060606060606060606060606060603C6060606060606060606060606060603C6060606060606060606060606060603C606060606060606060606060
310
60603C6060606060606060606060606060603C6060606060606060606060606060603C6060606060606060606060606060603C6060606060606060606060606060603C6060606060606060606060606060603C6060608B608B8B608B8B608B8B608B8B3C8B8B8B608B8B608B8B608B8B608B8B3C8B8B608B8B8B608B8B608B
310
8B608B8B3C8B8B608B8B8B608B8B608B8B608B8B3C8B8B608B8B608B8B8B608B8B608B8B3C8B8B608B8B608B8B8B608B8B608B8B3C8B8B608B8B608B8B608B8B8B608B8B3C8B8B608B8B608B8B608B8B8B608B8B3C8B8B608B8B608B8B608B8B608B8B8B3C8B8B608B8B608B8B608B8B608B8B8B3C8B8B608B8B608B8B608B
310
8B608B8B3C8B8B8B608B8B608B8B608B8B608B8B3C8B8B8B608B8B608B8B608B8B608B8B3C8B8B608B8B8B608B8B608B8B608B8B3C8B8B608B8B8B608B8B608B8B608B8B3C8B8B608B8B608B8B8B608B8B608B8B3C8B8B608B608B8B608B8B608B8B608B8B3C8B8B8B608B8B608B8B608B8B608B8B3C8B8B608B8B8B608B8B
310
608B8B608B8B3C8B8B608B8B8B608B8B608B8B608B8B3C8B8B608B8B608B8B8B608B8B608B8B3C8B8B608B8B608B8B8B608B8B608B8B3C8B8B608B8B608B8B608B8B8B608B8B3C8B8B608B8B608B8B608B8B8B608B8B3C8B8B608B8B608B8B608B8B608B8B8B3C8B8B608B8B608B8B608B8B608B8B8B3C8B8B608B8B608B8B
310
608B8B608B8B3C8B8B8B608B8B608B8B608B8B608B8B3C8B8B8B608B8B608B8B608B8B608B8B3C8B8B608B8B8B608B8B608B8B608B8B3C8B8B608B8B8B608B8B608B8B608B8B3C8B8B608B8B608B8B8B608B8B608B8B3C8B8B60606060606060606060606060603C6060606060606060606060606060603C60606060606060
310
60606060606060603C6060606060606060606060606060603C6060606060606060606060606060603C6060606060606060606060606060603C6060606060606060606060606060603C6060606060606060606060606060603C6060606060606060606060606060603C6060606060606060606060606060603C606060606060
310
60606060606060603C6060606060606060606060606060603C6060606060606060606060606060603C6060606060606060606060606060603C6060606060606060606060606060603C6060606060606060606060606060603C6060608B608B8B608B8B608B8B608B8B3C8B8B8B608B8B608B8B608B8B608B8B3C8B8B608B8B
310
8B608B8B608B8B608B8B3C8B8B608B8B8B608B8B608B8B608B8B3C8B8B608B8B608B8B8B608B8B608B8B3C8B8B608B8B608B8B8B608B8B608B8B3C8B8B608B8B608B8B608B8B8B608B8B3C8B8B608B8B608B8B608B8B8B608B8B3C8B8B608B8B608B8B608B8B608B8B8B3C8B8B608B8B608B8B608B8B608B8B8B3C8B8B608B
310
8B608B8B608B8B608B8B3C8B8B8B608B8B608B8B608B8B608B8B3C8B8B8B608B8B608B8B608B8B608B8B3C8B8B608B8B8B608B8B608B8B608B8B3C8B8B608B8B8B608B8B608B8B608B8B3C8B8B608B8B608B8B8B608B8B608B8B3C8B8B608B608B8B608B8B608B8B608B8B3C8B8B8B608B8B608B8B608B8B608B8B3C8B8B60
310
8B8B8B608B8B608B8B608B8B3C8B8B608B8B8B608B8B608B8B608B8B3C8B8B608B8B608B8B8B608B8B608B8B3C8B8B608B8B608B8B8B608B8B608B8B3C8B8B608B8B608B8B608B8B8B608B8B3C8B8B608B8B608B8B608B8B8B608B8B3C8B8B608B8B608B8B608B8B608B8B8B3C8B8B608B8B608B8B608B8B608B8B8B3C8B8B
310
608B8B608B8B608B8B608B8B3C8B8B8B608B8B608B8B608B8B608B8B3C8B8B8B608B8B608B8B608B8B608B8B3C8B8B608B8B8B608B8B608B8B608B8B3C8B8B608B8B8B608B8B608B8B608B8B3C8B8B608B8B608B8B8B608B8B608B8B3C8B8B603C3C3C3C3C3C3C3C3C3C3C3C3C3C3C3C3C3C3C3C3C3C3C3C3C3C3C3C3C3C3C
310
3C3C3C3C3C3C3C3C3C3C3C3C3C3C3C3C3C3C3C3C3C3C3C3C3C3C3C3C3C3C3C3C3C3C3C3C3C3C3C3C3C3C3C3C3C3C3C3C3C3C3C3C3C3C3C3C3C3C3C3C3C3C3C3C3C3C3C3C3C3C3C3C3C3C3C3C3C3C3C3C3C3C3C3C3C3C3C3C3C3C3C3C3C3C3C3C3C3C3C3C3C3C3C3C3C3C3C3C3C3C3C3C3C3C3C3C3C3C3C3C3C3C3C3C3C3C3C
310
3C3C3C3C3C3C3C3C3C3C3C3C3C3C3C3C3C3C3C3C3C3C3C3C3C3C3C3C3C3C3C3C3C3C3C3C3C3C3C3C3C3C3C3C3C3C3C3C3C3C3C3C3C3C3C3C3C3C3C3C3C3C3C3C3C3C3C3C3C3C3C3C3C3C3C3C3C3C3C3C3C3C3C3C3C3C3C3C3C3C3C3C3C3C3C3C3C3C8B608B8B608B8B608B8B608B8B3C8B8B8B608B8B608B8B608B8B608B8B
310
3C8B8B608B8B8B608B8B608B8B608B8B3C8B8B608B8B8B608B8B608B8B608B8B3C8B8B608B8B608B8B8B608B8B608B8B3C8B8B608B8B608B8B8B608B8B608B8B3C8B8B608B8B608B8B608B8B8B608B8B3C8B8B608B8B608B8B608B8B8B608B8B3C8B8B608B8B608B8B608B8B608B8B8B3C8B8B608B8B608B8B608B8B608B8B
310
8B3C8B8B608B8B608B8B608B8B608B8B3C8B8B8B608B8B608B8B608B8B608B8B3C8B8B8B608B8B608B8B608B8B608B8B3C8B8B608B8B8B608B8B608B8B608B8B3C8B8B608B8B8B608B8B608B8B608B8B3C8B8B608B8B608B8B8B608B8B608B8B3C8B8B608B608B8B608B8B608B8B608B8B3C8B8B8B608B8B608B8B608B8B60
310
8B8B3C8B8B608B8B8B608B8B608B8B608B8B3C8B8B608B8B8B608B8B608B8B608B8B3C8B8B608B8B608B8B8B608B8B608B8B3C8B8B608B8B608B8B8B608B8B608B8B3C8B8B608B8B608B8B608B8B8B608B8B3C8B8B608B8B608B8B608B8B8B608B8B3C8B8B608B8B608B8B608B8B608B8B8B3C8B8B608B8B608B8B608B8B60
310
8B8B8B3C8B8B608B8B608B8B608B8B608B8B3C8B8B8B608B8B608B8B608B8B608B8B3C8B8B8B608B8B608B8B608B8B608B8B3C8B8B608B8B8B608B8B608B8B608B8B3C8B8B608B8B8B608B8B608B8B608B8B3C8B8B608B8B608B8B8B608B8B608B8B3C8B8B608B608B8B608B8B608B8B608B8B3C8B8B8B608B8B608B8B608B
310
8B608B8B3C8B8B608B8B8B608B8B608B8B608B8B3C8B8B608B8B8B608B8B608B8B608B8B3C8B8B608B8B608B8B8B608B8B608B8B3C8B8B608B8B608B8B8B608B8B608B8B3C8B8B608B8B608B8B608B8B8B608B8B3C8B8B608B8B608B8B608B8B8B608B8B3C8B8B608B8B608B8B608B8B608B8B8B3C8B8B608B8B608B8B608B
310
8B608B8B8B3C8B8B608B8B608B8B608B8B608B8B3C8B8B8B608B8B608B8B608B8B608B8B3C8B8B8B608B8B608B8B608B8B608B8B3C8B8B608B8B8B608B8B608B8B608B8B3C8B8B608B8B8B608B8B608B8B608B8B3C8B8B608B8B608B8B8B608B8B608B8B3C8B8B60606060606060606060606060603C606060606060606060
310
6060606060603C6060606060606060606060606060603C6060606060606060606060606060603C6060606060606060606060606060603C6060606060606060606060606060603C6060606060606060606060606060603C6060606060606060606060606060603C6060606060606060606060606060603C6060606060606060
310
606060606060603C60606060606060606060606060603C6060606060606060606060606060603C6060606060606060606060606060603C6060606060606060606060606060603C6060606060606060606060606060603C6060606060606060606060606060603C6060608B608B8B608B8B608B8B608B8B3C8B8B8B608B8B60
310
8B8B608B8B608B8B3C8B8B608B8B8B608B8B608B8B608B8B3C8B8B608B8B8B608B8B608B8B608B8B3C8B8B608B8B608B8B8B608B8B608B8B3C8B8B608B8B608B8B8B608B8B608B8B3C8B8B608B8B608B8B608B8B8B608B8B3C8B8B608B8B608B8B608B8B8B608B8B3C8B8B608B8B608B8B608B8B608B8B8B3C8B8B608B8B60
310
8B8B608B8B608B8B8B3C8B8B608B8B608B8B608B8B608B8B3C8B8B8B608B8B608B8B608B8B608B8B3C8B8B8B608B8B608B8B608B8B608B8B3C8B8B608B8B8B608B8B608B8B608B8B3C8B8B608B8B8B608B8B608B8B608B8B3C8B8B608B8B608B8B8B608B8B608B8B3C8B8B608B608B8B608B8B608B8B608B8B3C8B8B8B608B
310
8B608B8B608B8B608B8B3C8B8B608B8B8B608B8B608B8B608B8B3C8B8B608B8B8B608B8B608B8B608B8B3C8B8B608B8B608B8B8B608B8B608B8B3C8B8B608B8B608B8B8B608B8B608B8B3C8B8B608B8B608B8B608B8B8B608B8B3C8B8B608B8B608B8B608B8B8B608B8B3C8B8B608B8B608B8B608B8B608B8B8B3C8B8B608B
310
8B608B8B608B8B608B8B8B3C8B8B608B8B608B8B608B8B608B8B3C8B8B8B608B8B608B8B608B8B608B8B3C8B8B8B608B8B608B8B608B8B608B8B3C8B8B608B8B8B608B8B608B8B608B8B3C8B8B608B8B8B608B8B608B8B608B8B3C8B8B608B8B608B8B8B608B8B608B8B3C8B8B60606060606060606060606060603C606060
310
6060606060606060606060603C6060606060606060606060606060603C6060606060606060606060606060603C6060606060606060606060606060603C6060606060606060606060606060603C6060606060606060606060606060603C6060606060606060606060606060603C6060606060606060606060606060603C6060
310
606060606060606060606060603C60606060606060606060606060603C6060606060606060606060606060603C6060606060606060606060606060603C6060606060606060606060606060603C6060606060606060606060606060603C6060606060606060606060606060603C6060608B608B8B608B8B608B8B608B8B3C8B
310
8B8B608B8B608B8B608B8B608B8B3C8B8B608B8B8B608B8B608B8B608B8B3C8B8B608B8B8B608B8B608B8B608B8B3C8B8B608B8B608B8B8B608B8B608B8B3C8B8B608B8B608B8B8B608B8B608B8B3C8B8B608B8B608B8B608B8B8B608B8B3C8B8B608B8B608B8B608B8B8B608B8B3C8B8B608B8B608B8B608B8B608B8B8B3C
310
8B8B608B8B608B8B608B8B608B8B8B3C8B8B608B8B608B8B608B8B608B8B3C8B8B8B608B8B608B8B608B8B608B8B3C8B8B8B608B8B608B8B608B8B608B8B3C8B8B608B8B8B608B8B608B8B608B8B3C8B8B608B8B8B608B8B608B8B608B8B3C8B8B608B8B608B8B8B608B8B608B8B3C8B8B608B608B8B608B8B608B8B608B8B
310
3C8B8B8B608B8B608B8B608B8B608B8B3C8B8B608B8B8B608B8B608B8B608B8B3C8B8B608B8B8B608B8B608B8B608B8B3C8B8B608B8B608B8B8B608B8B608B8B3C8B8B608B8B608B8B8B608B8B608B8B3C8B8B608B8B608B8B608B8B8B608B8B3C8B8B608B8B608B8B608B8B8B608B8B3C8B8B608B8B608B8B608B8B608B8B
310
8B3C8B8B608B8B608B8B608B8B608B8B8B3C8B8B608B8B608B8B608B8B608B8B3C8B8B8B608B8B608B8B608B8B608B8B3C8B8B8B608B8B608B8B608B8B608B8B3C8B8B608B8B8B608B8B608B8B608B8B3C8B8B608B8B8B608B8B608B8B608B8B3C8B8B608B8B608B8B8B608B8B608B8B3C8B8B606060606060606060606060
310
60603C6060606060606060606060606060603C6060606060606060606060606060603C6060606060606060606060606060603C6060606060606060606060606060603C6060606060606060606060606060603C6060606060606060606060606060603C6060606060606060606060606060603C606060606060606060606060
310
6060603C6060606060606060606060606060603C60606060606060606060606060603C6060606060606060606060606060603C6060606060606060606060606060603C6060606060606060606060606060603C6060606060606060606060606060603C6060606060606060606060606060603C6060608B608B8B608B8B608B
310
8B608B8B3C8B8B8B608B8B608B8B608B8B608B8B3C8B8B608B8B8B608B8B608B8B608B8B3C8B8B608B8B8B608B8B608B8B608B8B3C8B8B608B8B608B8B8B608B8B608B8B3C8B8B608B8B608B8B8B608B8B608B8B3C8B8B608B8B608B8B608B8B8B608B8B3C8B8B608B8B608B8B608B8B8B608B8B3C8B8B608B8B608B8B608B
310
8B608B8B8B3C8B8B608B8B608B8B608B8B608B8B8B3C8B8B608B8B608B8B608B8B608B8B3C8B8B8B608B8B608B8B608B8B608B8B3C8B8B8B608B8B608B8B608B8B608B8B3C8B8B608B8B8B608B8B608B8B608B8B3C8B8B608B8B8B608B8B608B8B608B8B3C8B8B608B8B608B8B8B608B8B608B8B3C8B8B608B608B8B608B8B
310
608B8B608B8B3C8B8B8B608B8B608B8B608B8B608B8B3C8B8B608B8B8B608B8B608B8B608B8B3C8B8B608B8B8B608B8B608B8B608B8B3C8B8B608B8B608B8B8B608B8B608B8B3C8B8B608B8B608B8B8B608B8B608B8B3C8B8B608B8B608B8B608B8B8B608B8B3C8B8B608B8B608B8B608B8B8B608B8B3C8B8B608B8B608B8B
310
608B8B608B8B8B3C8B8B608B8B608B8B608B8B608B8B8B3C8B8B608B8B608B8B608B8B608B8B3C8B8B8B608B8B608B8B608B8B608B8B3C8B8B8B608B8B608B8B608B8B608B8B3C8B8B608B8B8B608B8B608B8B608B8B3C8B8B608B8B8B608B8B608B8B608B8B3C8B8B608B8B608B8B8B608B8B608B8B3C8B8B606060606060
310
60606060606060603C6060606060606060606060606060603C6060606060606060606060606060603C6060606060606060606060606060603C6060606060606060606060606060603C6060606060606060606060606060603C6060606060606060606060606060603C6060606060606060606060606060603C606060606060
310
6060606060606060603C6060606060606060606060606060603C60606060606060606060606060603C6060606060606060606060606060603C6060606060606060606060606060603C6060606060606060606060606060603C6060606060606060606060606060603C6060606060606060606060606060603C6060608B608B
310
8B608B8B608B8B608B8B3C8B8B8B608B8B608B8B608B8B608B8B3C8B8B608B8B8B608B8B608B8B608B8B3C8B8B608B8B8B608B8B608B8B608B8B3C8B8B608B8B608B8B8B608B8B608B8B3C8B8B608B8B608B8B8B608B8B608B8B3C8B8B608B8B608B8B608B8B8B608B8B3C8B8B608B8B608B8B608B8B8B608B8B3C8B8B608B
310
8B608B8B608B8B608B8B8B3C8B8B608B8B608B8B608B8B608B8B8B3C8B8B608B8B608B8B608B8B608B8B3C8B8B8B608B8B608B8B608B8B608B8B3C8B8B8B608B8B608B8B608B8B608B8B3C8B8B608B8B8B608B8B608B8B608B8B3C8B8B608B8B8B608B8B608B8B608B8B3C8B8B608B8B608B8B8B608B8B608B8B3C8B8B608B
310
608B8B608B8B608B8B608B8B3C8B8B8B608B8B608B8B608B8B608B8B3C8B8B608B8B8B608B8B608B8B608B8B3C8B8B608B8B8B608B8B608B8B608B8B3C8B8B608B8B608B8B8B608B8B608B8B3C8B8B608B8B608B8B8B608B8B608B8B3C8B8B608B8B608B8B608B8B8B608B8B3C8B8B608B8B608B8B608B8B8B608B8B3C8B8B
310
608B8B608B8B608B8B608B8B8B3C8B8B608B8B608B8B608B8B608B8B8B3C8B8B608B8B608B8B608B8B608B8B3C8B8B8B608B8B608B8B608B8B608B8B3C8B8B8B608B8B608B8B608B8B608B8B3C8B8B608B8B8B608B8B608B8B608B8B3C8B8B608B8B8B608B8B608B8B608B8B3C8B8B608B8B608B8B8B608B8B608B8B3C8B8B
310
603C3C3C3C3C3C3C3C3C3C3C3C3C3C3C3C3C3C3C3C3C3C3C3C3C3C3C3C3C3C3C3C3C3C3C3C3C3C3C3C3C3C3C3C3C3C3C3C3C3C3C3C3C3C3C3C3C3C3C3C3C3C3C3C3C3C3C3C3C3C3C3C3C3C3C3C3C3C3C3C3C3C3C3C3C3C3C3C3C3C3C3C3C3C3C3C3C3C3C3C3C3C3C3C3C3C3C3C3C3C3C3C3C3C3C3C3C3C3C3C3C3C3C3C3C3C
310
3C3C3C3C3C3C3C3C3C3C3C3C3C3C3C3C3C3C3C3C3C3C3C3C3C3C3C3C3C3C3C3C3C3C3C3C3C3C3C3C3C3C3C3C3C3C3C3C3C3C3C3C3C3C3C3C3C3C3C3C3C3C3C3C3C3C3C3C3C3C3C3C3C3C3C3C3C3C3C3C3C3C3C3C3C3C3C3C3C3C3C3C3C3C3C3C3C3C3C3C3C3C3C3C3C3C3C3C3C3C3C3C3C3C3C3C3C3C3C3C3C3C3C3C3C3C3C
310
3C3C3C8B608B8B608B8B608B8B608B8B3C8B8B8B608B8B608B8B608B8B608B8B3C8B8B608B8B8B608B8B608B8B608B8B3C8B8B608B8B8B608B8B608B8B608B8B3C8B8B608B8B608B8B8B608B8B608B8B3C8B8B608B8B608B8B8B608B8B608B8B3C8B8B608B8B608B8B608B8B8B608B8B3C8B8B608B8B608B8B608B8B8B608B
310
8B3C8B8B608B8B608B8B608B8B608B8B8B3C8B8B608B8B608B8B608B8B608B8B8B3C8B8B608B8B608B8B608B8B608B8B3C8B8B8B608B8B608B8B608B8B608B8B3C8B8B8B608B8B608B8B608B8B608B8B3C8B8B608B8B8B608B8B608B8B608B8B3C8B8B608B8B8B608B8B608B8B608B8B3C8B8B608B8B608B8B8B608B8B608B
310
8B3C8B8B608B608B8B608B8B608B8B608B8B3C8B8B8B608B8B608B8B608B8B608B8B3C8B8B608B8B8B608B8B608B8B608B8B3C8B8B608B8B8B608B8B608B8B608B8B3C8B8B608B8B608B8B8B608B8B608B8B3C8B8B608B8B608B8B8B608B8B608B8B3C8B8B608B8B608B8B608B8B8B608B8B3C8B8B608B8B608B8B608B8B8B
310
608B8B3C8B8B608B8B608B8B608B8B608B8B8B3C8B8B608B8B608B8B608B8B608B8B8B3C8B8B608B8B608B8B608B8B608B8B3C8B8B8B608B8B608B8B608B8B608B8B3C8B8B8B608B8B608B8B608B8B608B8B3C8B8B608B8B8B608B8B608B8B608B8B3C8B8B608B8B8B608B8B608B8B608B8B3C8B8B608B8B608B8B8B608B8B
310
608B8B3C8B8B60606060606060606060606060603C6060606060606060606060606060603C6060606060606060606060606060603C6060606060606060606060606060603C6060606060606060606060606060603C6060606060606060606060606060603C6060606060606060606060606060603C60606060606060606060
310
60606060603C6060606060606060606060606060603C6060606060606060606060606060603C60606060606060606060606060603C6060606060606060606060606060603C6060606060606060606060606060603C6060606060606060606060606060603C6060606060606060606060606060603C60606060606060606060
310
60606060603C6060608B608B8B608B8B608B8B608B8B3C8B8B8B608B8B608B8B608B8B608B8B3C8B8B608B8B8B608B8B608B8B608B8B3C8B8B608B8B8B608B8B608B8B608B8B3C8B8B608B8B608B8B8B608B8B608B8B3C8B8B608B8B608B8B8B608B8B608B8B3C8B8B608B8B608B8B608B8B8B608B8B3C8B8B608B8B608B8B
310
608B8B8B608B8B3C8B8B608B8B608B8B608B8B608B8B8B3C8B8B608B8B608B8B608B8B608B8B8B3C8B8B608B8B608B8B608B8B608B8B3C8B8B8B608B8B608B8B608B8B608B8B3C8B8B8B608B8B608B8B608B8B608B8B3C8B8B608B8B8B608B8B608B8B608B8B3C8B8B608B8B8B608B8B608B8B608B8B3C8B8B608B8B608B8B
310
8B608B8B608B8B3C8B8B608B608B8B608B8B608B8B608B8B3C8B8B8B608B8B608B8B608B8B608B8B3C8B8B608B8B8B608B8B608B8B608B8B3C8B8B608B8B8B608B8B608B8B608B8B3C8B8B608B8B608B8B8B608B8B608B8B3C8B8B608B8B608B8B8B608B8B608B8B3C8B8B608B8B608B8B608B8B8B608B8B3C8B8B608B8B60
310
8B8B608B8B8B608B8B3C8B8B608B8B608B8B608B8B608B8B8B3C8B8B608B8B608B8B608B8B608B8B8B3C8B8B608B8B608B8B608B8B608B8B3C8B8B8B608B8B608B8B608B8B608B8B3C8B8B8B608B8B608B8B608B8B608B8B3C8B8B608B8B8B608B8B608B8B608B8B3C8B8B608B8B8B608B8B608B8B608B8B3C8B8B608B8B60
310
8B8B8B608B8B608B8B3C8B8B608B608B8B608B8B608B8B608B8B3C8B8B8B608B8B608B8B608B8B608B8B3C8B8B608B8B8B608B8B608B8B608B8B3C8B8B608B8B8B608B8B608B8B608B8B3C8B8B608B8B608B8B8B608B8B608B8B3C8B8B608B8B608B8B8B608B8B608B8B3C8B8B608B8B608B8B608B8B8B608B8B3C8B8B608B
310
8B608B8B608B8B8B608B8B3C8B8B608B8B608B8B608B8B608B8B8B3C8B8B608B8B608B8B608B8B608B8B8B3C8B8B608B8B608B8B608B8B608B8B3C8B8B8B608B8B608B8B608B8B608B8B3C8B8B8B608B8B608B8B608B8B608B8B3C8B8B608B8B8B608B8B608B8B608B8B3C8B8B608B8B8B608B8B608B8B608B8B3C8B8B608B
310
8B608B8B8B608B8B608B8B3C8B8B60606060606060606060606060603C6060606060606060606060606060603C6060606060606060606060606060603C6060606060606060606060606060603C6060606060606060606060606060603C6060606060606060606060606060603C6060606060606060606060606060603C6060
310
606060606060606060606060603C6060606060606060606060606060603C6060606060606060606060606060603C60606060606060606060606060603C6060606060606060606060606060603C6060606060606060606060606060603C6060606060606060606060606060603C6060606060606060606060606060603C6060
310
606060606060606060606060603C6060608B608B8B608B8B608B8B608B8B3C8B8B8B608B8B608B8B608B8B608B8B3C8B8B608B8B8B608B8B608B8B608B8B3C8B8B608B8B8B608B8B608B8B608B8B3C8B8B608B8B608B8B8B608B8B608B8B3C8B8B608B8B608B8B8B608B8B608B8B3C8B8B608B8B608B8B608B8B8B608B8B3C
310
8B8B608B8B608B8B608B8B8B608B8B3C8B8B608B8B608B8B608B8B608B8B8B3C8B8B608B8B608B8B608B8B608B8B8B3C8B8B608B8B608B8B608B8B608B8B3C8B8B8B608B8B608B8B608B8B608B8B3C8B8B8B608B8B608B8B608B8B608B8B3C8B8B608B8B8B608B8B608B8B608B8B3C8B8B608B8B8B608B8B608B8B608B8B3C
310
8B8B608B8B608B8B8B608B8B608B8B3C8B8B608B608B8B608B8B608B8B608B8B3C8B8B8B608B8B608B8B608B8B608B8B3C8B8B608B8B8B608B8B608B8B608B8B3C8B8B608B8B8B608B8B608B8B608B8B3C8B8B608B8B608B8B8B608B8B608B8B3C8B8B608B8B608B8B8B608B8B608B8B3C8B8B608B8B608B8B608B8B8B608B
310
8B3C8B8B608B8B608B8B608B8B8B608B8B3C8B8B608B8B608B8B608B8B608B8B8B3C8B8B608B8B608B8B608B8B608B8B8B3C8B8B608B8B608B8B608B8B608B8B3C8B8B8B608B8B608B8B608B8B608B8B3C8B8B8B608B8B608B8B608B8B608B8B3C8B8B608B8B8B608B8B608B8B608B8B3C8B8B608B8B8B608B8B608B8B608B
310
8B3C8B8B608B8B608B8B8B608B8B608B8B3C8B8B60606060606060606060606060603C6060606060606060606060606060603C6060606060606060606060606060603C6060606060606060606060606060603C6060606060606060606060606060603C6060606060606060606060606060603C606060606060606060606060
310
6060603C6060606060606060606060606060603C6060606060606060606060606060603C6060606060606060606060606060603C60606060606060606060606060603C6060606060606060606060606060603C6060606060606060606060606060603C6060606060606060606060606060603C606060606060606060606060
310
6060603C6060606060606060606060606060603C6060608B608B8B608B8B608B8B608B8B3C8B8B8B608B8B608B8B608B8B608B8B3C8B8B608B8B8B608B8B608B8B608B8B3C8B8B608B8B8B608B8B608B8B608B8B3C8B8B608B8B608B8B8B608B8B608B8B3C8B8B608B8B608B8B8B608B8B608B8B3C8B8B608B8B608B8B608B
310
8B8B608B8B3C8B8B608B8B608B8B608B8B8B608B8B3C8B8B608B8B608B8B608B8B608B8B8B3C8B8B608B8B608B8B608B8B608B8B8B3C8B8B608B8B608B8B608B8B608B8B3C8B8B8B608B8B608B8B608B8B608B8B3C8B8B8B608B8B608B8B608B8B608B8B3C8B8B608B8B8B608B8B608B8B608B8B3C8B8B608B8B8B608B8B60
310
8B8B608B8B3C8B8B608B8B608B8B8B608B8B608B8B3C8B8B608B608B8B608B8B608B8B608B8B3C8B8B8B608B8B608B8B608B8B608B8B3C8B8B608B8B8B608B8B608B8B608B8B3C8B8B608B8B8B608B8B608B8B608B8B3C8B8B608B8B608B8B8B608B8B608B8B3C8B8B608B8B608B8B8B608B8B608B8B3C8B8B608B8B608B8B
310
608B8B8B608B8B3C8B8B608B8B608B8B608B8B8B608B8B3C8B8B608B8B608B8B608B8B608B8B8B3C8B8B608B8B608B8B608B8B608B8B8B3C8B8B608B8B608B8B608B8B608B8B3C8B8B8B608B8B608B8B608B8B608B8B3C8B8B8B608B8B608B8B608B8B608B8B3C8B8B608B8B8B608B8B608B8B608B8B3C8B8B608B8B8B608B
310
8B608B8B608B8B3C8B8B608B8B608B8B8B608B8B608B8B3C8B8B60606060606060606060606060603C6060606060606060606060606060603C6060606060606060606060606060603C6060606060606060606060606060603C6060606060606060606060606060603C6060606060606060606060606060603C606060606060
310
6060606060606060603C6060606060606060606060606060603C6060606060606060606060606060603C6060606060606060606060606060603C60606060606060606060606060603C6060606060606060606060606060603C6060606060606060606060606060603C6060606060606060606060606060603C606060606060
310
6060606060606060603C6060606060606060606060606060603C6060608B608B8B608B8B608B8B608B8B3C8B8B8B608B8B608B8B608B8B608B8B3C8B8B608B8B8B608B8B608B8B608B8B3C8B8B608B8B8B608B8B608B8B608B8B3C8B8B608B8B608B8B8B608B8B608B8B3C8B8B608B8B608B8B8B608B8B608B8B3C8B8B608B
310
8B608B8B608B8B8B608B8B3C8B8B608B8B608B8B608B8B8B608B8B3C8B8B608B8B608B8B608B8B608B8B8B3C8B8B608B8B608B8B608B8B608B8B8B3C8B8B608B8B608B8B608B8B608B8B3C8B8B8B608B8B608B8B608B8B608B8B3C8B8B8B608B8B608B8B608B8B608B8B3C8B8B608B8B8B608B8B608B8B608B8B3C8B8B608B
310
8B8B608B8B608B8B608B8B3C8B8B608B8B608B8B8B608B8B608B8B3C8B8B608B608B8B608B8B608B8B608B8B3C8B8B8B608B8B608B8B608B8B608B8B3C8B8B608B8B8B608B8B608B8B608B8B3C8B8B608B8B8B608B8B608B8B608B8B3C8B8B608B8B608B8B8B608B8B608B8B3C8B8B608B8B608B8B8B608B8B608B8B3C8B8B
310
608B8B608B8B608B8B8B608B8B3C8B8B608B8B608B8B608B8B8B608B8B3C8B8B608B8B608B8B608B8B608B8B8B3C8B8B608B8B608B8B608B8B608B8B8B3C8B8B608B8B608B8B608B8B608B8B3C8B8B8B608B8B608B8B608B8B608B8B3C8B8B8B608B8B608B8B608B8B608B8B3C8B8B608B8B8B608B8B608B8B608B8B3C8B8B
310
608B8B8B608B8B608B8B608B8B3C8B8B608B8B608B8B8B608B8B608B8B3C8B8B603C3C3C3C3C3C3C3C3C3C3C3C3C3C3C3C3C3C3C3C3C3C3C3C3C3C3C3C3C3C3C3C3C3C3C3C3C3C3C3C3C3C3C3C3C3C3C3C3C3C3C3C3C3C3C3C3C3C3C3C3C3C3C3C3C3C3C3C3C3C3C3C3C3C3C3C3C3C3C3C3C3C3C3C3C3C3C3C3C3C3C3C3C3C
310
3C3C3C3C3C3C3C3C3C3C3C3C3C3C3C3C3C3C3C3C3C3C3C3C3C3C3C3C3C3C3C3C3C3C3C3C3C3C3C3C3C3C3C3C3C3C3C3C3C3C3C3C3C3C3C3C3C3C3C3C3C3C3C3C3C3C3C3C3C3C3C3C3C3C3C3C3C3C3C3C3C3C3C3C3C3C3C3C3C3C3C3C3C3C3C3C3C3C3C3C3C3C3C3C3C3C3C3C3C3C3C3C3C3C3C3C3C3C3C3C3C3C3C3C3C3C3C
310
3C3C3C3C3C3C3C3C3C3C3C3C3C3C3C3C3C3C3C3C3C3C3C3C3C3C3C3C3C3C3C3C3C3C3C8B608B8B608B8B608B8B608B8B3C8B8B8B608B8B608B8B608B8B608B8B3C8B8B608B8B8B608B8B608B8B608B8B3C8B8B608B8B8B608B8B608B8B608B8B3C8B8B608B8B608B8B8B608B8B608B8B3C8B8B608B8B608B8B8B608B8B608B
310
8B3C8B8B608B8B608B8B608B8B8B608B8B3C8B8B608B8B608B8B608B8B8B608B8B3C8B8B608B8B608B8B608B8B608B8B8B3C8B8B608B8B608B8B608B8B608B8B8B3C8B8B608B8B608B8B608B8B608B8B3C8B8B8B608B8B608B8B608B8B608B8B3C8B8B8B608B8B608B8B608B8B608B8B3C8B8B608B8B8B608B8B608B8B608B
310
8B3C8B8B608B8B8B608B8B608B8B608B8B3C8B8B608B8B608B8B8B608B8B608B8B3C8B8B608B608B8B608B8B608B8B608B8B3C8B8B8B608B8B608B8B608B8B608B8B3C8B8B608B8B8B608B8B608B8B608B8B3C8B8B608B8B8B608B8B608B8B608B8B3C8B8B608B8B608B8B8B608B8B608B8B3C8B8B608B8B608B8B8B608B8B
310
608B8B3C8B8B608B8B608B8B608B8B8B608B8B3C8B8B608B8B608B8B608B8B8B608B8B3C8B8B608B8B608B8B608B8B608B8B8B3C8B8B608B8B608B8B608B8B608B8B8B3C8B8B608B8B608B8B608B8B608B8B3C8B8B8B608B8B608B8B608B8B608B8B3C8B8B8B608B8B608B8B608B8B608B8B3C8B8B608B8B8B608B8B608B8B
310
608B8B3C8B8B608B8B8B608B8B608B8B608B8B3C8B8B608B8B608B8B8B608B8B608B8B3C8B8B60606060606060606060606060603C6060606060606060606060606060603C6060606060606060606060606060603C6060606060606060606060606060603C6060606060606060606060606060603C60606060606060606060
310
60606060603C6060606060606060606060606060603C6060606060606060606060606060603C6060606060606060606060606060603C6060606060606060606060606060603C60606060606060606060606060603C6060606060606060606060606060603C6060606060606060606060606060603C60606060606060606060
310
60606060603C6060606060606060606060606060603C6060606060606060606060606060603C6060608B608B8B608B8B608B8B608B8B3C8B8B8B608B8B608B8B608B8B608B8B3C8B8B608B8B8B608B8B608B8B608B8B3C8B8B608B8B8B608B8B608B8B608B8B3C8B8B608B8B608B8B8B608B8B608B8B3C8B8B608B8B608B8B
310
8B608B8B608B8B3C8B8B608B8B608B8B608B8B8B608B8B3C8B8B608B8B608B8B608B8B8B608B8B3C8B8B608B8B608B8B608B8B608B8B8B3C8B8B608B8B608B8B608B8B608B8B8B3C8B8B608B8B608B8B608B8B608B8B3C8B8B8B608B8B608B8B608B8B608B8B3C8B8B8B608B8B608B8B608B8B608B8B3C8B8B608B8B8B608B
310
8B608B8B608B8B3C8B8B608B8B8B608B8B608B8B608B8B3C8B8B608B8B608B8B8B608B8B608B8B3C8B8B608B608B8B608B8B608B8B608B8B3C8B8B8B608B8B608B8B608B8B608B8B3C8B8B608B8B8B608B8B608B8B608B8B3C8B8B608B8B8B608B8B608B8B608B8B3C8B8B608B8B608B8B8B608B8B608B8B3C8B8B608B8B60
310
8B8B8B608B8B608B8B3C8B8B608B8B608B8B608B8B8B608B8B3C8B8B608B8B608B8B608B8B8B608B8B3C8B8B608B8B608B8B608B8B608B8B8B3C8B8B608B8B608B8B608B8B608B8B8B3C8B8B608B8B608B8B608B8B608B8B3C8B8B8B608B8B608B8B608B8B608B8B3C8B8B8B608B8B608B8B608B8B608B8B3C8B8B608B8B8B
310
608B8B608B8B608B8B3C8B8B608B8B8B608B8B608B8B608B8B3C8B8B608B8B608B8B8B608B8B608B8B3C8B8B60606060606060606060606060603C6060606060606060606060606060603C6060606060606060606060606060603C6060606060606060606060606060603C6060606060606060606060606060603C60606060
310
60606060606060606060603C6060606060606060606060606060603C6060606060606060606060606060603C6060606060606060606060606060603C6060606060606060606060606060603C60606060606060606060606060603C6060606060606060606060606060603C6060606060606060606060606060603C60606060
310
60606060606060606060603C6060606060606060606060606060603C6060606060606060606060606060603C6060608B608B8B608B8B608B8B608B8B3C8B8B8B608B8B608B8B608B8B608B8B3C8B8B608B8B8B608B8B608B8B608B8B3C8B8B608B8B8B608B8B608B8B608B8B3C8B8B608B8B608B8B8B608B8B608B8B3C8B8B
310
608B8B608B8B8B608B8B608B8B3C8B8B608B8B608B8B608B8B8B608B8B3C8B8B608B8B608B8B608B8B8B608B8B3C8B8B608B8B608B8B608B8B608B8B8B3C8B8B608B8B608B8B608B8B608B8B8B3C8B8B608B8B608B8B608B8B608B8B3C8B8B8B608B8B608B8B608B8B608B8B3C8B8B8B608B8B608B8B608B8B608B8B3C8B8B
310
608B8B8B608B8B608B8B608B8B3C8B8B608B8B8B608B8B608B8B608B8B3C8B8B608B8B608B8B8B608B8B608B8B3C8B8B608B608B8B608B8B608B8B608B8B3C8B8B8B608B8B608B8B608B8B608B8B3C8B8B608B8B8B608B8B608B8B608B8B3C8B8B608B8B8B608B8B608B8B608B8B3C8B8B608B8B608B8B8B608B8B608B8B3C
310
8B8B608B8B608B8B8B608B8B608B8B3C8B8B608B8B608B8B608B8B8B608B8B3C8B8B608B8B608B8B608B8B8B608B8B3C8B8B608B8B608B8B608B8B608B8B8B3C8B8B608B8B608B8B608B8B608B8B8B3C8B8B608B8B608B8B608B8B608B8B3C8B8B8B608B8B608B8B608B8B608B8B3C8B8B8B608B8B608B8B608B8B608B8B3C
310
8B8B608B8B8B608B8B608B8B608B8B3C8B8B608B8B8B608B8B608B8B608B8B3C8B8B608B8B608B8B8B608B8B608B8B3C8B8B608B608B8B608B8B608B8B608B8B3C8B8B8B608B8B608B8B608B8B608B8B3C8B8B608B8B8B608B8B608B8B608B8B3C8B8B608B8B8B608B8B608B8B608B8B3C8B8B608B8B608B8B8B608B8B608B
310
8B3C8B8B608B8B608B8B8B608B8B608B8B3C8B8B608B8B608B8B608B8B8B608B8B3C8B8B608B8B608B8B608B8B8B608B8B3C8B8B608B8B608B8B608B8B608B8B8B3C8B8B608B8B608B8B608B8B608B8B8B3C8B8B608B8B608B8B608B8B608B8B3C8B8B8B608B8B608B8B608B8B608B8B3C8B8B8B608B8B608B8B608B8B608B
310
8B3C8B8B608B8B8B608B8B608B8B608B8B3C8B8B608B8B8B608B8B608B8B608B8B3C8B8B608B8B608B8B8B608B8B608B8B3C8B8B60606060606060606060606060603C6060606060606060606060606060603C6060606060606060606060606060603C6060606060606060606060606060603C606060606060606060606060
310
6060603C6060606060606060606060606060603C6060606060606060606060606060603C6060606060606060606060606060603C6060606060606060606060606060603C6060606060606060606060606060603C60606060606060606060606060603C6060606060606060606060606060603C606060606060606060606060
310
6060603C6060606060606060606060606060603C6060606060606060606060606060603C6060606060606060606060606060603C6060608B608B8B608B8B608B8B608B8B3C8B8B8B608B8B608B8B608B8B608B8B3C8B8B608B8B8B608B8B608B8B608B8B3C8B8B608B8B8B608B8B608B8B608B8B3C8B8B608B8B608B8B8B60
310
8B8B608B8B3C8B8B608B8B608B8B8B608B8B608B8B3C8B8B608B8B608B8B608B8B8B608B8B3C8B8B608B8B608B8B608B8B8B608B8B3C8B8B608B8B608B8B608B8B608B8B8B3C8B8B608B8B608B8B608B8B608B8B8B3C8B8B608B8B608B8B608B8B608B8B3C8B8B8B608B8B608B8B608B8B608B8B3C8B8B8B608B8B608B8B60
310
8B8B608B8B3C8B8B608B8B8B608B8B608B8B608B8B3C8B8B608B8B8B608B8B608B8B608B8B3C8B8B608B8B608B8B8B608B8B608B8B3C8B8B608B608B8B608B8B608B8B608B8B3C8B8B8B608B8B608B8B608B8B608B8B3C8B8B608B8B8B608B8B608B8B608B8B3C8B8B608B8B8B608B8B608B8B608B8B3C8B8B608B8B608B8B
310
8B608B8B608B8B3C8B8B608B8B608B8B8B608B8B608B8B3C8B8B608B8B608B8B608B8B8B608B8B3C8B8B608B8B608B8B608B8B8B608B8B3C8B8B608B8B608B8B608B8B608B8B8B3C8B8B608B8B608B8B608B8B608B8B8B3C8B8B608B8B608B8B608B8B608B8B3C8B8B8B608B8B608B8B608B8B608B8B3C8B8B8B608B8B608B
310
8B608B8B608B8B3C8B8B608B8B8B608B8B608B8B608B8B3C8B8B608B8B8B608B8B608B8B608B8B3C8B8B608B8B608B8B8B608B8B608B8B3C8B8B60606060606060606060606060603C6060606060606060606060606060603C6060606060606060606060606060603C6060606060606060606060606060603C606060606060
310
6060606060606060603C6060606060606060606060606060603C6060606060606060606060606060603C6060606060606060606060606060603C6060606060606060606060606060603C6060606060606060606060606060603C60606060606060606060606060603C6060606060606060606060606060603C606060606060
310
6060606060606060603C6060606060606060606060606060603C6060606060606060606060606060603C6060606060606060606060606060603C6060608B608B8B608B8B608B8B608B8B3C8B8B8B608B8B608B8B608B8B608B8B3C8B8B608B8B8B608B8B608B8B608B8B3C8B8B608B8B8B608B8B608B8B608B8B3C8B8B608B
310
8B608B8B8B608B8B608B8B3C8B8B608B8B608B8B8B608B8B608B8B3C8B8B608B8B608B8B608B8B8B608B8B3C8B8B608B8B608B8B608B8B8B608B8B3C8B8B608B8B608B8B608B8B608B8B8B3C8B8B608B8B608B8B608B8B608B8B8B3C8B8B608B8B608B8B608B8B608B8B3C8B8B8B608B8B608B8B608B8B608B8B3C8B8B8B60
310
8B8B608B8B608B8B608B8B3C8B8B608B8B8B608B8B608B8B608B8B3C8B8B608B8B8B608B8B608B8B608B8B3C8B8B608B8B608B8B8B608B8B608B8B3C8B8B608B608B8B608B8B608B8B608B8B3C8B8B8B608B8B608B8B608B8B608B8B3C8B8B608B8B8B608B8B608B8B608B8B3C8B8B608B8B8B608B8B608B8B608B8B3C8B8B
310
608B8B608B8B8B608B8B608B8B3C8B8B608B8B608B8B8B608B8B608B8B3C8B8B608B8B608B8B608B8B8B608B8B3C8B8B608B8B608B8B608B8B8B608B8B3C8B8B608B8B608B8B608B8B608B8B8B3C8B8B608B8B608B8B608B8B608B8B8B3C8B8B608B8B608B8B608B8B608B8B3C8B8B8B608B8B608B8B608B8B608B8B3C8B8B
310
8B608B8B608B8B608B8B608B8B3C8B8B608B8B8B608B8B608B8B608B8B3C8B8B608B8B8B608B8B608B8B608B8B3C8B8B608B8B608B8B8B608B8B608B8B3C8B8B603C3C3C3C3C3C3C3C3C3C3C3C3C3C3C3C3C3C3C3C3C3C3C3C3C3C3C3C3C3C3C3C3C3C3C3C3C3C3C3C3C3C3C3C3C3C3C3C3C3C3C3C3C3C3C3C3C3C3C3C3C3C
310
3C3C3C3C3C3C3C3C3C3C3C3C3C3C3C3C3C3C3C3C3C3C3C3C3C3C3C3C3C3C3C3C3C3C3C3C3C3C3C3C3C3C3C3C3C3C3C3C3C3C3C3C3C3C3C3C3C3C3C3C3C3C3C3C3C3C3C3C3C3C3C3C3C3C3C3C3C3C3C3C3C3C3C3C3C3C3C3C3C3C3C3C3C3C3C3C3C3C3C3C3C3C3C3C3C3C3C3C3C3C3C3C3C3C3C3C3C3C3C3C3C3C3C3C3C3C3C
310
3C3C3C3C3C3C3C3C3C3C3C3C3C3C3C3C3C3C3C3C3C3C3C3C3C3C3C3C3C3C3C3C3C3C3C3C3C3C3C3C3C3C3C3C3C3C3C3C3C3C3C3C3C3C3C3C3C3C3C3C3C3C3C3C3C3C3C8B608B8B608B8B608B8B608B8B3C8B8B8B608B8B608B8B608B8B608B8B3C8B8B608B8B8B608B8B608B8B608B8B3C8B8B608B8B8B608B8B608B8B608B
310
8B3C8B8B608B8B608B8B8B608B8B608B8B3C8B8B608B8B608B8B8B608B8B608B8B3C8B8B608B8B608B8B608B8B8B608B8B3C8B8B608B8B608B8B608B8B8B608B8B3C8B8B608B8B608B8B608B8B608B8B8B3C8B8B608B8B608B8B608B8B608B8B8B3C8B8B608B8B608B8B608B8B608B8B3C8B8B8B608B8B608B8B608B8B608B
310
8B3C8B8B8B608B8B608B8B608B8B608B8B3C8B8B608B8B8B608B8B608B8B608B8B3C8B8B608B8B8B608B8B608B8B608B8B3C8B8B608B8B608B8B8B608B8B608B8B3C8B8B608B608B8B608B8B608B8B608B8B3C8B8B8B608B8B608B8B608B8B608B8B3C8B8B608B8B8B608B8B608B8B608B8B3C8B8B608B8B8B608B8B608B8B
310
608B8B3C8B8B608B8B608B8B8B608B8B608B8B3C8B8B608B8B608B8B8B608B8B608B8B3C8B8B608B8B608B8B608B8B8B608B8B3C8B8B608B8B608B8B608B8B8B608B8B3C8B8B608B8B608B8B608B8B608B8B8B3C8B8B608B8B608B8B608B8B608B8B8B3C8B8B608B8B608B8B608B8B608B8B3C8B8B8B608B8B608B8B608B8B
310
608B8B3C8B8B8B608B8B608B8B608B8B608B8B3C8B8B608B8B8B608B8B608B8B608B8B3C8B8B608B8B8B608B8B608B8B608B8B3C8B8B608B8B608B8B8B608B8B608B8B3C8B8B60606060606060606060606060603C6060606060606060606060606060603C6060606060606060606060606060603C60606060606060606060
310
60606060603C6060606060606060606060606060603C6060606060606060606060606060603C6060606060606060606060606060603C6060606060606060606060606060603C6060606060606060606060606060603C6060606060606060606060606060603C60606060606060606060606060603C60606060606060606060
310
60606060603C6060606060606060606060606060603C6060606060606060606060606060603C6060606060606060606060606060603C6060606060606060606060606060603C6060608B608B8B608B8B608B8B608B8B3C8B8B8B608B8B608B8B608B8B608B8B3C8B8B608B8B8B608B8B608B8B608B8B3C8B8B608B8B8B608B
310
8B608B8B608B8B3C8B8B608B8B608B8B8B608B8B608B8B3C8B8B608B8B608B8B8B608B8B608B8B3C8B8B608B8B608B8B608B8B8B608B8B3C8B8B608B8B608B8B608B8B8B608B8B3C8B8B608B8B608B8B608B8B608B8B8B3C8B8B608B8B608B8B608B8B608B8B8B3C8B8B608B8B608B8B608B8B608B8B3C8B8B8B608B8B608B
310
8B608B8B608B8B3C8B8B8B608B8B608B8B608B8B608B8B3C8B8B608B8B8B608B8B608B8B608B8B3C8B8B608B8B8B608B8B608B8B608B8B3C8B8B608B8B608B8B8B608B8B608B8B3C8B8B608B608B8B608B8B608B8B608B8B3C8B8B8B608B8B608B8B608B8B608B8B3C8B8B608B8B8B608B8B608B8B608B8B3C8B8B608B8B8B
310
608B8B608B8B608B8B3C8B8B608B8B608B8B8B608B8B608B8B3C8B8B608B8B608B8B8B608B8B608B8B3C8B8B608B8B608B8B608B8B8B608B8B3C8B8B608B8B608B8B608B8B8B608B8B3C8B8B608B8B608B8B608B8B608B8B8B3C8B8B608B8B608B8B608B8B608B8B8B3C8B8B608B8B608B8B608B8B608B8B3C8B8B8B608B8B
310
608B8B608B8B608B8B3C8B8B8B608B8B608B8B608B8B608B8B3C8B8B608B8B8B608B8B608B8B608B8B3C8B8B608B8B8B608B8B608B8B608B8B3C8B8B608B8B608B8B8B608B8B608B8B3C8B8B60606060606060606060606060603C6060606060606060606060606060603C6060606060606060606060606060603C60606060
310
60606060606060606060603C6060606060606060606060606060603C6060606060606060606060606060603C6060606060606060606060606060603C6060606060606060606060606060603C6060606060606060606060606060603C6060606060606060606060606060603C60606060606060606060606060603C60606060
310
60606060606060606060603C6060606060606060606060606060603C6060606060606060606060606060603C6060606060606060606060606060603C6060606060606060606060606060603C6060608B608B8B608B8B608B8B608B8B3C8B8B8B608B8B608B8B608B8B608B8B3C8B8B608B8B8B608B8B608B8B608B8B3C8B8B
310
608B8B8B608B8B608B8B608B8B3C8B8B608B8B608B8B8B608B8B608B8B3C8B8B608B8B608B8B8B608B8B608B8B3C8B8B608B8B608B8B608B8B8B608B8B3C8B8B608B8B608B8B608B8B8B608B8B3C8B8B608B8B608B8B608B8B608B8B8B3C8B8B608B8B608B8B608B8B608B8B8B3C8B8B608B8B608B8B608B8B608B8B3C8B8B
310
8B608B8B608B8B608B8B608B8B3C8B8B8B608B8B608B8B608B8B608B8B3C8B8B608B8B8B608B8B608B8B608B8B3C8B8B608B8B8B608B8B608B8B608B8B3C8B8B608B8B608B8B8B608B8B608B8B3C8B8B608B608B8B608B8B608B8B608B8B3C8B8B8B608B8B608B8B608B8B608B8B3C8B8B608B8B8B608B8B608B8B608B8B3C
310
8B8B608B8B8B608B8B608B8B608B8B3C8B8B608B8B608B8B8B608B8B608B8B3C8B8B608B8B608B8B8B608B8B608B8B3C8B8B608B8B608B8B608B8B8B608B8B3C8B8B608B8B608B8B608B8B8B608B8B3C8B8B608B8B608B8B608B8B608B8B8B3C8B8B608B8B608B8B608B8B608B8B8B3C8B8B608B8B608B8B608B8B608B8B3C
310
8B8B8B608B8B608B8B608B8B608B8B3C8B8B8B608B8B608B8B608B8B608B8B3C8B8B608B8B8B608B8B608B8B608B8B3C8B8B608B8B8B608B8B608B8B608B8B3C8B8B608B8B608B8B8B608B8B608B8B3C8B8B60606060606060606060606060603C6060606060606060606060606060603C6060606060606060606060606060
310
603C6060606060606060606060606060603C6060606060606060606060606060603C6060606060606060606060606060603C6060606060606060606060606060603C6060606060606060606060606060603C6060606060606060606060606060603C6060606060606060606060606060603C60606060606060606060606060
310
603C6060606060606060606060606060603C6060606060606060606060606060603C6060606060606060606060606060603C6060606060606060606060606060603C6060606060606060606060606060603C6060608B608B8B608B8B608B8B608B8B3C8B8B8B608B8B608B8B608B8B608B8B3C8B8B608B8B8B608B8B608B8B
310
608B8B3C8B8B608B8B8B608B8B608B8B608B8B3C8B8B608B8B608B8B8B608B8B608B8B3C8B8B608B8B608B8B8B608B8B608B8B3C8B8B608B8B608B8B608B8B8B608B8B3C8B8B608B8B608B8B608B8B8B608B8B3C8B8B608B8B608B8B608B8B608B8B8B3C8B8B608B8B608B8B608B8B608B8B8B3C8B8B608B8B608B8B608B8B
310
608B8B3C8B8B8B608B8B608B8B608B8B608B8B3C8B8B8B608B8B608B8B608B8B608B8B3C8B8B608B8B8B608B8B608B8B608B8B3C8B8B608B8B8B608B8B608B8B608B8B3C8B8B608B8B608B8B8B608B8B608B8B3C8B8B608B608B8B608B8B608B8B608B8B3C8B8B8B608B8B608B8B608B8B608B8B3C8B8B608B8B8B608B8B60
310
8B8B608B8B3C8B8B608B8B8B608B8B608B8B608B8B3C8B8B608B8B608B8B8B608B8B608B8B3C8B8B608B8B608B8B8B608B8B608B8B3C8B8B608B8B608B8B608B8B8B608B8B3C8B8B608B8B608B8B608B8B8B608B8B3C8B8B608B8B608B8B608B8B608B8B8B3C8B8B608B8B608B8B608B8B608B8B8B3C8B8B608B8B608B8B60
310
8B8B608B8B3C8B8B8B608B8B608B8B608B8B608B8B3C8B8B8B608B8B608B8B608B8B608B8B3C8B8B608B8B8B608B8B608B8B608B8B3C8B8B608B8B8B608B8B608B8B608B8B3C8B8B608B8B608B8B8B608B8B608B8B3C8B8B608B608B8B608B8B608B8B608B8B3C8B8B8B608B8B608B8B608B8B608B8B3C8B8B608B8B8B608B
310
8B608B8B608B8B3C8B8B608B8B8B608B8B608B8B608B8B3C8B8B608B8B608B8B8B608B8B608B8B3C8B8B608B8B608B8B8B608B8B608B8B3C8B8B608B8B608B8B608B8B8B608B8B3C8B8B608B8B608B8B608B8B8B608B8B3C8B8B608B8B608B8B608B8B608B8B8B3C8B8B608B8B608B8B608B8B608B8B8B3C8B8B608B8B608B
310
8B608B8B608B8B3C8B8B8B608B8B608B8B608B8B608B8B3C8B8B8B608B8B608B8B608B8B608B8B3C8B8B608B8B8B608B8B608B8B608B8B3C8B8B608B8B8B608B8B608B8B608B8B3C8B8B608B8B608B8B8B608B8B608B8B3C8B8B60606060606060606060606060603C6060606060606060606060606060603C606060606060
310
6060606060606060603C6060606060606060606060606060603C6060606060606060606060606060603C6060606060606060606060606060603C6060606060606060606060606060603C6060606060606060606060606060603C6060606060606060606060606060603C6060606060606060606060606060603C6060606060
310
6060606060606060603C6060606060606060606060606060603C6060606060606060606060606060603C6060606060606060606060606060603C6060606060606060606060606060603C6060606060606060606060606060603C6060608B608B8B608B8B608B8B608B8B3C8B8B8B608B8B608B8B608B8B608B8B3C8B8B608B
310
8B8B608B8B608B8B608B8B3C8B8B608B8B8B608B8B608B8B608B8B3C8B8B608B8B608B8B8B608B8B608B8B3C8B8B608B8B608B8B8B608B8B608B8B3C8B8B608B8B608B8B608B8B8B608B8B3C8B8B608B8B608B8B608B8B8B608B8B3C8B8B608B8B608B8B608B8B608B8B8B3C8B8B608B8B608B8B608B8B608B8B8B3C8B8B60
310
8B8B608B8B608B8B608B8B3C8B8B8B608B8B608B8B608B8B608B8B3C8B8B8B608B8B608B8B608B8B608B8B3C8B8B608B8B8B608B8B608B8B608B8B3C8B8B608B8B8B608B8B608B8B608B8B3C8B8B608B8B608B8B8B608B8B608B8B3C8B8B608B608B8B608B8B608B8B608B8B3C8B8B8B608B8B608B8B608B8B608B8B3C8B8B
310
608B8B8B608B8B608B8B608B8B3C8B8B608B8B8B608B8B608B8B608B8B3C8B8B608B8B608B8B8B608B8B608B8B3C8B8B608B8B608B8B8B608B8B608B8B3C8B8B608B8B608B8B608B8B8B608B8B3C8B8B608B8B608B8B608B8B8B608B8B3C8B8B608B8B608B8B608B8B608B8B8B3C8B8B608B8B608B8B608B8B608B8B8B3C8B
310
8B608B8B608B8B608B8B608B8B3C8B8B8B608B8B608B8B608B8B608B8B3C8B8B8B608B8B608B8B608B8B608B8B3C8B8B608B8B8B608B8B608B8B608B8B3C8B8B608B8B8B608B8B608B8B608B8B3C8B8B608B8B608B8B8B608B8B608B8B3C8B8B603C3C3C3C3C3C3C3C3C3C3C3C3C3C3C3C3C3C3C3C3C3C3C3C3C3C3C3C3C3C
310
3C3C3C3C3C3C3C3C3C3C3C3C3C3C3C3C3C3C3C3C3C3C3C3C3C3C3C3C3C3C3C3C3C3C3C3C3C3C3C3C3C3C3C3C3C3C3C3C3C3C3C3C3C3C3C3C3C3C3C3C3C3C3C3C3C3C3C3C3C3C3C3C3C3C3C3C3C3C3C3C3C3C3C3C3C3C3C3C3C3C3C3C3C3C3C3C3C3C3C3C3C3C3C3C3C3C3C3C3C3C3C3C3C3C3C3C3C3C3C3C3C3C3C3C3C3C3C
310
3C3C3C3C3C3C3C3C3C3C3C3C3C3C3C3C3C3C3C3C3C3C3C3C3C3C3C3C3C3C3C3C3C3C3C3C3C3C3C3C3C3C3C3C3C3C3C3C3C3C3C3C3C3C3C3C3C3C3C3C3C3C3C3C3C3C3C3C3C3C3C3C3C3C3C3C3C3C3C3C3C3C3C3C3C3C3C3C3C3C3C3C3C3C3C3C3C3C3C8B608B8B608B8B608B8B608B8B3C8B8B8B608B8B608B8B608B8B608B
310
8B3C8B8B608B8B8B608B8B608B8B608B8B3C8B8B608B8B8B608B8B608B8B608B8B3C8B8B608B8B608B8B8B608B8B608B8B3C8B8B608B8B608B8B8B608B8B608B8B3C8B8B608B8B608B8B608B8B8B608B8B3C8B8B608B8B608B8B608B8B8B608B8B3C8B8B608B8B608B8B608B8B608B8B8B3C8B8B608B8B608B8B608B8B608B
310
8B8B3C8B8B608B8B608B8B608B8B608B8B3C8B8B8B608B8B608B8B608B8B608B8B3C8B8B8B608B8B608B8B608B8B608B8B3C8B8B608B8B8B608B8B608B8B608B8B3C8B8B608B8B8B608B8B608B8B608B8B3C8B8B608B8B608B8B8B608B8B608B8B3C8B8B608B608B8B608B8B608B8B608B8B3C8B8B8B608B8B608B8B608B8B
310
608B8B3C8B8B608B8B8B608B8B608B8B608B8B3C8B8B608B8B8B608B8B608B8B608B8B3C8B8B608B8B608B8B8B608B8B608B8B3C8B8B608B8B608B8B8B608B8B608B8B3C8B8B608B8B608B8B608B8B8B608B8B3C8B8B608B8B608B8B608B8B8B608B8B3C8B8B608B8B608B8B608B8B608B8B8B3C8B8B608B8B608B8B608B8B
310
608B8B8B3C8B8B608B8B608B8B608B8B608B8B3C8B8B8B608B8B608B8B608B8B608B8B3C8B8B8B608B8B608B8B608B8B608B8B3C8B8B608B8B8B608B8B608B8B608B8B3C8B8B608B8B8B608B8B608B8B608B8B3C8B8B608B8B608B8B8B608B8B608B8B3C8B8B60606060606060606060606060603C60606060606060606060
310
60606060603C6060606060606060606060606060603C6060606060606060606060606060603C6060606060606060606060606060603C6060606060606060606060606060603C6060606060606060606060606060603C6060606060606060606060606060603C6060606060606060606060606060603C606060606060606060
310
6060606060603C60606060606060606060606060603C6060606060606060606060606060603C6060606060606060606060606060603C6060606060606060606060606060603C6060606060606060606060606060603C6060606060606060606060606060603C6060608B608B8B608B8B608B8B608B8B3C8B8B8B608B8B608B
310
8B608B8B608B8B3C8B8B608B8B8B608B8B608B8B608B8B3C8B8B608B8B8B608B8B608B8B608B8B3C8B8B608B8B608B8B8B608B8B608B8B3C8B8B608B8B608B8B8B608B8B608B8B3C8B8B608B8B608B8B608B8B8B608B8B3C8B8B608B8B608B8B608B8B8B608B8B3C8B8B608B8B608B8B608B8B608B8B8B3C8B8B608B8B608B
310
8B608B8B608B8B8B3C8B8B608B8B608B8B608B8B608B8B3C8B8B8B608B8B608B8B608B8B608B8B3C8B8B8B608B8B608B8B608B8B608B8B3C8B8B608B8B8B608B8B608B8B608B8B3C8B8B608B8B8B608B8B608B8B608B8B3C8B8B608B8B608B8B8B608B8B608B8B3C8B8B608B608B8B608B8B608B8B608B8B3C8B8B8B608B8B
310
608B8B608B8B608B8B3C8B8B608B8B8B608B8B608B8B608B8B3C8B8B608B8B8B608B8B608B8B608B8B3C8B8B608B8B608B8B8B608B8B608B8B3C8B8B608B8B608B8B8B608B8B608B8B3C8B8B608B8B608B8B608B8B8B608B8B3C8B8B608B8B608B8B608B8B8B608B8B3C8B8B608B8B608B8B608B8B608B8B8B3C8B8B608B8B
310
608B8B608B8B608B8B8B3C8B8B608B8B608B8B608B8B608B8B3C8B8B8B608B8B608B8B608B8B608B8B3C8B8B8B608B8B608B8B608B8B608B8B3C8B8B608B8B8B608B8B608B8B608B8B3C8B8B608B8B8B608B8B608B8B608B8B3C8B8B608B8B608B8B8B608B8B608B8B3C8B8B60606060606060606060606060603C60606060
310
60606060606060606060603C6060606060606060606060606060603C6060606060606060606060606060603C6060606060606060606060606060603C6060606060606060606060606060603C6060606060606060606060606060603C6060606060606060606060606060603C6060606060606060606060606060603C606060
310
6060606060606060606060603C60606060606060606060606060603C6060606060606060606060606060603C6060606060606060606060606060603C6060606060606060606060606060603C6060606060606060606060606060603C6060606060606060606060606060603C6060608B608B8B608B8B608B8B608B8B3C8B8B
310
8B608B8B608B8B608B8B608B8B3C8B8B608B8B8B608B8B608B8B608B8B3C8B8B608B8B8B608B8B608B8B608B8B3C8B8B608B8B608B8B8B608B8B608B8B3C8B8B608B8B608B8B8B608B8B608B8B3C8B8B608B8B608B8B608B8B8B608B8B3C8B8B608B8B608B8B608B8B8B608B8B3C8B8B608B8B608B8B608B8B608B8B8B3C8B
310
8B608B8B608B8B608B8B608B8B8B3C8B8B608B8B608B8B608B8B608B8B3C8B8B8B608B8B608B8B608B8B608B8B3C8B8B8B608B8B608B8B608B8B608B8B3C8B8B608B8B8B608B8B608B8B608B8B3C8B8B608B8B8B608B8B608B8B608B8B3C8B8B608B8B608B8B8B608B8B608B8B3C8B8B608B608B8B608B8B608B8B608B8B3C
310
8B8B8B608B8B608B8B608B8B608B8B3C8B8B608B8B8B608B8B608B8B608B8B3C8B8B608B8B8B608B8B608B8B608B8B3C8B8B608B8B608B8B8B608B8B608B8B3C8B8B608B8B608B8B8B608B8B608B8B3C8B8B608B8B608B8B608B8B8B608B8B3C8B8B608B8B608B8B608B8B8B608B8B3C8B8B608B8B608B8B608B8B608B8B8B
310
3C8B8B608B8B608B8B608B8B608B8B8B3C8B8B608B8B608B8B608B8B608B8B3C8B8B8B608B8B608B8B608B8B608B8B3C8B8B8B608B8B608B8B608B8B608B8B3C8B8B608B8B8B608B8B608B8B608B8B3C8B8B608B8B8B608B8B608B8B608B8B3C8B8B608B8B608B8B8B608B8B608B8B3C8B8B60606060606060606060606060
310
603C6060606060606060606060606060603C6060606060606060606060606060603C6060606060606060606060606060603C6060606060606060606060606060603C6060606060606060606060606060603C6060606060606060606060606060603C6060606060606060606060606060603C60606060606060606060606060
310
60603C6060606060606060606060606060603C60606060606060606060606060603C6060606060606060606060606060603C6060606060606060606060606060603C6060606060606060606060606060603C6060606060606060606060606060603C6060606060606060606060606060603C6060608B608B8B608B8B608B8B
310
608B8B3C8B8B8B608B8B608B8B608B8B608B8B3C8B8B608B8B8B608B8B608B8B608B8B3C8B8B608B8B8B608B8B608B8B608B8B3C8B8B608B8B608B8B8B608B8B608B8B3C8B8B608B8B608B8B8B608B8B608B8B3C8B8B608B8B608B8B608B8B8B608B8B3C8B8B608B8B608B8B608B8B8B608B8B3C8B8B608B8B608B8B608B8B
310
608B8B8B3C8B8B608B8B608B8B608B8B608B8B8B3C8B8B608B8B608B8B608B8B608B8B3C8B8B8B608B8B608B8B608B8B608B8B3C8B8B8B608B8B608B8B608B8B608B8B3C8B8B608B8B8B608B8B608B8B608B8B3C8B8B608B8B8B608B8B608B8B608B8B3C8B8B608B8B608B8B8B608B8B608B8B3C8B8B608B608B8B608B8B60
310
8B8B608B8B3C8B8B8B608B8B608B8B608B8B608B8B3C8B8B608B8B8B608B8B608B8B608B8B3C8B8B608B8B8B608B8B608B8B608B8B3C8B8B608B8B608B8B8B608B8B608B8B3C8B8B608B8B608B8B8B608B8B608B8B3C8B8B608B8B608B8B608B8B8B608B8B3C8B8B608B8B608B8B608B8B8B608B8B3C8B8B608B8B608B8B60
310
8B8B608B8B8B3C8B8B608B8B608B8B608B8B608B8B8B3C8B8B608B8B608B8B608B8B608B8B3C8B8B8B608B8B608B8B608B8B608B8B3C8B8B8B608B8B608B8B608B8B608B8B3C8B8B608B8B8B608B8B608B8B608B8B3C8B8B608B8B8B608B8B608B8B608B8B3C8B8B608B8B608B8B8B608B8B608B8B3C8B8B60606060606060
310
606060606060603C6060606060606060606060606060603C6060606060606060606060606060603C6060606060606060606060606060603C6060606060606060606060606060603C6060606060606060606060606060603C6060606060606060606060606060603C6060606060606060606060606060603C60606060606060
310
60606060606060603C6060606060606060606060606060603C60606060606060606060606060603C6060606060606060606060606060603C6060606060606060606060606060603C6060606060606060606060606060603C6060606060606060606060606060603C6060606060606060606060606060603C6060608B608B8B
310
608B8B608B8B608B8B3C8B8B8B608B8B608B8B608B8B608B8B3C8B8B608B8B8B608B8B608B8B608B8B3C8B8B608B8B8B608B8B608B8B608B8B3C8B8B608B8B608B8B8B608B8B608B8B3C8B8B608B8B608B8B8B608B8B608B8B3C8B8B608B8B608B8B608B8B8B608B8B3C8B8B608B8B608B8B608B8B8B608B8B3C8B8B608B8B
310
608B8B608B8B608B8B8B3C8B8B608B8B608B8B608B8B608B8B8B3C8B8B608B8B608B8B608B8B608B8B3C8B8B8B608B8B608B8B608B8B608B8B3C8B8B8B608B8B608B8B608B8B608B8B3C8B8B608B8B8B608B8B608B8B608B8B3C8B8B608B8B8B608B8B608B8B608B8B3C8B8B608B8B608B8B8B608B8B608B8B3C8B8B608B60
310
8B8B608B8B608B8B608B8B3C8B8B8B608B8B608B8B608B8B608B8B3C8B8B608B8B8B608B8B608B8B608B8B3C8B8B608B8B8B608B8B608B8B608B8B3C8B8B608B8B608B8B8B608B8B608B8B3C8B8B608B8B608B8B8B608B8B608B8B3C8B8B608B8B608B8B608B8B8B608B8B3C8B8B608B8B608B8B608B8B8B608B8B3C8B8B60
310
8B8B608B8B608B8B608B8B8B3C8B8B608B8B608B8B608B8B608B8B8B3C8B8B608B8B608B8B608B8B608B8B3C8B8B8B608B8B608B8B608B8B608B8B3C8B8B8B608B8B608B8B608B8B608B8B3C8B8B608B8B8B608B8B608B8B608B8B3C8B8B608B8B8B608B8B608B8B608B8B3C8B8B608B8B608B8B8B608B8B608B8B3C8B8B60
310
8B608B8B608B8B608B8B608B8B3C8B8B8B608B8B608B8B608B8B608B8B3C8B8B608B8B8B608B8B608B8B608B8B3C8B8B608B8B8B608B8B608B8B608B8B3C8B8B608B8B608B8B8B608B8B608B8B3C8B8B608B8B608B8B8B608B8B608B8B3C8B8B608B8B608B8B608B8B8B608B8B3C8B8B608B8B608B8B608B8B8B608B8B3C8B
310
8B608B8B608B8B608B8B608B8B8B3C8B8B608B8B608B8B608B8B608B8B8B3C8B8B608B8B608B8B608B8B608B8B3C8B8B8B608B8B608B8B608B8B608B8B3C8B8B8B608B8B608B8B608B8B608B8B3C8B8B608B8B8B608B8B608B8B608B8B3C8B8B608B8B8B608B8B608B8B608B8B3C8B8B608B8B608B8B8B608B8B608B8B3C8B
310
8B603C3C3C3C3C3C3C3C3C3C3C3C3C3C3C3C3C3C3C3C3C3C3C3C3C3C3C3C3C3C3C3C3C3C3C3C3C3C3C3C3C3C3C3C3C3C3C3C3C3C3C3C3C3C3C3C3C3C3C3C3C3C3C3C3C3C3C3C3C3C3C3C3C3C3C3C3C3C3C3C3C3C3C3C3C3C3C3C3C3C3C3C3C3C3C3C3C3C3C3C3C3C3C3C3C3C3C3C3C3C3C3C3C3C3C3C3C3C3C3C3C3C3C3C3C
310
3C3C3C3C3C3C3C3C3C3C3C3C3C3C3C3C3C3C3C3C3C3C3C3C3C3C3C3C3C3C3C3C3C3C3C3C3C3C3C3C3C3C3C3C3C3C3C3C3C3C3C3C3C3C3C3C3C3C3C3C3C3C3C3C3C3C3C3C3C3C3C3C3C3C3C3C3C3C3C3C3C3C3C3C3C3C3C3C3C3C3C3C3C3C3C3C3C3C3C3C3C3C3C3C3C3C3C3C3C3C3C3C3C3C3C3C3C3C3C3C3C3C3C3C3C3C3C
310
3C3C3C3C8B608B8B608B8B608B8B608B8B3C8B8B8B608B8B608B8B608B8B608B8B3C8B8B608B8B8B608B8B608B8B608B8B3C8B8B608B8B8B608B8B608B8B608B8B3C8B8B608B8B608B8B8B608B8B608B8B3C8B8B608B8B608B8B8B608B8B608B8B3C8B8B608B8B608B8B608B8B8B608B8B3C8B8B608B8B608B8B608B8B8B60
310
8B8B3C8B8B608B8B608B8B608B8B608B8B8B3C8B8B608B8B608B8B608B8B608B8B8B3C8B8B608B8B608B8B608B8B608B8B3C8B8B8B608B8B608B8B608B8B608B8B3C8B8B8B608B8B608B8B608B8B608B8B3C8B8B608B8B8B608B8B608B8B608B8B3C8B8B608B8B8B608B8B608B8B608B8B3C8B8B608B8B608B8B8B608B8B60
310
8B8B3C8B8B608B608B8B608B8B608B8B608B8B3C8B8B8B608B8B608B8B608B8B608B8B3C8B8B608B8B8B608B8B608B8B608B8B3C8B8B608B8B8B608B8B608B8B608B8B3C8B8B608B8B608B8B8B608B8B608B8B3C8B8B608B8B608B8B8B608B8B608B8B3C8B8B608B8B608B8B608B8B8B608B8B3C8B8B608B8B608B8B608B8B
310
8B608B8B3C8B8B608B8B608B8B608B8B608B8B8B3C8B8B608B8B608B8B608B8B608B8B8B3C8B8B608B8B608B8B608B8B608B8B3C8B8B8B608B8B608B8B608B8B608B8B3C8B8B8B608B8B608B8B608B8B608B8B3C8B8B608B8B8B608B8B608B8B608B8B3C8B8B608B8B8B608B8B608B8B608B8B3C8B8B608B8B608B8B8B608B
310
8B608B8B3C8B8B60606060606060606060606060603C6060606060606060606060606060603C6060606060606060606060606060603C6060606060606060606060606060603C6060606060606060606060606060603C6060606060606060606060606060603C6060606060606060606060606060603C606060606060606060
310
6060606060603C6060606060606060606060606060603C6060606060606060606060606060603C60606060606060606060606060603C6060606060606060606060606060603C6060606060606060606060606060603C6060606060606060606060606060603C6060606060606060606060606060603C606060606060606060
310
6060606060603C6060608B608B8B608B8B608B8B608B8B3C8B8B8B608B8B608B8B608B8B608B8B3C8B8B608B8B8B608B8B608B8B608B8B3C8B8B608B8B8B608B8B608B8B608B8B3C8B8B608B8B608B8B8B608B8B608B8B3C8B8B608B8B608B8B8B608B8B608B8B3C8B8B608B8B608B8B608B8B8B608B8B3C8B8B608B8B608B
310
8B608B8B8B608B8B3C8B8B608B8B608B8B608B8B608B8B8B3C8B8B608B8B608B8B608B8B608B8B8B3C8B8B608B8B608B8B608B8B608B8B3C8B8B8B608B8B608B8B608B8B608B8B3C8B8B8B608B8B608B8B608B8B608B8B3C8B8B608B8B8B608B8B608B8B608B8B3C8B8B608B8B8B608B8B608B8B608B8B3C8B8B608B8B608B
310
8B8B608B8B608B8B3C8B8B608B608B8B608B8B608B8B608B8B3C8B8B8B608B8B608B8B608B8B608B8B3C8B8B608B8B8B608B8B608B8B608B8B3C8B8B608B8B8B608B8B608B8B608B8B3C8B8B608B8B608B8B8B608B8B608B8B3C8B8B608B8B608B8B8B608B8B608B8B3C8B8B608B8B608B8B608B8B8B608B8B3C8B8B608B8B
310
608B8B608B8B8B608B8B3C8B8B608B8B608B8B608B8B608B8B8B3C8B8B608B8B608B8B608B8B608B8B8B3C8B8B608B8B608B8B608B8B608B8B3C8B8B8B608B8B608B8B608B8B608B8B3C8B8B8B608B8B608B8B608B8B608B8B3C8B8B608B8B8B608B8B608B8B608B8B3C8B8B608B8B8B608B8B608B8B608B8B3C8B8B608B8B
310
608B8B8B608B8B608B8B3C8B8B60606060606060606060606060603C6060606060606060606060606060603C6060606060606060606060606060603C6060606060606060606060606060603C6060606060606060606060606060603C6060606060606060606060606060603C6060606060606060606060606060603C606060
310
6060606060606060606060603C6060606060606060606060606060603C6060606060606060606060606060603C60606060606060606060606060603C6060606060606060606060606060603C6060606060606060606060606060603C6060606060606060606060606060603C6060606060606060606060606060603C606060
310
6060606060606060606060603C6060608B608B8B608B8B608B8B608B8B3C8B8B8B608B8B608B8B608B8B608B8B3C8B8B608B8B8B608B8B608B8B608B8B3C8B8B608B8B8B608B8B608B8B608B8B3C8B8B608B8B608B8B8B608B8B608B8B3C8B8B608B8B608B8B8B608B8B608B8B3C8B8B608B8B608B8B608B8B8B608B8B3C8B
310
8B608B8B608B8B608B8B8B608B8B3C8B8B608B8B608B8B608B8B608B8B8B3C8B8B608B8B608B8B608B8B608B8B8B3C8B8B608B8B608B8B608B8B608B8B3C8B8B8B608B8B608B8B608B8B608B8B3C8B8B8B608B8B608B8B608B8B608B8B3C8B8B608B8B8B608B8B608B8B608B8B3C8B8B608B8B8B608B8B608B8B608B8B3C8B
310
8B608B8B608B8B8B608B8B608B8B3C8B8B608B608B8B608B8B608B8B608B8B3C8B8B8B608B8B608B8B608B8B608B8B3C8B8B608B8B8B608B8B608B8B608B8B3C8B8B608B8B8B608B8B608B8B608B8B3C8B8B608B8B608B8B8B608B8B608B8B3C8B8B608B8B608B8B8B608B8B608B8B3C8B8B608B8B608B8B608B8B8B608B8B
310
3C8B8B608B8B608B8B608B8B8B608B8B3C8B8B608B8B608B8B608B8B608B8B8B3C8B8B608B8B608B8B608B8B608B8B8B3C8B8B608B8B608B8B608B8B608B8B3C8B8B8B608B8B608B8B608B8B608B8B3C8B8B8B608B8B608B8B608B8B608B8B3C8B8B608B8B8B608B8B608B8B608B8B3C8B8B608B8B8B608B8B608B8B608B8B
310
3C8B8B608B8B608B8B8B608B8B608B8B3C8B8B60606060606060606060606060603C6060606060606060606060606060603C6060606060606060606060606060603C6060606060606060606060606060603C6060606060606060606060606060603C6060606060606060606060606060603C60606060606060606060606060
310
60603C6060606060606060606060606060603C6060606060606060606060606060603C6060606060606060606060606060603C60606060606060606060606060603C6060606060606060606060606060603C6060606060606060606060606060603C6060606060606060606060606060603C60606060606060606060606060
310
60603C6060606060606060606060606060603C6060608B608B8B608B8B608B8B608B8B3C8B8B8B608B8B608B8B608B8B608B8B3C8B8B608B8B8B608B8B608B8B608B8B3C8B8B608B8B8B608B8B608B8B608B8B3C8B8B608B8B608B8B8B608B8B608B8B3C8B8B608B8B608B8B8B608B8B608B8B3C8B8B608B8B608B8B608B8B
310
8B608B8B3C8B8B608B8B608B8B608B8B8B608B8B3C8B8B608B8B608B8B608B8B608B8B8B3C8B8B608B8B608B8B608B8B608B8B8B3C8B8B608B8B608B8B608B8B608B8B3C8B8B8B608B8B608B8B608B8B608B8B3C8B8B8B608B8B608B8B608B8B608B8B3C8B8B608B8B8B608B8B608B8B608B8B3C8B8B608B8B8B608B8B608B
310
8B608B8B3C8B8B608B8B608B8B8B608B8B608B8B3C8B8B608B608B8B608B8B608B8B608B8B3C8B8B8B608B8B608B8B608B8B608B8B3C8B8B608B8B8B608B8B608B8B608B8B3C8B8B608B8B8B608B8B608B8B608B8B3C8B8B608B8B608B8B8B608B8B608B8B3C8B8B608B8B608B8B8B608B8B608B8B3C8B8B608B8B608B8B60
310
8B8B8B608B8B3C8B8B608B8B608B8B608B8B8B608B8B3C8B8B608B8B608B8B608B8B608B8B8B3C8B8B608B8B608B8B608B8B608B8B8B3C8B8B608B8B608B8B608B8B608B8B3C8B8B8B608B8B608B8B608B8B608B8B3C8B8B8B608B8B608B8B608B8B608B8B3C8B8B608B8B8B608B8B608B8B608B8B3C8B8B608B8B8B608B8B
310
608B8B608B8B3C8B8B608B8B608B8B8B608B8B608B8B3C8B8B60606060606060606060606060603C6060606060606060606060606060603C6060606060606060606060606060603C6060606060606060606060606060603C6060606060606060606060606060603C6060606060606060606060606060603C60606060606060
310
60606060606060603C6060606060606060606060606060603C6060606060606060606060606060603C6060606060606060606060606060603C60606060606060606060606060603C6060606060606060606060606060603C6060606060606060606060606060603C6060606060606060606060606060603C60606060606060
310
60606060606060603C6060606060606060606060606060603C6060608B608B8B608B8B608B8B608B8B3C8B8B8B608B8B608B8B608B8B608B8B3C8B8B608B8B8B608B8B608B8B608B8B3C8B8B608B8B8B608B8B608B8B608B8B3C8B8B608B8B608B8B8B608B8B608B8B3C8B8B608B8B608B8B8B608B8B608B8B3C8B8B608B8B
310
608B8B608B8B8B608B8B3C8B8B608B8B608B8B608B8B8B608B8B3C8B8B608B8B608B8B608B8B608B8B8B3C8B8B608B8B608B8B608B8B608B8B8B3C8B8B608B8B608B8B608B8B608B8B3C8B8B8B608B8B608B8B608B8B608B8B3C8B8B8B608B8B608B8B608B8B608B8B3C8B8B608B8B8B608B8B608B8B608B8B3C8B8B608B8B
310
8B608B8B608B8B608B8B3C8B8B608B8B608B8B8B608B8B608B8B3C8B8B608B608B8B608B8B608B8B608B8B3C8B8B8B608B8B608B8B608B8B608B8B3C8B8B608B8B8B608B8B608B8B608B8B3C8B8B608B8B8B608B8B608B8B608B8B3C8B8B608B8B608B8B8B608B8B608B8B3C8B8B608B8B608B8B8B608B8B608B8B3C8B8B60
310
8B8B608B8B608B8B8B608B8B3C8B8B608B8B608B8B608B8B8B608B8B3C8B8B608B8B608B8B608B8B608B8B8B3C8B8B608B8B608B8B608B8B608B8B8B3C8B8B608B8B608B8B608B8B608B8B3C8B8B8B608B8B608B8B608B8B608B8B3C8B8B8B608B8B608B8B608B8B608B8B3C8B8B608B8B8B608B8B608B8B608B8B3C8B8B60
310
8B8B8B608B8B608B8B608B8B3C8B8B608B8B608B8B8B608B8B608B8B3C8B8B603C3C3C3C3C3C3C3C3C3C3C3C3C3C3C3C3C3C3C3C3C3C3C3C3C3C3C3C3C3C3C3C3C3C3C3C3C3C3C3C3C3C3C3C3C3C3C3C3C3C3C3C3C3C3C3C3C3C3C3C3C3C3C3C3C3C3C3C3C3C3C3C3C3C3C3C3C3C3C3C3C3C3C3C3C3C3C3C3C3C3C3C3C3C3C
310
3C3C3C3C3C3C3C3C3C3C3C3C3C3C3C3C3C3C3C3C3C3C3C3C3C3C3C3C3C3C3C3C3C3C3C3C3C3C3C3C3C3C3C3C3C3C3C3C3C3C3C3C3C3C3C3C3C3C3C3C3C3C3C3C3C3C3C3C3C3C3C3C3C3C3C3C3C3C3C3C3C3C3C3C3C3C3C3C3C3C3C3C3C3C3C3C3C3C3C3C3C3C3C3C3C3C3C3C3C3C3C3C3C3C3C3C3C3C3C3C3C3C3C3C3C3C3C
310
3C3C3C3C3C3C3C3C3C3C3C3C3C3C3C3C3C3C3C3C3C3C3C3C3C3C3C3C3C3C3C3C3C3C8B608B8B608B8B608B8B608B8B3C8B8B8B608B8B608B8B608B8B608B8B3C8B8B608B8B8B608B8B608B8B608B8B3C8B8B608B8B8B608B8B608B8B608B8B3C8B8B608B8B608B8B8B608B8B608B8B3C8B8B608B8B608B8B8B608B8B608B8B
310
3C8B8B608B8B608B8B608B8B8B608B8B3C8B8B608B8B608B8B608B8B8B608B8B3C8B8B608B8B608B8B608B8B608B8B8B3C8B8B608B8B608B8B608B8B608B8B8B3C8B8B608B8B608B8B608B8B608B8B3C8B8B8B608B8B608B8B608B8B608B8B3C8B8B8B608B8B608B8B608B8B608B8B3C8B8B608B8B8B608B8B608B8B608B8B
310
3C8B8B608B8B8B608B8B608B8B608B8B3C8B8B608B8B608B8B8B608B8B608B8B3C8B8B608B608B8B608B8B608B8B608B8B3C8B8B8B608B8B608B8B608B8B608B8B3C8B8B608B8B8B608B8B608B8B608B8B3C8B8B608B8B8B608B8B608B8B608B8B3C8B8B608B8B608B8B8B608B8B608B8B3C8B8B608B8B608B8B8B608B8B60
310
8B8B3C8B8B608B8B608B8B608B8B8B608B8B3C8B8B608B8B608B8B608B8B8B608B8B3C8B8B608B8B608B8B608B8B608B8B8B3C8B8B608B8B608B8B608B8B608B8B8B3C8B8B608B8B608B8B608B8B608B8B3C8B8B8B608B8B608B8B608B8B608B8B3C8B8B8B608B8B608B8B608B8B608B8B3C8B8B608B8B8B608B8B608B8B60
310
8B8B3C8B8B608B8B8B608B8B608B8B608B8B3C8B8B608B8B608B8B8B608B8B608B8B3C8B8B608B608B8B608B8B608B8B608B8B3C8B8B8B608B8B608B8B608B8B608B8B3C8B8B608B8B8B608B8B608B8B608B8B3C8B8B608B8B8B608B8B608B8B608B8B3C8B8B608B8B608B8B8B608B8B608B8B3C8B8B608B8B608B8B8B608B
310
8B608B8B3C8B8B608B8B608B8B608B8B8B608B8B3C8B8B608B8B608B8B608B8B8B608B8B3C8B8B608B8B608B8B608B8B608B8B8B3C8B8B608B8B608B8B608B8B608B8B8B3C8B8B608B8B608B8B608B8B608B8B3C8B8B8B608B8B608B8B608B8B608B8B3C8B8B8B608B8B608B8B608B8B608B8B3C8B8B608B8B8B608B8B608B
310
8B608B8B3C8B8B608B8B8B608B8B608B8B608B8B3C8B8B608B8B608B8B8B608B8B608B8B3C8B8B60606060606060606060606060603C6060606060606060606060606060603C6060606060606060606060606060603C6060606060606060606060606060603C6060606060606060606060606060603C606060606060606060
310
6060606060603C6060606060606060606060606060603C6060606060606060606060606060603C6060606060606060606060606060603C6060606060606060606060606060603C60606060606060606060606060603C6060606060606060606060606060603C6060606060606060606060606060603C606060606060606060
310
6060606060603C6060606060606060606060606060603C6060606060606060606060606060603C6060608B608B8B608B8B608B8B608B8B3C8B8B8B608B8B608B8B608B8B608B8B3C8B8B608B8B8B608B8B608B8B608B8B3C8B8B608B8B8B608B8B608B8B608B8B3C8B8B608B8B608B8B8B608B8B608B8B3C8B8B608B8B608B
310
8B8B608B8B608B8B3C8B8B608B8B608B8B608B8B8B608B8B3C8B8B608B8B608B8B608B8B8B608B8B3C8B8B608B8B608B8B608B8B608B8B8B3C8B8B608B8B608B8B608B8B608B8B8B3C8B8B608B8B608B8B608B8B608B8B3C8B8B8B608B8B608B8B608B8B608B8B3C8B8B8B608B8B608B8B608B8B608B8B3C8B8B608B8B8B60
310
8B8B608B8B608B8B3C8B8B608B8B8B608B8B608B8B608B8B3C8B8B608B8B608B8B8B608B8B608B8B3C8B8B608B608B8B608B8B608B8B608B8B3C8B8B8B608B8B608B8B608B8B608B8B3C8B8B608B8B8B608B8B608B8B608B8B3C8B8B608B8B8B608B8B608B8B608B8B3C8B8B608B8B608B8B8B608B8B608B8B3C8B8B608B8B
310
608B8B8B608B8B608B8B3C8B8B608B8B608B8B608B8B8B608B8B3C8B8B608B8B608B8B608B8B8B608B8B3C8B8B608B8B608B8B608B8B608B8B8B3C8B8B608B8B608B8B608B8B608B8B8B3C8B8B608B8B608B8B608B8B608B8B3C8B8B8B608B8B608B8B608B8B608B8B3C8B8B8B608B8B608B8B608B8B608B8B3C8B8B608B8B
310
8B608B8B608B8B608B8B3C8B8B608B8B8B608B8B608B8B608B8B3C8B8B608B8B608B8B8B608B8B608B8B3C8B8B60606060606060606060606060603C6060606060606060606060606060603C6060606060606060606060606060603C6060606060606060606060606060603C6060606060606060606060606060603C606060
310
6060606060606060606060603C6060606060606060606060606060603C6060606060606060606060606060603C6060606060606060606060606060603C6060606060606060606060606060603C60606060606060606060606060603C6060606060606060606060606060603C6060606060606060606060606060603C606060
310
6060606060606060606060603C6060606060606060606060606060603C6060606060606060606060606060603C6060608B608B8B608B8B608B8B608B8B3C8B8B8B608B8B608B8B608B8B608B8B3C8B8B608B8B8B608B8B608B8B608B8B3C8B8B608B8B8B608B8B608B8B608B8B3C8B8B608B8B608B8B8B608B8B608B8B3C8B
310
8B608B8B608B8B8B608B8B608B8B3C8B8B608B8B608B8B608B8B8B608B8B3C8B8B608B8B608B8B608B8B8B608B8B3C8B8B608B8B608B8B608B8B608B8B8B3C8B8B608B8B608B8B608B8B608B8B8B3C8B8B608B8B608B8B608B8B608B8B3C8B8B8B608B8B608B8B608B8B608B8B3C8B8B8B608B8B608B8B608B8B608B8B3C8B
310
8B608B8B8B608B8B608B8B608B8B3C8B8B608B8B8B608B8B608B8B608B8B3C8B8B608B8B608B8B8B608B8B608B8B3C8B8B608B608B8B608B8B608B8B608B8B3C8B8B8B608B8B608B8B608B8B608B8B3C8B8B608B8B8B608B8B608B8B608B8B3C8B8B608B8B8B608B8B608B8B608B8B3C8B8B608B8B608B8B8B608B8B608B8B
310
3C8B8B608B8B608B8B8B608B8B608B8B3C8B8B608B8B608B8B608B8B8B608B8B3C8B8B608B8B608B8B608B8B8B608B8B3C8B8B608B8B608B8B608B8B608B8B8B3C8B8B608B8B608B8B608B8B608B8B8B3C8B8B608B8B608B8B608B8B608B8B3C8B8B8B608B8B608B8B608B8B608B8B3C8B8B8B608B8B608B8B608B8B608B8B
310
3C8B8B608B8B8B608B8B608B8B608B8B3C8B8B608B8B8B608B8B608B8B608B8B3C8B8B608B8B608B8B8B608B8B608B8B3C8B8B60606060606060606060606060603C6060606060606060606060606060603C6060606060606060606060606060603C6060606060606060606060606060603C60606060606060606060606060
310
60603C6060606060606060606060606060603C6060606060606060606060606060603C6060606060606060606060606060603C6060606060606060606060606060603C6060606060606060606060606060603C60606060606060606060606060603C6060606060606060606060606060603C60606060606060606060606060
310
60603C6060606060606060606060606060603C6060606060606060606060606060603C6060606060606060606060606060603C6060608B608B8B608B8B608B8B608B8B3C8B8B8B608B8B608B8B608B8B608B8B3C8B8B608B8B8B608B8B608B8B608B8B3C8B8B608B8B8B608B8B608B8B608B8B3C8B8B608B8B608B8B8B608B
310
8B608B8B3C8B8B608B8B608B8B8B608B8B608B8B3C8B8B608B8B608B8B608B8B8B608B8B3C8B8B608B8B608B8B608B8B8B608B8B3C8B8B608B8B608B8B608B8B608B8B8B3C8B8B608B8B608B8B608B8B608B8B8B3C8B8B608B8B608B8B608B8B608B8B3C8B8B8B608B8B608B8B608B8B608B8B3C8B8B8B608B8B608B8B608B
310
8B608B8B3C8B8B608B8B8B608B8B608B8B608B8B3C8B8B608B8B8B608B8B608B8B608B8B3C8B8B608B8B608B8B8B608B8B608B8B3C8B8B608B608B8B608B8B608B8B608B8B3C8B8B8B608B8B608B8B608B8B608B8B3C8B8B608B8B8B608B8B608B8B608B8B3C8B8B608B8B8B608B8B608B8B608B8B3C8B8B608B8B608B8B8B
310
608B8B608B8B3C8B8B608B8B608B8B8B608B8B608B8B3C8B8B608B8B608B8B608B8B8B608B8B3C8B8B608B8B608B8B608B8B8B608B8B3C8B8B608B8B608B8B608B8B608B8B8B3C8B8B608B8B608B8B608B8B608B8B8B3C8B8B608B8B608B8B608B8B608B8B3C8B8B8B608B8B608B8B608B8B608B8B3C8B8B8B608B8B608B8B
310
608B8B608B8B3C8B8B608B8B8B608B8B608B8B608B8B3C8B8B608B8B8B608B8B608B8B608B8B3C8B8B608B8B608B8B8B608B8B608B8B3C8B8B60606060606060606060606060603C6060606060606060606060606060603C6060606060606060606060606060603C6060606060606060606060606060603C60606060606060
310
60606060606060603C6060606060606060606060606060603C6060606060606060606060606060603C6060606060606060606060606060603C6060606060606060606060606060603C6060606060606060606060606060603C60606060606060606060606060603C6060606060606060606060606060603C60606060606060
310
60606060606060603C6060606060606060606060606060603C6060606060606060606060606060603C6060606060606060606060606060603C6060608B608B8B608B8B608B8B608B8B3C8B8B8B608B8B608B8B608B8B608B8B3C8B8B608B8B8B608B8B608B8B608B8B3C8B8B608B8B8B608B8B608B8B608B8B3C8B8B608B8B
310
608B8B8B608B8B608B8B3C8B8B608B8B608B8B8B608B8B608B8B3C8B8B608B8B608B8B608B8B8B608B8B3C8B8B608B8B608B8B608B8B8B608B8B3C8B8B608B8B608B8B608B8B608B8B8B3C8B8B608B8B608B8B608B8B608B8B8B3C8B8B608B8B608B8B608B8B608B8B3C8B8B8B608B8B608B8B608B8B608B8B3C8B8B8B608B
310
8B608B8B608B8B608B8B3C8B8B608B8B8B608B8B608B8B608B8B3C8B8B608B8B8B608B8B608B8B608B8B3C8B8B608B8B608B8B8B608B8B608B8B3C8B8B608B608B8B608B8B608B8B608B8B3C8B8B8B608B8B608B8B608B8B608B8B3C8B8B608B8B8B608B8B608B8B608B8B3C8B8B608B8B8B608B8B608B8B608B8B3C8B8B60
310
8B8B608B8B8B608B8B608B8B3C8B8B608B8B608B8B8B608B8B608B8B3C8B8B608B8B608B8B608B8B8B608B8B3C8B8B608B8B608B8B608B8B8B608B8B3C8B8B608B8B608B8B608B8B608B8B8B3C8B8B608B8B608B8B608B8B608B8B8B3C8B8B608B8B608B8B608B8B608B8B3C8B8B8B608B8B608B8B608B8B608B8B3C8B8B8B
310
608B8B608B8B608B8B608B8B3C8B8B608B8B8B608B8B608B8B608B8B3C8B8B608B8B8B608B8B608B8B608B8B3C8B8B608B8B608B8B8B608B8B608B8B3C8B8B603C3C3C3C3C3C3C3C3C3C3C3C3C3C3C3C3C3C3C3C3C3C3C3C3C3C3C3C3C3C3C3C3C3C3C3C3C3C3C3C3C3C3C3C3C3C3C3C3C3C3C3C3C3C3C3C3C3C3C3C3C3C3C
310
3C3C3C3C3C3C3C3C3C3C3C3C3C3C3C3C3C3C3C3C3C3C3C3C3C3C3C3C3C3C3C3C3C3C3C3C3C3C3C3C3C3C3C3C3C3C3C3C3C3C3C3C3C3C3C3C3C3C3C3C3C3C3C3C3C3C3C3C3C3C3C3C3C3C3C3C3C3C3C3C3C3C3C3C3C3C3C3C3C3C3C3C3C3C3C3C3C3C3C3C3C3C3C3C3C3C3C3C3C3C3C3C3C3C3C3C3C3C3C3C3C3C3C3C3C3C3C
310
3C3C3C3C3C3C3C3C3C3C3C3C3C3C3C3C3C3C3C3C3C3C3C3C3C3C3C3C3C3C3C3C3C3C3C3C3C3C3C3C3C3C3C3C3C3C3C3C3C3C3C3C3C3C3C3C3C3C3C3C3C3C3C3C3C3C
  0
XRECORD
  5
733
102
{ACAD_REACTORS
330
1F9
102
}
330
1F9
100
AcDbXrecord
280
     1
102
MATERIAL
148
0.0
149
0.0
149
0.0
 93
        0
 94
      127
282
     0
 72
     1
 77
     1
171
     1
175
     1
179
     1
273
     0
  0
XRECORD
  5
1FA
102
{ACAD_REACTORS
330
1F9
102
}
330
1F9
100
AcDbXrecord
280
     1
 70
     1
 90
429727718
  1
D62C5603-E3A1-4AEA-B7FB-FE5D8D0755AF
310
504B03040A0000080000CC70623B3DEE336E79000000790000001B0000006175746F6465736B2D64657369676E2D7061636B6167652E786D6C3C3F786D6C2076657273696F6E3D22312E302220656E636F64696E673D227574662D3822203F3E3C666F726D6174733E3C666F726D61743E687474703A2F2F736368656D612E
310
6175746F6465736B2E636F6D2F64657369676E2D7061636B6167652F323030393C2F666F726D61743E3C2F666F726D6174733E504B0304140006080800CC70623BD486FD9CA0000000F4000000130000005B436F6E74656E745F54797065735D2E786D6C7D8EC10E82300C865F65E91D8A1E8C310C0EEA1BF002731658846E
310
D98AC1B77784ABF1D8FE5FBFBF75BBCE937A534CCEB38643598122B6FEE978D0B0485F9C41B54DDD7D022595594E1A469170414C76A4D9A4D207E29CF43ECE46F218070CC6BECC4078ACAA135ACF422C856C0E68EA1BF5669944DDD7BCDE7B1F8E415D77AECB980613C2E4AC91FC167A2B244592486606FC29C8FD7F045B9A
310
EF7053A7E60B504B0304140006080800CC70623B853B8169EB0000007C01000008000000636F72652E786D6C8D90416EC3201045AF62CDB6C206821CC7C244919D9CA01740401C94182C03558F5F9C3852BBEB6A467FFE9B197D7EFC9E1EC5975982F5AE035262288C535E5B377690E21535501C055FBC8FBF6C503839990E
310
5619041F179FE64D52DE45E362569DD7661365082642A11EB9E920A89B99642953CC8E702F67A9EE7234257977194EC9EAE275C4EABCCF5EAD5940D4AC6F0E35A568B8F43562CD7046CD199FD07E60174276A7BE677B5EADB0E0D14EEFFB6A31321A0D82627C4084204C3F096B71DD52F6819B16635EADF63F509AF53FA164
310
5DDCD1EDDD17164090FCC8732078B56691CB33A85CD7DCC40F504B0304140006080800CC70623B55019EA25F0000007C00000007000000636E782E786D6C4DCB3B0E80201045D1AD90E915ED2CF8AC45050C11660C8261F98AB1B07AC9C97D42D718D865D3E909258CFD00CCE24AC6E326A164D74DC0B4128928FF32603847
310
2BA13128B1252AC747C6BAB984FC68F0B87FE8960A5C09FE86CFB69FBA01504B0304140006080800CC70623BDBABAAF470010000D40300000C0000006662782F636F72652E786D6CC553D16E823014FD95A6AF4B694182CC941A83FA05FB810A9511A125A5257EFE2E82712ECEB8A7F100CD39F7F69E734AF9FADC366850B6
310
AF8DCE7018308C942E4C59EB2AC3DE1D498AD15A706B8CFB56869196ADCAF00863C12B6B7C374385D14E6907A836A59A41D9F7CA615434B0C8705F7CAA5606D23BA8E84F41278B93AC54100640439DE0BDB320004D43C63716C7C399D30917DCFBBA9CD9BA8469F5B156168B24CED3F7248AC8769F27244EB73B92EED8862C
310
B7F13E0C179B3C8F979C8ECD82BBBABDAA2BAC924E9558448CBD9330242CFA08E3154B5651FCC6D215639C8EE5774DBE2B5F6CF2B5768B68963BB5F5588420E442FC700B1139D4CB01F450C1E918227C2E09DF070D8140C84E1E9AAB8F1340832A9CB13130A5F1376A908D57309505ECF2A0DF179C4E9D30F5B239B87E3823
310
7A79C6F31DE1A8A5AEC08474B03C7837EAE4938639B44E5932B833D2C6B6B279CDC613877FA26EE21F4A2A4C63EC7F29A2F301D1F9F7A0E37D145F504B0304140006080800CC70623B9C113CC27E0000009D0000000B0000006662782F636E782E786D6C4DCCDF0A83201C86E15B91DFB94BFB330DD428C8FB886521330DA7
310
6397BF1A1DECE883878F57749FCDA1B7892F1BBC047A23808C7F84D9FA55424E0BE6803A256208E9EF06C84F9B91703228B1C690F78B66B34CD9A5439DF5CF0BFBF65E35BCA1B8D6A5C6F540381E886698B5741C695F9503EBA150A2F8958E3DC3EA0B504B0304140006080800CC70623B7DF2F77C2A010000120200003100
310
00006662782F41393633353835312D344632462D344230382D423046372D3739314545314133324237412F636F72652E786D6C8D51DB8EC22014FC15C2939B0D2DB4B45643319AE817EC0F6041255A68B86CFCFC856D4D76DF7CE190393373060EDB3DC707F856CE6B6B7A480A0C81328395DA5C7B18C3057510EC3873D686
310
3F34088C18550F330C39BB3A1BA7051AAC09CA84841A2BD5020AEF55806078A44B0FFD7053A328440C89E1EFC52486BBB8AA8214A99D789CF9E05200300FC927E4FB4D5B375D43103D5527440FB843077C5AA3F5861C8F645F5787F59E95B390B318B55CE45AA638FAA2957BD7248B390B7A7CC51F9C124149C82B8C378810
310
84AB2F42B7B8DD56F413775B8C5999E9FF4471926F8AA236A1AE96B8B3CC434E5839373893369E1FAF30EA395917409EB7F26AF8801C171837A4A6AC9C89E9F9C9B1A58BA30FD6A5EF5DDDCF894B9AD9B6A59C957943A9FCAE2FD5BC4DFE03504B0304140006080800CC70623BAD7543B64E01000033030000300000006662
310
782F41393633353835312D344632462D344230382D423046372D3739314545314133324237412F636E782E786D6CD593CD6EC32010845F0571AD6CE3D48AD20813A9873E410FBD12D82434182C7EAAE6EDBB2424CD25871E7B41D6EC30B3FA84F9E67BB2E40B4234DE8DB46F1925E094D7C6ED479AD3AE5951B2113C789FEE
310
6C943839C1488B4C05DF079FE72A69D8C96C13AAD6B8631503449F83828872B949AC57D26200B826A308D316B4064D6E46FCDA41C05550DC9E483A00797BFD207EFB092A45DE9514C1BBD22178396BD39D891265658C238DEA00936C654E5E433CB65A26D9F6EDB5EBC14EBF49A45CB856E66048291F6939A9A81BB5C89177
310
38143CA680F4AA299D66A042CEB3354A2684DC9D8D178FE0D9B8B41CAAD720F880EE7EF93C0C18769E099ECC04D5A102C8049A8A05632F4DDF376CF1DE0F6BB65C2F8627B65A33C6BB62177CEBBDAD973006829F89F22E814B54F4BC2BE347F8AA8F681390B50FA73F804400B5F542E796F19FF974E7F78DB802FE05E20750
310
4B0304140006080800CC70623BE75B7789680500003C100000340000006662782F41393633353835312D344632462D344230382D423046372D3739314545314133324237412F6F626A656374732E786D6CAD575B8F9B3818FD2B887D06C22499CB8AA1CA655245D5B455A356FB305264C061D8018C6C3393D95FBFC7600890
310
A4CD5EF210B0B1BFEBF98E3F7B1FF6596ABC522E1296DF9BAE3D320D9A872C4AF2F8DE2CE5CEBA358D0FBEC719939D65A691938CDE9B6ADAF4BD98B3B2D05311DD91329583D9D5FC0F438434A7A611A644887B5384CF34233629258BA878B12322891DEFF6B66BD70BFB62634E8AE781D082709A4B588AF91C528CDA28B73F
310
1C998EEF39EABBEFA97FBD6A7C7E9553F9D3D79FE442923C3C523610337627CB87ABE99D359D4CC6D6E4FACAB5E6ABF9D2726FC6A3C5F56271377BB88362213924694B38DD99FE47C48627A1E7D49F5A8BB5E1A74C0A599ED3B0F21F1E56366B89112D681E218F0915D0D6F17AD41FBA2A369DCF6335D62ABBD39779D5DDD1
310
11D4D8DE3CBB96B2E04FB8202E41051754A1AA8E8F76B4C6DFE810B580B1547F4B84911149794252234D024EF8BBE963A95AE27B3D310A9D5C215C7960FAEE415ED75694C6AFB17BCACA5D99A60A9AA65F217B0BFC53292ACB92BF283FAD0D3621576592CB5BED907C2FA8E9DF794E35E97BEA31BED21FEB401ABB94C44839
310
DCACBF0E1C5DA8DA5B2F4DFFD32AD86F543D9E565E7056502E157C00AD2671CD534549AB752FCA9CDA00677A313F04E51B22FF19E57B300579E3C97EB29F682D92935CEC18CF901B7B54FD8C51F362B56FC72FE0B3C1EAE335EDCCBF5AEC39ADB17DC238973F804BA5E6F6BFE7AF1FB32E523BE9F3BD571418E3631DCA4D48
310
5250CF639223210A9446CA30052EDF057BD35F8329C1ECD84552BF0DC8D18BE7BCE23BFE6BD960AB4A7DE79923A103BEBD80F911CBAA2C60DB19B01CF164A5583B772EE6D3FFA56666CBCDA74DC97724A48F9A58967497E489C4D979006FD7A05E227A1EBDD0F737C623387A9C844D3709995625106D157315F8B8392CD4E0
310
A0B9A720C4BE9829CEF37EA1E13111214D53925356365ADA634861B52519DD27A00AEB808EAF0628E6F435519D446F45CF2C9CF5214F0A15B2F6D06B79DA3EE3CBF7F56780D2F4E7EF73A0F5E5B02A38D07DC852C6B7C1FBB6664213E0C39E3EBA7FF4E1AD23EA2829407C85E586727488B751B2DB9502BC7B228A3FD68B6E
310
A65A22397E690AA8D158D7E404EC8CDA235CC3B7D1898680131CEC2CDF2638C65196279577750F15884AEE19F94199155B92B13297978469D4F8D358DF0AEF7631E28DC8F0D9F437D5D39A83B2231A1D52D543813A824EF8D44BCFF2FA6A31BD1E8DAD87F1CCB526B3879935BF59CDADD5C37479BB1CDD4CA7B3556B516589
310
EF352754B706114D9C885EC9131DE6EFEB43D99AFE2391C2F958179413D7CFEF6B1B6DB1E7600F00DE6E5C67454A339A4BA2E0FBA85ED26F045D454F463DBFCE484C2F90F2E5E3666003662ED8F755951A7D1BECD5B30B550B2785C8E7320B7292A4838DDA71BBC863ED7613CAF659337A3354231D4FF4A182A54904C2898C
310
98B28C4AD0CE056CCF332A80986E571EE9DBC305BB5FEB7E509220A58D25CF042D712A806AC0AD0C657FDEF80D2D9CEAA2EE4D1C76F60BFE74219A06527D6F82DF6412526107381E55E353090704D085B52408A8913C4ED159D79BDA71BB4BC506F4831350EB6F975CD22D69BF7AC49B91A2C0A9DDA3D5CA36AD20FC478E37
310
E61844E2352865EBCB61A275A65283CAAA9DD27703B4102F5AF51EF5F573B75CBB5AD38BC845F7A49F82A0966A49C2E3EA5EA0ECD326CD965F1DB402C6FA8B51A4658C5C5E2EC9E214602E55810345408596591009A82E7E7FFACA19EEA299B14A0081A705CB3296EBC14CDF658DCD336EA6D1136881AAEB87B81AB9EE53D5
310
F5EB8BC8362082DA24122F98680A4E7930C01A0079749CEA14382A0783E5EBA5A10F8C098456A03D6A4AEB6BB881E2513747552A5DB22C7EDAF83BD5528081A365F7FF06504B0304140006080000CC70623B000000000000000000000000350000006662782F41393633353835312D344632462D344230382D423046372D37
310
39314545314133324237412F76657274696365732E62696E504B0304140006080800CC70623BF270F1330600000004000000360000006662782F41393633353835312D344632462D344230382D423046372D3739314545314133324237412F747269616E676C65732E62696E636660600000504B0304140006080000CC7062
310
3B000000000000000000000000370000006662782F41393633353835312D344632462D344230382D423046372D3739314545314133324237412F617474726962757465732E62696E504B0304140006080800CC70623B08DA0BD19000000041010000360000006662782F41393633353835312D344632462D344230382D4230
310
46372D3739314545314133324237412F6469726563746F72792E786D6C858F410AC3201045AF22B36F53E9A60B35CBEEBAE80D244E44489C6234F4F835464A48035D0DF398FF9F8AF63D0E6CC63039F212F8F9020C7D47C6792B21C5FE7403D62A1188E2E60C98D7234A5830286103A55745067B9D86B8A3CF9C7F90C11DE6
310
07FB144396D7B6A82D282E9A152AD114D5EF2CB866EEE831B8EEA07A7BB5A8D7D61A2BAAEB7FD5F70921FF497D00504B0304140006080800CC70623BEDD1DC58FD000000A00100003B0000006662782F41393633353835312D344632462D344230382D423046372D3739314545314133324237412F7265736F75726365732F
310
636F72652E786D6C8D504B6E833010BD0A9A6D65B00922041947112427E8052C33A156828DFCA97AFC9A40A576D7CDCCE87D344F8F9FBFE667F689CE6B6B3A6039850C8DB2A336530731DC4903D95970676DF82583CCC8193B5861107C72362E3BA4AC096842428D1D7107A5F7182053CF7474E0D507CE32973124857FE48B
310
540F3961CEF244279DE03EB81420DB9EAC1384436FA353E879B1B182C7A8C75DA3C7F453DF353A1075D537A7BA6464B8F535A99AE14A9A2BBD90E350DD183B5CFABE3AF262350B1EF4FC9351399401471025A527C218A1E53BAB5A5AB765F5469B96525EACF23FA6B88CFF34456DC2A1DCE36E360F82A5202F42F062ED2BAD
310
579969AFDD8A6F504B010214000A0000080000CC70623B3DEE336E79000000790000001B00000000000000000000000000000000006175746F6465736B2D64657369676E2D7061636B6167652E786D6C504B01021400140006080800CC70623BD486FD9CA0000000F40000001300000000000000000000000000B20000005B
310
436F6E74656E745F54797065735D2E786D6C504B01021400140006080800CC70623B853B8169EB0000007C010000080000000000000000000000000083010000636F72652E786D6C504B01021400140006080800CC70623B55019EA25F0000007C000000070000000000000000000000000094020000636E782E786D6C504B
310
01021400140006080800CC70623BDBABAAF470010000D40300000C00000000000000000000000000180300006662782F636F72652E786D6C504B01021400140006080800CC70623B9C113CC27E0000009D0000000B00000000000000000000000000B20400006662782F636E782E786D6C504B01021400140006080800CC70
310
623B7DF2F77C2A010000120200003100000000000000000000000000590500006662782F41393633353835312D344632462D344230382D423046372D3739314545314133324237412F636F72652E786D6C504B01021400140006080800CC70623BAD7543B64E010000330300003000000000000000000000000000D2060000
310
6662782F41393633353835312D344632462D344230382D423046372D3739314545314133324237412F636E782E786D6C504B01021400140006080800CC70623BE75B7789680500003C10000034000000000000000000000000006E0800006662782F41393633353835312D344632462D344230382D423046372D3739314545
310
314133324237412F6F626A656374732E786D6C504B01021400140006080000CC70623B0000000000000000000000003500000000000000000000000000280E00006662782F41393633353835312D344632462D344230382D423046372D3739314545314133324237412F76657274696365732E62696E504B01021400140006
310
080800CC70623BF270F133060000000400000036000000000000000000000000007B0E00006662782F41393633353835312D344632462D344230382D423046372D3739314545314133324237412F747269616E676C65732E62696E504B01021400140006080000CC70623B0000000000000000000000003700000000000000
310
000000000000D50E00006662782F41393633353835312D344632462D344230382D423046372D3739314545314133324237412F617474726962757465732E62696E504B01021400140006080800CC70623B08DA0BD1900000004101000036000000000000000000000000002A0F00006662782F41393633353835312D344632
310
462D344230382D423046372D3739314545314133324237412F6469726563746F72792E786D6C504B01021400140006080800CC70623BEDD1DC58FD000000A00100003B000000000000000000000000000E1000006662782F41393633353835312D344632462D344230382D423046372D3739314545314133324237412F7265
310
736F75726365732F636F72652E786D6C504B0506000000000E000E0080040000641100000000
  0
XRECORD
  5
732
102
{ACAD_REACTORS
330
1F7
102
}
330
1F7
100
AcDbXrecord
280
     1
102
MATERIAL
148
0.0
149
0.0
149
0.0
 93
        0
 94
      127
282
     0
 72
     1
 77
     1
171
     1
175
     1
179
     1
273
     0
  0
XRECORD
  5
1F8
102
{ACAD_REACTORS
330
1F7
102
}
330
1F7
100
AcDbXrecord
280
     1
 70
     1
 90
429727718
  1
30362254-06B7-45E0-A893-8CFA70E3D6BC
310
504B03040A0000080000CC70623B3DEE336E79000000790000001B0000006175746F6465736B2D64657369676E2D7061636B6167652E786D6C3C3F786D6C2076657273696F6E3D22312E302220656E636F64696E673D227574662D3822203F3E3C666F726D6174733E3C666F726D61743E687474703A2F2F736368656D612E
310
6175746F6465736B2E636F6D2F64657369676E2D7061636B6167652F323030393C2F666F726D61743E3C2F666F726D6174733E504B0304140006080800CC70623BD486FD9CA0000000F4000000130000005B436F6E74656E745F54797065735D2E786D6C7D8EC10E82300C865F65E91D8A1E8C310C0EEA1BF002731658846E
310
D98AC1B77784ABF1D8FE5FBFBF75BBCE937A534CCEB38643598122B6FEE978D0B0485F9C41B54DDD7D022595594E1A469170414C76A4D9A4D207E29CF43ECE46F218070CC6BECC4078ACAA135ACF422C856C0E68EA1BF5669944DDD7BCDE7B1F8E415D77AECB980613C2E4AC91FC167A2B244592486606FC29C8FD7F045B9A
310
EF7053A7E60B504B0304140006080800CC70623B1EC5D7A3EB0000007C01000008000000636F72652E786D6C8D90416EC3201045AF82665B6103C6756C6122AB4D4ED00B204C5C94182C03558F5F9C3852BBEB6A467FFE9B197D71FC9E6FE8CBACC17AD7032D0820E3B41FAD9B7A48F1820F808E52ACDEC75F36404ECDA687
310
4D0629A6D5A76597B477D1B89855E747B38B2A041301E95B6E7A08FAD3CCAA50296647B8168BD2573599823EBB0CA76447F43862C7BCCF5EAC59410E4DDD9C7973C2755553CCCFA4C603E3040F1565ED3B1FDE4E432BCA0D9622DAF9795FAF464533826484B498524CD807E51D79ED187F21878E10516EF63F505AC67F42C9
310
BA58B1FDDD071640D2FCC87D2045B96591CB3DA85CB7DCE40F504B0304140006080800CC70623B55019EA25F0000007C00000007000000636E782E786D6C4DCB3B0E80201045D1AD90E915ED2CF8AC45050C11660C8261F98AB1B07AC9C97D42D718D865D3E909258CFD00CCE24AC6E326A164D74DC0B4128928FF32603847
310
2BA13128B1252AC747C6BAB984FC68F0B87FE8960A5C09FE86CFB69FBA01504B0304140006080800CC70623B8C9102E971010000D40300000C0000006662782F636F72652E786D6CC5535B6E833010BC8AE5DF0A6C08340F1947A84D4ED00B38C6A128602363A31CBFCB234A53A551FA553EC09AD9F5CE8C31DB9E9B1AF5CA
310
7695D1198E428A91D2D214952E33ECDD315861B4E5CC1AE3BE9561A445A3323CC098B3D21ADFCE9034DA29ED00D5A6503328BA4E398C640D8B0C77F253352214DE4145770A5B214FA2546114020D759C75CE8200340D19DE981F0F6746269C33EFAB6266AB02A655C74A59CCF365BADC27CB5D902ED22848F6340DF238A141
310
BE88E2F57B92BFEDF23523433367AE6A2EEAA455C2A902F398D2751045018D3FA264435F3771F242571B4A1919CA6F9A7C5B3CD9E42BED16F12C776AEB308F40C848FC700B1139D4891EF410CEC810227CC6846F8386402064270EF5C5C709A05E49676C024C61FC95EA45ED154CA5211D1FF4FB8291A913A68E9B83EBBB33
310
E2A7673CDE118E5AE8124C0807CB8377834E366998436B950D7A7746DAD846D4CFD978E0F04FD455FC5D49D2D4C6FE9722321F10997F0F32DC47FE05504B0304140006080800CC70623BFFEA85907E0000009D0000000B0000006662782F636E782E786D6C4DCCD10A83201886E15B91FFDC95D95A811AB6F23E625948A6C3
310
E9D8E5AF46073BFAE0E1E365ED67B3E8ADC3CB78C7815C7240DA3DFC64DCC221C519D7805AC182F7F1EF06C88D9BE6703008B6049F9E274D7A1E938DBB5AE3D6131B2589BA0D3D965551E0B2EA732C9B9A624AAEB41E3A557677029960D9AFB4EF11165F504B0304140006080800CC70623B4FEEA4082C0100001202000031
310
0000006662782F39464131463745442D413632322D343644302D413938332D3331353338454246344243312F636F72652E786D6C8D515B6EC32010BC0AE2AB55850DD871ED0813254D72825EC00192A2C460F1A872FC42ED48ED5F7E00CDCECCCEB26C731F6FE05B39AFADE921293004CA082BB5B9F43086336A21D870E6AC
310
0D7F68109861543DCC30E4ECE26C9C164858139409093556AA051CBC570102714B8F1E7AF1A5C6A11862480C7F2DA6415C878B2A4891CA89C7990F2E050073937C42DE1DB7E4F87ED8A36D4329AA9B3D46DBAEAD504556557BD81DEBDD0761E52CE42C462D17B996298E3E6BE59E35C962CE821E1FF18553435012728A7187
310
0841987E927A8D9B35ADDF70BBC6989599FE4F1427F9A4286A132ABAC49D651EF234CD5CE04CDA78BA3DC2A8FB645D00B9DF8B57E215725C60BCA2A463E54C4CE327C7A65E1C7DB02E7DEFCBF594B864C5CA6CDBD49C957943E9FA5D5FBAF336F90F504B0304140006080800CC70623BAD7543B64E01000033030000300000
310
006662782F39464131463745442D413632322D343644302D413938332D3331353338454246344243312F636E782E786D6CD593CD6EC32010845F0571AD6CE3D48AD20813A9873E410FBD12D82434182C7EAAE6EDBB2424CD25871E7B41D6EC30B3FA84F9E67BB2E40B4234DE8DB46F1925E094D7C6ED479AD3AE5951B2113C
310
789FEE6C943839C1488B4C05DF079FE72A69D8C96C13AAD6B8631503449F83828872B949AC57D26200B826A308D316B4064D6E46FCDA41C05550DC9E483A00797BFD207EFB092A45DE9514C1BBD22178396BD39D891265658C238DEA00936C654E5E433CB65A26D9F6EDB5EBC14EBF49A45CB856E66048291F6939A9A81BB5
310
C8917738143CA680F4AA299D66A042CEB3354A2684DC9D8D178FE0D9B8B41CAAD720F880EE7EF93C0C18769E099ECC04D5A102C8049A8A05632F4DDF376CF1DE0F6BB65C2F8627B65A33C6BB62177CEBBDAD973006829F89F22E814B54F4BC2BE347F8AA8F681390B50FA73F804400B5F542E796F19FF974E7F78DB802FE05
310
E207504B0304140006080800CC70623B16AB87BA640500003C100000340000006662782F39464131463745442D413632322D343644302D413938332D3331353338454246344243312F6F626A656374732E786D6CAD575B6FA33818FD2B887DE6924B3BED8A326A92B68A663B534DD4D13E548A0C38942D60649B369D5FBFC7
310
600890A493BDE42160637FD7F31D7FF63E6FB3D478A55C242CBF3247B66B1A340F5994E4F19559CA8D75611A9F7D8F33263BCB4C232719BD32D5B4E97B316765A1A722BA21652A07B3B7B33F0D11D29C9A46981221AE4C113ED38CD8A4942CA2E2C58E882476BCD9DA23BB5ED8171B73523C0F841684D35CC252CCE79062D4
310
468DFA43D7747CCF51DF7D4FFDEB5593E3AB9CCA9FBEFE241792E4E19EB28198C968BAB8199F5D5A67D3E9C49A9E8F47D6EC76B6B0469F26EEFC7C3EBFBCBEB98462213924694B38DD98FE1D62C393D073EA4FADC5DAF04326852CCF6958F90F0F2B9BB5C48816348F90C7840A68EB78EDF68723159BCEE7891A6B95DDE9D3
310
BCEAEEE8086A6C6F9E5D4B59F0175C10A7A0820BAA5055C7473B5AE3CFDD452D602CD5DF12616444529E90D448938013FE6EFA58AA96F85E4F8C42275708571E98FE6827AF6B2B4AE3D7D83D64E5A64C53054DD3AF90BD06FEA9149565C94FCA0F6B834DC85599E4F2423B24DF0B6AFA979E534DFA9E7A4CC6FA631D486393
310
921829879BF5D781A373557BCB85E97FB90DB62B558F8795179C15944B051F40AB495CF35451D26A4727654E6D8033BD98EF82F21D91FF8AF2DD9982BCF1643BDD4EB516C9492E368C67C88DED563FC36D5EACF66DFF057C3658BDBFA69DF9578B3DA735B64F18C7F20770A9D45CFCF7FCF563D6456A277DBEF78A02637CA2
310
43B90A490AEAB94F72244481D24819A6C0E59B606BFA4B3025981DBB48EAB701D97BF19C577CC77F2D1B6C55A9EF3C732474C0B727303F625995056C3B02963D9EAC146BE78EC5FCEC7FA999EBC5EACBAAE41B12D27B4D2C0BBA49F244E2ECDC81B76B502F113D8F5EE8FB1BE3111CDD4FC2AA9B844CAB1288B68AB90A7CDC
310
1C166AB0D3DC5310625FCC14E779BFD0709F8890A629C9292B1B2DED31A4B0DA928CEE135085754027E3018A397D4D5427D15BD1330B677DC8934285AC3DF45A9EB68FF8F2B8FC0A509AFEECFD0FF2DE25CC6047F7214B195F07EFEB9A094D800F7BFAE8FED187B78EA8A3A400F115961BCAD1215E47C966530AF0EE8128FE
310
58CEBB996A8964FFA529A046635D9353B0336A8F700DDF46271A024E70B0B37C9DE01847591E54DED53D54202AB947E4076556AC49C6CA5C9E1226B7F1A7B1BE15DEED62C41B91E1B3E9AFAAA735036547343A925075041DF0A9979E893B391F8FCFA6967B3EFB644DCF6E5CEBFAE272625DCC6FAF3FB93793C5F90CE1EF57
310
407342756B10D1C489E8953CD1617E5CEECAD6F4EF8914CE5D5D504E5C3F1F9736DA62CFC11E00BCDDB8CC8A9466349744C1F75EBDA4DF09BA8A9E8C7A7E9991989E20E5DBDD6A6003664ED8F7A04A8DBE0DF6EAD9B9AA858342E47399053949D2C146EDB85DE4B176BB0965FBAC19BD19AA918E27FA50C1D22402E144464C
310
59462568E704B6E71915404CB72B8FF4EDE184DDAF753F284990D2C6926782963815403548A70C657FDEF80D2D9CEAA2AE4C1C76F60BFE74219A06527D6582DF6412526107381E55E353090704D085B52408D0933C4ED159D79BDA71BB4BC506F4831350EB6F979CD22D69BF7AC49B91A2C0A9DDA3D5CA36AD20FC478E37E6
310
1844E2352865EBCB6EA275A652E3836BE04EFB400BF1A2556F515F1FBB35B2AB35BD889C744FFA1004B5544B121E57F70215746DD2F5E2C1412B602CBF19455AC6C8E5E9922C4E01E65215385004546899059180EAFCF7A707CE7017CD8CDB0410789AB32C63B91E5CEBBBACB17AC6CD347A022D5075FD106377347AAABA7E
310
7D11590744509B44E205134DC1290F06580320F78E537D3D73540E06CB970B431F185308AD40BBD794D6D77003C5A36E8EAA54BA64597CD8F83BD552A080A365F7FF06504B0304140006080000CC70623B000000000000000000000000350000006662782F39464131463745442D413632322D343644302D413938332D3331
310
353338454246344243312F76657274696365732E62696E504B0304140006080800CC70623BF270F1330600000004000000360000006662782F39464131463745442D413632322D343644302D413938332D3331353338454246344243312F747269616E676C65732E62696E636660600000504B0304140006080000CC70623B
310
000000000000000000000000370000006662782F39464131463745442D413632322D343644302D413938332D3331353338454246344243312F617474726962757465732E62696E504B0304140006080800CC70623B08DA0BD19000000041010000360000006662782F39464131463745442D413632322D343644302D413938
310
332D3331353338454246344243312F6469726563746F72792E786D6C858F410AC3201045AF22B36F53E9A60B35CBEEBAE80D244E44489C6234F4F835464A48035D0DF398FF9F8AF63D0E6CC63039F212F8F9020C7D47C6792B21C5FE7403D62A1188E2E60C98D7234A5830286103A55745067B9D86B8A3CF9C7F90C11DE607
310
FB144396D7B6A82D282E9A152AD114D5EF2CB866EEE831B8EEA07A7BB5A8D7D61A2BAAEB7FD5F70921FF497D00504B0304140006080800CC70623B0D6EF93BFE000000A00100003B0000006662782F39464131463745442D413632322D343644302D413938332D3331353338454246344243312F7265736F75726365732F63
310
6F72652E786D6C8D50596E833010BD0A9ADFCA60B334011947A8694ED00B586642AC041B79A97AFC9A40A5F6AF3F33A3B7689E1E3F7DCD8FEC139DD7D6F4C0720A191A65476DA61E62B892236427C19DB5E1970C322367EC618541F0C9D9B8EC90B226A009093576C41D94DE63804C3DD2D18357379C652E63480A7FCF17A9
310
EE72C29CE5894E3AC17D702940B63D59270887DE46A7D0F36263058F518FBB468FE9A7BE6A7420864373B8D4873369AA8691FA421B3294352543C5CAF65C0F6FEF43CB8BD52C78D0F34F46E550061C419494B6843142CB0F5677F4B52BEB177AEC28E5C52AFF638ACBF84F53D42654E51E77B379102C05791282176B5F693D
310
CB4C7BED567C03504B010214000A0000080000CC70623B3DEE336E79000000790000001B00000000000000000000000000000000006175746F6465736B2D64657369676E2D7061636B6167652E786D6C504B01021400140006080800CC70623BD486FD9CA0000000F40000001300000000000000000000000000B20000005B
310
436F6E74656E745F54797065735D2E786D6C504B01021400140006080800CC70623B1EC5D7A3EB0000007C010000080000000000000000000000000083010000636F72652E786D6C504B01021400140006080800CC70623B55019EA25F0000007C000000070000000000000000000000000094020000636E782E786D6C504B
310
01021400140006080800CC70623B8C9102E971010000D40300000C00000000000000000000000000180300006662782F636F72652E786D6C504B01021400140006080800CC70623BFFEA85907E0000009D0000000B00000000000000000000000000B30400006662782F636E782E786D6C504B01021400140006080800CC70
310
623B4FEEA4082C0100001202000031000000000000000000000000005A0500006662782F39464131463745442D413632322D343644302D413938332D3331353338454246344243312F636F72652E786D6C504B01021400140006080800CC70623BAD7543B64E010000330300003000000000000000000000000000D5060000
310
6662782F39464131463745442D413632322D343644302D413938332D3331353338454246344243312F636E782E786D6C504B01021400140006080800CC70623B16AB87BA640500003C1000003400000000000000000000000000710800006662782F39464131463745442D413632322D343644302D413938332D3331353338
310
454246344243312F6F626A656374732E786D6C504B01021400140006080000CC70623B0000000000000000000000003500000000000000000000000000270E00006662782F39464131463745442D413632322D343644302D413938332D3331353338454246344243312F76657274696365732E62696E504B01021400140006
310
080800CC70623BF270F133060000000400000036000000000000000000000000007A0E00006662782F39464131463745442D413632322D343644302D413938332D3331353338454246344243312F747269616E676C65732E62696E504B01021400140006080000CC70623B0000000000000000000000003700000000000000
310
000000000000D40E00006662782F39464131463745442D413632322D343644302D413938332D3331353338454246344243312F617474726962757465732E62696E504B01021400140006080800CC70623B08DA0BD190000000410100003600000000000000000000000000290F00006662782F39464131463745442D413632
310
322D343644302D413938332D3331353338454246344243312F6469726563746F72792E786D6C504B01021400140006080800CC70623B0D6EF93BFE000000A00100003B000000000000000000000000000D1000006662782F39464131463745442D413632322D343644302D413938332D3331353338454246344243312F7265
310
736F75726365732F636F72652E786D6C504B0506000000000E000E0080040000641100000000
  0
XRECORD
  5
734
102
{ACAD_REACTORS
330
173
102
}
330
173
100
AcDbXrecord
280
     1
102
MATERIAL
148
0.0
149
0.0
149
0.0
 93
        0
 94
      127
282
     0
 72
     1
 77
     1
171
     1
175
     1
179
     1
273
     0
  0
XRECORD
  5
175
102
{ACAD_REACTORS
330
173
102
}
330
173
100
AcDbXrecord
280
     1
270
     1
271
     1
  0
XRECORD
  5
174
102
{ACAD_REACTORS
330
173
102
}
330
173
100
AcDbXrecord
280
     1
270
     1
271
     1
  0
XRECORD
  5
1FB
102
{ACAD_REACTORS
330
173
102
}
330
173
100
AcDbXrecord
280
     1
 70
     0
 90
1673772943
  1
ECE7A1D2-D628-4531-984C-D00F80459256
310
504B03040A0000080000CC70623B3DEE336E79000000790000001B0000006175746F6465736B2D64657369676E2D7061636B6167652E786D6C3C3F786D6C2076657273696F6E3D22312E302220656E636F64696E673D227574662D3822203F3E3C666F726D6174733E3C666F726D61743E687474703A2F2F736368656D612E
310
6175746F6465736B2E636F6D2F64657369676E2D7061636B6167652F323030393C2F666F726D61743E3C2F666F726D6174733E504B0304140006080800CC70623BD486FD9CA0000000F4000000130000005B436F6E74656E745F54797065735D2E786D6C7D8EC10E82300C865F65E91D8A1E8C310C0EEA1BF002731658846E
310
D98AC1B77784ABF1D8FE5FBFBF75BBCE937A534CCEB38643598122B6FEE978D0B0485F9C41B54DDD7D022595594E1A469170414C76A4D9A4D207E29CF43ECE46F218070CC6BECC4078ACAA135ACF422C856C0E68EA1BF5669944DDD7BCDE7B1F8E415D77AECB980613C2E4AC91FC167A2B244592486606FC29C8FD7F045B9A
310
EF7053A7E60B504B0304140006080800CC70623BD9DDAED0EC0000007C01000008000000636F72652E786D6C8D90416EC3201045AF82665B61836D9CD8C2444DD39CA01740405C94182C03558F5F9C3852BBEB6A467FFE9B197D7EF89E6EE8CB2CC17A37002D0820E394D7D68D03A478C17B4007C117EFE32F1B20272733C0
310
2A83E0E3E2D3BC49CABB685CCCAAF3DA6CA20CC14440EA969B0182FA34932C648AD911AEC52CD5558EA6A0CF2EC329598D1E47ACCEFBECC59A050463A7EA5833865FEBDD0E37353BE3EE8DBDE3F6786A48D375FBF6CC78B9C282473B3DEFABC5C86834888A900E538A49F5419B9EB47DD5BC907D4F082F57FB1F28CDFA9F50
310
B22ED6D5F6EE030B20687EE43E10BC5CB3C8E51E54AE6B6EE207504B0304140006080800CC70623B55019EA25F0000007C00000007000000636E782E786D6C4DCB3B0E80201045D1AD90E915ED2CF8AC45050C11660C8261F98AB1B07AC9C97D42D718D865D3E909258CFD00CCE24AC6E326A164D74DC0B4128928FF326038
310
472BA13128B1252AC747C6BAB984FC68F0B87FE8960A5C09FE86CFB69FBA01504B0304140006080800CC70623BA24EB22D72010000D40300000C0000006662782F636F72652E786D6CC5535B6E833010BC8AE5DF0A6C5E49888CA3A6694ED00B38E05014B091B1518EDFE511A5A9D228FD2A1F60CDEC7A67C6986DCE4D8D7A
310
69BA4AAB0C073EC548AA5C17952A33ECECD15B61B4E1CC686DBF9561A44423333CC098B3D268D7CE50AE9595CA02AA74216750749DB418E5352C32DCE59FB211BE70162ABA93DF8AFC244AE9073ED050C759670D0840D390E18DF9F1706664C23973AE2A66B62A605A75ACA4C13C4976E1364A12EF355A2EBD384AF65EFA96
310
BC7B8BED2EA6719AAE16FB8491A199335B351775B991C2CA02F390D2D40B028F861F41BCA68B7518BFD0D59A524686F29B26D7164F36B94AD9289CE54E6D1DE6010819891F6E21228B3AD1831EC219194284CF98F06DD01008846CC5A1BEF83801D4CBDC6A1303536877A57A513B0953A94FC707FDBE6064EA84A9E3E6E0FA
310
EE8CF0E9198F7784A316AA0413C2C2F2E0ECA0934D1AE6D05A69BCDE9E91D2A611F573361E38FC1375157F5752AE6B6DFE4B11990F88CCBF0719EE23FF02504B0304140006080800CC70623B408A7D3B7C0000009D0000000B0000006662782F636E782E786D6C4DCCD10A83201886E15B91FFDC552A92A0064DBC8F581632
310
D3703A76F9ABD1C18E3E78F878E5F0D9027ABBFCF2292AE86E2D20171F69F6715550CB827B40839639A5F2770314A7CD293819B45C73AAFB45B35BA61ACAA1C1C7E7855C58C15BC331339661262CC762340413D68D77DA5B42298546CBE6573AF60CEB2F504B0304140006080800CC70623B449FB9BD290100001202000031
310
0000006662782F36394639363044362D344446342D343946362D394244322D3234314243333846323333332F636F72652E786D6C8D515B6EC32010BC0AE22B55850D98B871848994463E412FE002495162B07854397EA176A4F62F3F2C9A9D991D587EB84F37F0AD7D30CEF6905418026DA553C65E7A98E219ED203808EE9D
310
8B7F6810D871D23D2C3014FCE25D9A57483A1BB58D19B54EE9151C43D0110279CB971E06F9A5A7B11A53CC8C70ADE6515EC78BAE4895DB992778883E0700CB907242D17643D7E2538BD869608875438BBAE38922CAC8F1BDD90DB4691A5E2F42C153326A951B95E398B3D1FE599322163C9AE9115F7A3D46ADA0A018778810
310
84E907617BDCEE297BC5BB3DC6BC2EF47FA234AB2745C9D8D8D035EE220B50105E2F0DC1954B9FB747187D9F9D8FA0CCDB042D5FA0C015C65B42DF78BD10F3F3B363CB56C7109DCFDFBBB97E662ED92EB62D13BC2E1BCAE5777DB9966D8A1F504B0304140006080800CC70623BAD7543B64E01000033030000300000006662
310
782F36394639363044362D344446342D343946362D394244322D3234314243333846323333332F636E782E786D6CD593CD6EC32010845F0571AD6CE3D48AD20813A9873E410FBD12D82434182C7EAAE6EDBB2424CD25871E7B41D6EC30B3FA84F9E67BB2E40B4234DE8DB46F1925E094D7C6ED479AD3AE5951B2113C789FEE
310
6C943839C1488B4C05DF079FE72A69D8C96C13AAD6B8631503449F83828872B949AC57D26200B826A308D316B4064D6E46FCDA41C05550DC9E483A00797BFD207EFB092A45DE9514C1BBD22178396BD39D891265658C238DEA00936C654E5E433CB65A26D9F6EDB5EBC14EBF49A45CB856E66048291F6939A9A81BB5C89177
310
38143CA680F4AA299D66A042CEB3354A2684DC9D8D178FE0D9B8B41CAAD720F880EE7EF93C0C18769E099ECC04D5A102C8049A8A05632F4DDF376CF1DE0F6BB65C2F8627B65A33C6BB62177CEBBDAD973006829F89F22E814B54F4BC2BE347F8AA8F681390B50FA73F804400B5F542E796F19FF974E7F78DB802FE05E20750
310
4B0304140006080800CC70623B8D05915C650500003B100000340000006662782F36394639363044362D344446342D343946362D394244322D3234314243333846323333332F6F626A656374732E786D6CAD575B6FA33814FE2B887D06429276DA1565D4266D158D3A339A6846FB502932E050B66023DB74D2FDF5FB190C01
310
9276B2973C046C8ECFF53B17071F77456EBD502133CEAE6CDF9DD81665314F32965ED995DA3A17B6F5310C04E7AA47665B8C14F4CAD6DB7618A48257A5D94AE89654B91AEDDEDDFC61C998326A5B714EA4BCB265FC440BE2924AF184CA6737218AB8E976E7FA6E4338649B0A523E8D98964450A6A029F619B8588D52FE7039
310
B1BD30F0F4F730D0FF866AF6369557DB33949F31A9088B0F848DD8CCFCF9F2767A76E99CCDE733677E3EF59D9BBB9BA5E37F984D16E78BC5E5F5ED25044B25C0C96822E8D60EEFE11B91C581D77CEA34368A1F5329E68CD1B8B61F16D63A1B8E092D294B10C78C4A48EB593D192E7DED9BDEE7995E1B91FDEDD3ACEA9FE831
310
6A756F9F7D4D79F4274C90A7A04248AA51D5F8C718DAE06FB2F75AC4796EBE65D22A88A22223B995679120E2D50E41AA49C260C046A35368846B0BECD0DFF3EBEB8AD4F835768F69B9ADF25C43D30E6B646F807FAA64AD59F61715C7A54127C4AACA98BA3006A9D792DAE165E0D59B61A01FB3A9F9D838D2DAE62445C86166
310
F37564E842E7DE6A69879FEEA2DD5AE7E371E1A5E025154AC307D06A03D73EB5978C58FFA4C8E9033066E0F3BD53BEC1F39F91BE7B55103791EDE6BBB991A2046172CB4581D8B893FA674DDA17A77B3B7C413D1B511FD2743BFF8A38F03A658705E3ADF8015C3A3417FF3D7E439FF591DA0B5F18BC20C1B8981957AE6392A3
310
F43C640C01D1A0B4728E2DD4F26DB4B3C3152A252A3B4E913CEC1C72F012782FF88EFF8637AA552DBEF76408E8A8DE9E50F9E1CB3A2DA0DB1B6039A893B56063DC5B3E3FFB5F72E67AB9FEB4AEC496C4F4C1149625DD662C53E89D7BF0F6151A046260D1337DFDC94502430F83B0EE07A130A224BCAD7DAE1D9FB6CD422FF6
310
920702629C4BB9AE79C12F243C6432A6794E18E5552BA56B431AAB5D91317302B2B071E86C3A42B1A02F999E24061403B5D0EB639195DA655DD3EBEAB4FB862DDF579F014AD0E73C22F99E28DA57FB98E75C6CA2D74D53086D600F4786E0FE3144B771A8A7B900F03594DB8A633CBC49B2EDB69228BB479CF863B5E807AAAB
310
23872F6DFEB4129B949CA33823F58830E86D65621E10047D9DB34D862E8EAC3C2ABC2F7B2C40D67CDFE01F5545B92105AF983AC54D93D69E56FB8E797F88913F898A9FEC705D3F9D1B54EC8426FB500D40A03BD0119B06E1B95DDC7EB8F6975367793EBD70E66733DFB9BC982F9CE564727731999F5D4ECFCE3B8D6A4DC2A0
310
6D50FD148437D110834A64C6CDDF57FBACB5C307A2A477DFE4939736CFEF2B175371E0E10CF0DD1D5C15654E0BCA14D1E87DD02FF93782A162C0A3D95F1524A52770F972BF1EE9809D13CE7DD599467F8ECE9ADD85CE85A34CD45355448C64F9E8A031DC2D596ACC6E5DD93D9B82DE2EF5CAF81363A8E47996A0DE24564A79
310
4115AACE09C55E14540231FDA13C319787134EBF34E3A022514E5B4D9E0826E25C02D5805B15ABE1BEF51B26383D445DD9E875EE33FE4C22DA16427D65A3BCA92CA6D28DD01DF5DC53330704308475351050232CCD31583787BA75774AFB06E5070DD0C8EF484E19968C5D83BA5B90B244D31E54D55A372320FE4786B7EA58
310
44E135AA5467CB7EA333A61683CC6A8C3257034C10CF46F40EF9F5BE59BE5BD30C3C72D235E95D10345C1D45445A5F0BB47E46A5EBE5570F9380B5FA629579952296A773720405982B9DE04011506178964401AA8BDF1FBF0A8EAB6861DD6580C0E38217056766716DAEB2D6FA0917D3E4116581EADB879C4E7CFFB11EFACD
310
3D641311495D92C8676CB409A72D18610D803CE8A626049E8EC1887CB5B44CC39883690DDA8399B4B9855B481E7D71D4A9D22F96E5BB73BF5793020C02137BF837504B0304140006080000CC70623B000000000000000000000000350000006662782F36394639363044362D344446342D343946362D394244322D32343142
310
43333846323333332F76657274696365732E62696E504B0304140006080800CC70623BF270F1330600000004000000360000006662782F36394639363044362D344446342D343946362D394244322D3234314243333846323333332F747269616E676C65732E62696E636660600000504B0304140006080000CC70623B0000
310
00000000000000000000370000006662782F36394639363044362D344446342D343946362D394244322D3234314243333846323333332F617474726962757465732E62696E504B0304140006080800CC70623B08DA0BD19000000041010000360000006662782F36394639363044362D344446342D343946362D394244322D
310
3234314243333846323333332F6469726563746F72792E786D6C858F410AC3201045AF22B36F53E9A60B35CBEEBAE80D244E44489C6234F4F835464A48035D0DF398FF9F8AF63D0E6CC63039F212F8F9020C7D47C6792B21C5FE7403D62A1188E2E60C98D7234A5830286103A55745067B9D86B8A3CF9C7F90C11DE607FB14
310
4396D7B6A82D282E9A152AD114D5EF2CB866EEE831B8EEA07A7BB5A8D7D61A2BAAEB7FD5F70921FF497D00504B0304140006080800CC70623BCA768048FE000000A00100003B0000006662782F36394639363044362D344446342D343946362D394244322D3234314243333846323333332F7265736F75726365732F636F72
310
652E786D6C8D50596E833010BD0A9ADFCA60D600328E9AA639412F609909B1126CE4A5EAF16B0295DABFFECC8CDEA2797AECF8353F924FB44E193D409E5248504B332A3D0D10FC95B4901C39B3C6F85F3248B49871801506CE266BC2B243D2688FDA47549B11775038871E12F988C7004EDE7016A9083E2ADC3D5D84BC8B09
310
D33C8D74D471E6BC8D0192EDC93A815B742658898E651BCB59086ADC356A8C3FD555A1055ED7E7E254D615792D0F075295F585746FF53B694EE78A565DD736979A65AB9933AFE69F8CD2A2F038022F28ED489E135A7CE4554F9BBEA85E68DB53CAB255FEC71496F19FA6A0B42F8B3DEE6673C0F318E4497096AD7DC5F52C33
310
EEB55BFE0D504B010214000A0000080000CC70623B3DEE336E79000000790000001B00000000000000000000000000000000006175746F6465736B2D64657369676E2D7061636B6167652E786D6C504B01021400140006080800CC70623BD486FD9CA0000000F40000001300000000000000000000000000B20000005B436F
310
6E74656E745F54797065735D2E786D6C504B01021400140006080800CC70623BD9DDAED0EC0000007C010000080000000000000000000000000083010000636F72652E786D6C504B01021400140006080800CC70623B55019EA25F0000007C000000070000000000000000000000000095020000636E782E786D6C504B0102
310
1400140006080800CC70623BA24EB22D72010000D40300000C00000000000000000000000000190300006662782F636F72652E786D6C504B01021400140006080800CC70623B408A7D3B7C0000009D0000000B00000000000000000000000000B50400006662782F636E782E786D6C504B01021400140006080800CC70623B
310
449FB9BD290100001202000031000000000000000000000000005A0500006662782F36394639363044362D344446342D343946362D394244322D3234314243333846323333332F636F72652E786D6C504B01021400140006080800CC70623BAD7543B64E010000330300003000000000000000000000000000D20600006662
310
782F36394639363044362D344446342D343946362D394244322D3234314243333846323333332F636E782E786D6C504B01021400140006080800CC70623B8D05915C650500003B10000034000000000000000000000000006E0800006662782F36394639363044362D344446342D343946362D394244322D32343142433338
310
46323333332F6F626A656374732E786D6C504B01021400140006080000CC70623B0000000000000000000000003500000000000000000000000000250E00006662782F36394639363044362D344446342D343946362D394244322D3234314243333846323333332F76657274696365732E62696E504B010214001400060808
310
00CC70623BF270F13306000000040000003600000000000000000000000000780E00006662782F36394639363044362D344446342D343946362D394244322D3234314243333846323333332F747269616E676C65732E62696E504B01021400140006080000CC70623B00000000000000000000000037000000000000000000
310
00000000D20E00006662782F36394639363044362D344446342D343946362D394244322D3234314243333846323333332F617474726962757465732E62696E504B01021400140006080800CC70623B08DA0BD190000000410100003600000000000000000000000000270F00006662782F36394639363044362D344446342D
310
343946362D394244322D3234314243333846323333332F6469726563746F72792E786D6C504B01021400140006080800CC70623BCA768048FE000000A00100003B000000000000000000000000000B1000006662782F36394639363044362D344446342D343946362D394244322D3234314243333846323333332F7265736F
310
75726365732F636F72652E786D6C504B0506000000000E000E0080040000621100000000
  0
XRECORD
  5
176
102
{ACAD_REACTORS
330
173
102
}
330
173
100
AcDbXrecord
280
     1
270
     1
271
     1
  0
XRECORD
  5
177
102
{ACAD_REACTORS
330
173
102
}
330
173
100
AcDbXrecord
280
     1
270
     1
271
     1
  0
XRECORD
  5
828
102
{ACAD_REACTORS
330
827
102
}
330
827
100
AcDbXrecord
280
     1
102
ACAD_ROUNDTRIP_2012_MLEADER_STYLE
298
     1
  0
XRECORD
  5
826
102
{ACAD_REACTORS
330
825
102
}
330
825
100
AcDbXrecord
280
     1
102
ACAD_ROUNDTRIP_2012_MLEADER_STYLE
298
     1
  0
CELLSTYLEMAP
  5
824
102
{ACAD_REACTORS
330
162
102
}
330
162
100
AcDbCellStyleMap
 90
        3
300
CELLSTYLE
  1
TABLEFORMAT_BEGIN
 90
        5
170
     1
 91
        0
 92
    32768
 62
   257
 93
        1
300
CONTENTFORMAT
  1
CONTENTFORMAT_BEGIN
 90
        0
 91
        0
 92
      512
 93
        0
300

 40
0.0
140
1.0
 94
        5
 62
     0
340
11
144
6.0
309
CONTENTFORMAT_END
171
     1
301
MARGIN
  1
CELLMARGIN_BEGIN
 40
1.5
 40
1.5
 40
1.5
 40
1.5
 40
0.18
 40
0.18
309
CELLMARGIN_END
 94
        6
 95
        1
302
GRIDFORMAT
  1
GRIDFORMAT_BEGIN
 90
        0
 91
        1
 62
     0
 92
       -2
340
14
 93
        0
 40
1.125
309
GRIDFORMAT_END
 95
        2
302
GRIDFORMAT
  1
GRIDFORMAT_BEGIN
 90
        0
 91
        1
 62
     0
 92
       -2
340
14
 93
        0
 40
1.125
309
GRIDFORMAT_END
 95
        4
302
GRIDFORMAT
  1
GRIDFORMAT_BEGIN
 90
        0
 91
        1
 62
     0
 92
       -2
340
14
 93
        0
 40
1.125
309
GRIDFORMAT_END
 95
        8
302
GRIDFORMAT
  1
GRIDFORMAT_BEGIN
 90
        0
 91
        1
 62
     0
 92
       -2
340
14
 93
        0
 40
1.125
309
GRIDFORMAT_END
 95
       16
302
GRIDFORMAT
  1
GRIDFORMAT_BEGIN
 90
        0
 91
        1
 62
     0
 92
       -2
340
14
 93
        0
 40
1.125
309
GRIDFORMAT_END
 95
       32
302
GRIDFORMAT
  1
GRIDFORMAT_BEGIN
 90
        0
 91
        1
 62
     0
 92
       -2
340
14
 93
        0
 40
1.125
309
GRIDFORMAT_END
309
TABLEFORMAT_END
  1
CELLSTYLE_BEGIN
 90
        1
 91
        1
300
_TITLE
309
CELLSTYLE_END
300
CELLSTYLE
  1
TABLEFORMAT_BEGIN
 90
        5
170
     1
 91
        0
 92
        0
 62
   257
 93
        1
300
CONTENTFORMAT
  1
CONTENTFORMAT_BEGIN
 90
        0
 91
        0
 92
      512
 93
        0
300

 40
0.0
140
1.0
 94
        5
 62
     0
340
11
144
4.5
309
CONTENTFORMAT_END
171
     1
301
MARGIN
  1
CELLMARGIN_BEGIN
 40
1.5
 40
1.5
 40
1.5
 40
1.5
 40
0.18
 40
0.18
309
CELLMARGIN_END
 94
        6
 95
        1
302
GRIDFORMAT
  1
GRIDFORMAT_BEGIN
 90
        0
 91
        1
 62
     0
 92
       -2
340
14
 93
        0
 40
1.125
309
GRIDFORMAT_END
 95
        2
302
GRIDFORMAT
  1
GRIDFORMAT_BEGIN
 90
        0
 91
        1
 62
     0
 92
       -2
340
14
 93
        0
 40
1.125
309
GRIDFORMAT_END
 95
        4
302
GRIDFORMAT
  1
GRIDFORMAT_BEGIN
 90
        0
 91
        1
 62
     0
 92
       -2
340
14
 93
        0
 40
1.125
309
GRIDFORMAT_END
 95
        8
302
GRIDFORMAT
  1
GRIDFORMAT_BEGIN
 90
        0
 91
        1
 62
     0
 92
       -2
340
14
 93
        0
 40
1.125
309
GRIDFORMAT_END
 95
       16
302
GRIDFORMAT
  1
GRIDFORMAT_BEGIN
 90
        0
 91
        1
 62
     0
 92
       -2
340
14
 93
        0
 40
1.125
309
GRIDFORMAT_END
 95
       32
302
GRIDFORMAT
  1
GRIDFORMAT_BEGIN
 90
        0
 91
        1
 62
     0
 92
       -2
340
14
 93
        0
 40
1.125
309
GRIDFORMAT_END
309
TABLEFORMAT_END
  1
CELLSTYLE_BEGIN
 90
        2
 91
        1
300
_HEADER
309
CELLSTYLE_END
300
CELLSTYLE
  1
TABLEFORMAT_BEGIN
 90
        5
170
     1
 91
        0
 92
        0
 62
   257
 93
        1
300
CONTENTFORMAT
  1
CONTENTFORMAT_BEGIN
 90
        0
 91
        0
 92
      512
 93
        0
300

 40
0.0
140
1.0
 94
        2
 62
     0
340
11
144
4.5
309
CONTENTFORMAT_END
171
     1
301
MARGIN
  1
CELLMARGIN_BEGIN
 40
1.5
 40
1.5
 40
1.5
 40
1.5
 40
0.18
 40
0.18
309
CELLMARGIN_END
 94
        6
 95
        1
302
GRIDFORMAT
  1
GRIDFORMAT_BEGIN
 90
        0
 91
        1
 62
     0
 92
       -2
340
14
 93
        0
 40
1.125
309
GRIDFORMAT_END
 95
        2
302
GRIDFORMAT
  1
GRIDFORMAT_BEGIN
 90
        0
 91
        1
 62
     0
 92
       -2
340
14
 93
        0
 40
1.125
309
GRIDFORMAT_END
 95
        4
302
GRIDFORMAT
  1
GRIDFORMAT_BEGIN
 90
        0
 91
        1
 62
     0
 92
       -2
340
14
 93
        0
 40
1.125
309
GRIDFORMAT_END
 95
        8
302
GRIDFORMAT
  1
GRIDFORMAT_BEGIN
 90
        0
 91
        1
 62
     0
 92
       -2
340
14
 93
        0
 40
1.125
309
GRIDFORMAT_END
 95
       16
302
GRIDFORMAT
  1
GRIDFORMAT_BEGIN
 90
        0
 91
        1
 62
     0
 92
       -2
340
14
 93
        0
 40
1.125
309
GRIDFORMAT_END
 95
       32
302
GRIDFORMAT
  1
GRIDFORMAT_BEGIN
 90
        0
 91
        1
 62
     0
 92
       -2
340
14
 93
        0
 40
1.125
309
GRIDFORMAT_END
309
TABLEFORMAT_END
  1
CELLSTYLE_BEGIN
 90
        3
 91
        2
300
_DATA
309
CELLSTYLE_END
  0
XRECORD
  5
831
102
{ACAD_REACTORS
330
162
102
}
330
162
100
AcDbXrecord
280
     1
102
ACAD_ROUNDTRIP_PRE2007_TABLESTYLE
 90
      512
 91
        0
  1

 92
      512
 93
        0
  2

 94
      512
 95
        0
  3

  0
XRECORD
  5
841
102
{ACAD_REACTORS
330
840
102
}
330
840
100
AcDbXrecord
280
     1
102
RTVSPropertyOp0
 70
     1
102
RTVSPropertyOp1
 70
     1
102
RTVSPropertyOp2
 70
     1
102
RTVSPropertyOp3
 70
     1
102
RTVSPropertyOp4
 70
     1
102
RTVSPropertyOp5
 70
     1
102
RTVSPropertyOp6
 70
     1
102
RTVSPropertyOp7
 70
     1
102
RTVSPropertyOp8
 70
     1
102
RTVSPropertyOp9
 70
     1
102
RTVSPropertyOp10
 70
     1
102
RTVSPropertyOp11
 70
     1
102
RTVSPropertyOp12
 70
     1
102
RTVSPropertyOp13
 70
     1
102
RTVSPropertyOp14
 70
     1
102
RTVSPropertyOp15
 70
     1
102
RTVSPropertyOp16
 70
     1
102
RTVSPropertyOp17
 70
     1
102
RTVSPropertyOp18
 70
     1
102
RTVSPropertyOp19
 70
     1
102
RTVSPropertyOp20
 70
     1
102
RTVSPropertyOp21
 70
     1
102
RTVSPropertyOp22
 70
     1
102
RTVSPropertyOp23
 70
     1
102
RTVSPropertyOp24
 70
     1
102
RTVSPropertyOp25
 70
     1
102
RTVSPropertyOp26
 70
     1
102
RTVSPropertyOp27
 70
     1
102
RTVSPropertyOp28
 70
     1
102
RTVSPropertyOp29
 70
     1
102
RTVSPropertyOp30
 70
     1
102
RTVSPropertyOp31
 70
     1
102
RTVSPropertyOp32
 70
     1
  0
XRECORD
  5
869
102
{ACAD_REACTORS
330
868
102
}
330
868
100
AcDbXrecord
280
     1
102
RTVSPropertyOp0
 70
     1
102
RTVSPropertyOp1
 70
     1
102
RTVSPropertyOp2
 70
     1
102
RTVSPropertyOp3
 70
     1
102
RTVSPropertyOp4
 70
     1
102
RTVSPropertyOp5
 70
     1
102
RTVSPropertyOp6
 70
     1
102
RTVSPropertyOp7
 70
     1
102
RTVSPropertyOp8
 70
     1
102
RTVSPropertyOp9
 70
     1
102
RTVSPropertyOp10
 70
     1
102
RTVSPropertyOp11
 70
     1
102
RTVSPropertyOp12
 70
     1
102
RTVSPropertyOp13
 70
     1
102
RTVSPropertyOp14
 70
     1
102
RTVSPropertyOp15
 70
     1
102
RTVSPropertyOp16
 70
     1
102
RTVSPropertyOp17
 70
     1
102
RTVSPropertyOp18
 70
     1
102
RTVSPropertyOp19
 70
     1
102
RTVSPropertyOp20
 70
     1
102
RTVSPropertyOp21
 70
     1
102
RTVSPropertyOp22
 70
     1
102
RTVSPropertyOp23
 70
     1
102
RTVSPropertyOp24
 70
     1
102
RTVSPropertyOp25
 70
     1
102
RTVSPropertyOp26
 70
     1
102
RTVSPropertyOp27
 70
     1
102
RTVSPropertyOp28
 70
     1
102
RTVSPropertyOp29
 70
     1
102
RTVSPropertyOp30
 70
     1
102
RTVSPropertyOp31
 70
     1
102
RTVSPropertyOp32
 70
     1
  0
XRECORD
  5
867
102
{ACAD_REACTORS
330
866
102
}
330
866
100
AcDbXrecord
280
     1
102
RTVSPropertyOp0
 70
     1
102
RTVSPropertyOp1
 70
     1
102
RTVSPropertyOp2
 70
     1
102
RTVSPropertyOp3
 70
     1
102
RTVSPropertyOp4
 70
     1
102
RTVSPropertyOp5
 70
     1
102
RTVSPropertyOp6
 70
     1
102
RTVSPropertyOp7
 70
     1
102
RTVSPropertyOp8
 70
     1
102
RTVSPropertyOp9
 70
     1
102
RTVSPropertyOp10
 70
     1
102
RTVSPropertyOp11
 70
     1
102
RTVSPropertyOp12
 70
     1
102
RTVSPropertyOp13
 70
     1
102
RTVSPropertyOp14
 70
     1
102
RTVSPropertyOp15
 70
     1
102
RTVSPropertyOp16
 70
     1
102
RTVSPropertyOp17
 70
     1
102
RTVSPropertyOp18
 70
     1
102
RTVSPropertyOp19
 70
     1
102
RTVSPropertyOp20
 70
     1
102
RTVSPropertyOp21
 70
     1
102
RTVSPropertyOp22
 70
     1
102
RTVSPropertyOp23
 70
     1
102
RTVSPropertyOp24
 70
     1
102
RTVSPropertyOp25
 70
     1
102
RTVSPropertyOp26
 70
     1
102
RTVSPropertyOp27
 70
     1
102
RTVSPropertyOp28
 70
     1
102
RTVSPropertyOp29
 70
     1
102
RTVSPropertyOp30
 70
     1
102
RTVSPropertyOp31
 70
     1
102
RTVSPropertyOp32
 70
     1
  0
XRECORD
  5
83F
102
{ACAD_REACTORS
330
83E
102
}
330
83E
100
AcDbXrecord
280
     1
102
RTVSPropertyOp0
 70
     1
102
RTVSPropertyOp1
 70
     1
102
RTVSPropertyOp2
 70
     1
102
RTVSPropertyOp3
 70
     1
102
RTVSPropertyOp4
 70
     1
102
RTVSPropertyOp5
 70
     1
102
RTVSPropertyOp6
 70
     1
102
RTVSPropertyOp7
 70
     1
102
RTVSPropertyOp8
 70
     1
102
RTVSPropertyOp9
 70
     1
102
RTVSPropertyOp10
 70
     1
102
RTVSPropertyOp11
 70
     1
102
RTVSPropertyOp12
 70
     1
102
RTVSPropertyOp13
 70
     1
102
RTVSPropertyOp14
 70
     1
102
RTVSPropertyOp15
 70
     1
102
RTVSPropertyOp16
 70
     1
102
RTVSPropertyOp17
 70
     1
102
RTVSPropertyOp18
 70
     1
102
RTVSPropertyOp19
 70
     1
102
RTVSPropertyOp20
 70
     1
102
RTVSPropertyOp21
 70
     1
102
RTVSPropertyOp22
 70
     1
102
RTVSPropertyOp23
 70
     1
102
RTVSPropertyOp24
 70
     1
102
RTVSPropertyOp25
 70
     1
102
RTVSPropertyOp26
 70
     1
102
RTVSPropertyOp27
 70
     1
102
RTVSPropertyOp28
 70
     1
102
RTVSPropertyOp29
 70
     1
102
RTVSPropertyOp30
 70
     1
102
RTVSPropertyOp31
 70
     1
102
RTVSPropertyOp32
 70
     1
  0
XRECORD
  5
84D
102
{ACAD_REACTORS
330
84C
102
}
330
84C
100
AcDbXrecord
280
     1
102
RTVSPropertyOp0
 70
     1
102
RTVSPropertyOp1
 70
     1
102
RTVSPropertyOp2
 70
     1
102
RTVSPropertyOp3
 70
     1
102
RTVSPropertyOp4
 70
     1
102
RTVSPropertyOp5
 70
     1
102
RTVSPropertyOp6
 70
     1
102
RTVSPropertyOp7
 70
     1
102
RTVSPropertyOp8
 70
     1
102
RTVSPropertyOp9
 70
     1
102
RTVSPropertyOp10
 70
     1
102
RTVSPropertyOp11
 70
     1
102
RTVSPropertyOp12
 70
     1
102
RTVSPropertyOp13
 70
     1
102
RTVSPropertyOp14
 70
     1
102
RTVSPropertyOp15
 70
     1
102
RTVSPropertyOp16
 70
     1
102
RTVSPropertyOp17
 70
     1
102
RTVSPropertyOp18
 70
     1
102
RTVSPropertyOp19
 70
     1
102
RTVSPropertyOp20
 70
     1
102
RTVSPropertyOp21
 70
     1
102
RTVSPropertyOp22
 70
     1
102
RTVSPropertyOp23
 70
     1
102
RTVSPropertyOp24
 70
     1
102
RTVSPropertyOp25
 70
     1
102
RTVSPropertyOp26
 70
     1
102
RTVSPropertyOp27
 70
     1
102
RTVSPropertyOp28
 70
     1
102
RTVSPropertyOp29
 70
     1
102
RTVSPropertyOp30
 70
     1
102
RTVSPropertyOp31
 70
     1
102
RTVSPropertyOp32
 70
     1
  0
XRECORD
  5
855
102
{ACAD_REACTORS
330
854
102
}
330
854
100
AcDbXrecord
280
     1
102
RTVSPropertyOp0
 70
     1
102
RTVSPropertyOp1
 70
     1
102
RTVSPropertyOp2
 70
     1
102
RTVSPropertyOp3
 70
     1
102
RTVSPropertyOp4
 70
     1
102
RTVSPropertyOp5
 70
     1
102
RTVSPropertyOp6
 70
     1
102
RTVSPropertyOp7
 70
     1
102
RTVSPropertyOp8
 70
     1
102
RTVSPropertyOp9
 70
     1
102
RTVSPropertyOp10
 70
     1
102
RTVSPropertyOp11
 70
     1
102
RTVSPropertyOp12
 70
     1
102
RTVSPropertyOp13
 70
     1
102
RTVSPropertyOp14
 70
     1
102
RTVSPropertyOp15
 70
     1
102
RTVSPropertyOp16
 70
     1
102
RTVSPropertyOp17
 70
     1
102
RTVSPropertyOp18
 70
     1
102
RTVSPropertyOp19
 70
     1
102
RTVSPropertyOp20
 70
     1
102
RTVSPropertyOp21
 70
     1
102
RTVSPropertyOp22
 70
     1
102
RTVSPropertyOp23
 70
     1
102
RTVSPropertyOp24
 70
     1
102
RTVSPropertyOp25
 70
     1
102
RTVSPropertyOp26
 70
     1
102
RTVSPropertyOp27
 70
     1
102
RTVSPropertyOp28
 70
     1
102
RTVSPropertyOp29
 70
     1
102
RTVSPropertyOp30
 70
     1
102
RTVSPropertyOp31
 70
     1
102
RTVSPropertyOp32
 70
     1
  0
XRECORD
  5
847
102
{ACAD_REACTORS
330
846
102
}
330
846
100
AcDbXrecord
280
     1
102
RTVSPropertyOp0
 70
     1
102
RTVSPropertyOp1
 70
     1
102
RTVSPropertyOp2
 70
     1
102
RTVSPropertyOp3
 70
     1
102
RTVSPropertyOp4
 70
     1
102
RTVSPropertyOp5
 70
     1
102
RTVSPropertyOp6
 70
     1
102
RTVSPropertyOp7
 70
     1
102
RTVSPropertyOp8
 70
     1
102
RTVSPropertyOp9
 70
     1
102
RTVSPropertyOp10
 70
     1
102
RTVSPropertyOp11
 70
     1
102
RTVSPropertyOp12
 70
     1
102
RTVSPropertyOp13
 70
     1
102
RTVSPropertyOp14
 70
     1
102
RTVSPropertyOp15
 70
     1
102
RTVSPropertyOp16
 70
     1
102
RTVSPropertyOp17
 70
     1
102
RTVSPropertyOp18
 70
     1
102
RTVSPropertyOp19
 70
     1
102
RTVSPropertyOp20
 70
     1
102
RTVSPropertyOp21
 70
     1
102
RTVSPropertyOp22
 70
     1
102
RTVSPropertyOp23
 70
     1
102
RTVSPropertyOp24
 70
     1
102
RTVSPropertyOp25
 70
     1
102
RTVSPropertyOp26
 70
     1
102
RTVSPropertyOp27
 70
     1
102
RTVSPropertyOp28
 70
     1
102
RTVSPropertyOp29
 70
     1
102
RTVSPropertyOp30
 70
     1
102
RTVSPropertyOp31
 70
     1
102
RTVSPropertyOp32
 70
     1
  0
XRECORD
  5
84B
102
{ACAD_REACTORS
330
84A
102
}
330
84A
100
AcDbXrecord
280
     1
102
RTVSPropertyOp0
 70
     1
102
RTVSPropertyOp1
 70
     1
102
RTVSPropertyOp2
 70
     1
102
RTVSPropertyOp3
 70
     1
102
RTVSPropertyOp4
 70
     1
102
RTVSPropertyOp5
 70
     1
102
RTVSPropertyOp6
 70
     1
102
RTVSPropertyOp7
 70
     1
102
RTVSPropertyOp8
 70
     1
102
RTVSPropertyOp9
 70
     1
102
RTVSPropertyOp10
 70
     1
102
RTVSPropertyOp11
 70
     1
102
RTVSPropertyOp12
 70
     1
102
RTVSPropertyOp13
 70
     1
102
RTVSPropertyOp14
 70
     1
102
RTVSPropertyOp15
 70
     1
102
RTVSPropertyOp16
 70
     1
102
RTVSPropertyOp17
 70
     1
102
RTVSPropertyOp18
 70
     1
102
RTVSPropertyOp19
 70
     1
102
RTVSPropertyOp20
 70
     1
102
RTVSPropertyOp21
 70
     1
102
RTVSPropertyOp22
 70
     1
102
RTVSPropertyOp23
 70
     1
102
RTVSPropertyOp24
 70
     1
102
RTVSPropertyOp25
 70
     1
102
RTVSPropertyOp26
 70
     1
102
RTVSPropertyOp27
 70
     1
102
RTVSPropertyOp28
 70
     1
102
RTVSPropertyOp29
 70
     1
102
RTVSPropertyOp30
 70
     1
102
RTVSPropertyOp31
 70
     1
102
RTVSPropertyOp32
 70
     1
  0
XRECORD
  5
85B
102
{ACAD_REACTORS
330
85A
102
}
330
85A
100
AcDbXrecord
280
     1
102
RTVSPropertyOp0
 70
     0
102
RTVSPropertyOp1
 70
     0
102
RTVSPropertyOp2
 70
     0
102
RTVSPropertyOp3
 70
     0
102
RTVSPropertyOp4
 70
     0
102
RTVSPropertyOp5
 70
     0
102
RTVSPropertyOp6
 70
     0
102
RTVSPropertyOp7
 70
     0
102
RTVSPropertyOp8
 70
     0
102
RTVSPropertyOp9
 70
     0
102
RTVSPropertyOp10
 70
     0
102
RTVSPropertyOp11
 70
     0
102
RTVSPropertyOp12
 70
     0
102
RTVSPropertyOp13
 70
     0
102
RTVSPropertyOp14
 70
     2
102
RTVSPropertyOp15
 70
     0
102
RTVSPropertyOp16
 70
     0
102
RTVSPropertyOp17
 70
     0
102
RTVSPropertyOp18
 70
     0
102
RTVSPropertyOp19
 70
     0
102
RTVSPropertyOp20
 70
     0
102
RTVSPropertyOp21
 70
     0
102
RTVSPropertyOp22
 70
     0
102
RTVSPropertyOp23
 70
     0
102
RTVSPropertyOp24
 70
     0
102
RTVSPropertyOp25
 70
     0
102
RTVSPropertyOp26
 70
     0
102
RTVSPropertyOp27
 70
     0
102
RTVSPropertyOp28
 70
     1
102
RTVSPropertyOp29
 70
     1
102
RTVSPropertyOp30
 70
     1
102
RTVSPropertyOp31
 70
     1
102
RTVSPropertyOp32
 70
     1
  0
XRECORD
  5
853
102
{ACAD_REACTORS
330
852
102
}
330
852
100
AcDbXrecord
280
     1
102
RTVSPropertyOp0
 70
     1
102
RTVSPropertyOp1
 70
     1
102
RTVSPropertyOp2
 70
     1
102
RTVSPropertyOp3
 70
     1
102
RTVSPropertyOp4
 70
     1
102
RTVSPropertyOp5
 70
     1
102
RTVSPropertyOp6
 70
     1
102
RTVSPropertyOp7
 70
     1
102
RTVSPropertyOp8
 70
     1
102
RTVSPropertyOp9
 70
     1
102
RTVSPropertyOp10
 70
     1
102
RTVSPropertyOp11
 70
     1
102
RTVSPropertyOp12
 70
     1
102
RTVSPropertyOp13
 70
     1
102
RTVSPropertyOp14
 70
     1
102
RTVSPropertyOp15
 70
     1
102
RTVSPropertyOp16
 70
     1
102
RTVSPropertyOp17
 70
     1
102
RTVSPropertyOp18
 70
     1
102
RTVSPropertyOp19
 70
     1
102
RTVSPropertyOp20
 70
     1
102
RTVSPropertyOp21
 70
     1
102
RTVSPropertyOp22
 70
     1
102
RTVSPropertyOp23
 70
     1
102
RTVSPropertyOp24
 70
     1
102
RTVSPropertyOp25
 70
     1
102
RTVSPropertyOp26
 70
     1
102
RTVSPropertyOp27
 70
     1
102
RTVSPropertyOp28
 70
     1
102
RTVSPropertyOp29
 70
     1
102
RTVSPropertyOp30
 70
     1
102
RTVSPropertyOp31
 70
     1
102
RTVSPropertyOp32
 70
     1
  0
XRECORD
  5
837
102
{ACAD_REACTORS
330
836
102
}
330
836
100
AcDbXrecord
280
     1
102
RTVSPropertyOp0
 70
     1
102
RTVSPropertyOp1
 70
     1
102
RTVSPropertyOp2
 70
     1
102
RTVSPropertyOp3
 70
     1
102
RTVSPropertyOp4
 70
     1
102
RTVSPropertyOp5
 70
     1
102
RTVSPropertyOp6
 70
     1
102
RTVSPropertyOp7
 70
     1
102
RTVSPropertyOp8
 70
     1
102
RTVSPropertyOp9
 70
     1
102
RTVSPropertyOp10
 70
     1
102
RTVSPropertyOp11
 70
     1
102
RTVSPropertyOp12
 70
     1
102
RTVSPropertyOp13
 70
     1
102
RTVSPropertyOp14
 70
     1
102
RTVSPropertyOp15
 70
     1
102
RTVSPropertyOp16
 70
     1
102
RTVSPropertyOp17
 70
     1
102
RTVSPropertyOp18
 70
     1
102
RTVSPropertyOp19
 70
     1
102
RTVSPropertyOp20
 70
     1
102
RTVSPropertyOp21
 70
     1
102
RTVSPropertyOp22
 70
     1
102
RTVSPropertyOp23
 70
     1
102
RTVSPropertyOp24
 70
     1
102
RTVSPropertyOp25
 70
     1
102
RTVSPropertyOp26
 70
     1
102
RTVSPropertyOp27
 70
     1
102
RTVSPropertyOp28
 70
     1
102
RTVSPropertyOp29
 70
     1
102
RTVSPropertyOp30
 70
     1
102
RTVSPropertyOp31
 70
     1
102
RTVSPropertyOp32
 70
     1
  0
XRECORD
  5
839
102
{ACAD_REACTORS
330
838
102
}
330
838
100
AcDbXrecord
280
     1
102
RTVSPropertyOp0
 70
     1
102
RTVSPropertyOp1
 70
     1
102
RTVSPropertyOp2
 70
     1
102
RTVSPropertyOp3
 70
     1
102
RTVSPropertyOp4
 70
     1
102
RTVSPropertyOp5
 70
     1
102
RTVSPropertyOp6
 70
     1
102
RTVSPropertyOp7
 70
     1
102
RTVSPropertyOp8
 70
     1
102
RTVSPropertyOp9
 70
     1
102
RTVSPropertyOp10
 70
     1
102
RTVSPropertyOp11
 70
     1
102
RTVSPropertyOp12
 70
     1
102
RTVSPropertyOp13
 70
     1
102
RTVSPropertyOp14
 70
     1
102
RTVSPropertyOp15
 70
     1
102
RTVSPropertyOp16
 70
     1
102
RTVSPropertyOp17
 70
     1
102
RTVSPropertyOp18
 70
     1
102
RTVSPropertyOp19
 70
     1
102
RTVSPropertyOp20
 70
     1
102
RTVSPropertyOp21
 70
     1
102
RTVSPropertyOp22
 70
     1
102
RTVSPropertyOp23
 70
     1
102
RTVSPropertyOp24
 70
     1
102
RTVSPropertyOp25
 70
     1
102
RTVSPropertyOp26
 70
     1
102
RTVSPropertyOp27
 70
     1
102
RTVSPropertyOp28
 70
     1
102
RTVSPropertyOp29
 70
     1
102
RTVSPropertyOp30
 70
     1
102
RTVSPropertyOp31
 70
     1
102
RTVSPropertyOp32
 70
     1
  0
XRECORD
  5
83B
102
{ACAD_REACTORS
330
83A
102
}
330
83A
100
AcDbXrecord
280
     1
102
RTVSPropertyOp0
 70
     1
102
RTVSPropertyOp1
 70
     1
102
RTVSPropertyOp2
 70
     1
102
RTVSPropertyOp3
 70
     1
102
RTVSPropertyOp4
 70
     1
102
RTVSPropertyOp5
 70
     1
102
RTVSPropertyOp6
 70
     1
102
RTVSPropertyOp7
 70
     1
102
RTVSPropertyOp8
 70
     1
102
RTVSPropertyOp9
 70
     1
102
RTVSPropertyOp10
 70
     1
102
RTVSPropertyOp11
 70
     1
102
RTVSPropertyOp12
 70
     1
102
RTVSPropertyOp13
 70
     1
102
RTVSPropertyOp14
 70
     1
102
RTVSPropertyOp15
 70
     1
102
RTVSPropertyOp16
 70
     1
102
RTVSPropertyOp17
 70
     1
102
RTVSPropertyOp18
 70
     1
102
RTVSPropertyOp19
 70
     1
102
RTVSPropertyOp20
 70
     1
102
RTVSPropertyOp21
 70
     1
102
RTVSPropertyOp22
 70
     1
102
RTVSPropertyOp23
 70
     1
102
RTVSPropertyOp24
 70
     1
102
RTVSPropertyOp25
 70
     1
102
RTVSPropertyOp26
 70
     1
102
RTVSPropertyOp27
 70
     1
102
RTVSPropertyOp28
 70
     1
102
RTVSPropertyOp29
 70
     1
102
RTVSPropertyOp30
 70
     1
102
RTVSPropertyOp31
 70
     1
102
RTVSPropertyOp32
 70
     1
  0
XRECORD
  5
83D
102
{ACAD_REACTORS
330
83C
102
}
330
83C
100
AcDbXrecord
280
     1
102
RTVSPropertyOp0
 70
     1
102
RTVSPropertyOp1
 70
     1
102
RTVSPropertyOp2
 70
     1
102
RTVSPropertyOp3
 70
     1
102
RTVSPropertyOp4
 70
     1
102
RTVSPropertyOp5
 70
     1
102
RTVSPropertyOp6
 70
     1
102
RTVSPropertyOp7
 70
     1
102
RTVSPropertyOp8
 70
     1
102
RTVSPropertyOp9
 70
     1
102
RTVSPropertyOp10
 70
     1
102
RTVSPropertyOp11
 70
     1
102
RTVSPropertyOp12
 70
     1
102
RTVSPropertyOp13
 70
     1
102
RTVSPropertyOp14
 70
     1
102
RTVSPropertyOp15
 70
     1
102
RTVSPropertyOp16
 70
     1
102
RTVSPropertyOp17
 70
     1
102
RTVSPropertyOp18
 70
     1
102
RTVSPropertyOp19
 70
     1
102
RTVSPropertyOp20
 70
     1
102
RTVSPropertyOp21
 70
     1
102
RTVSPropertyOp22
 70
     1
102
RTVSPropertyOp23
 70
     1
102
RTVSPropertyOp24
 70
     1
102
RTVSPropertyOp25
 70
     1
102
RTVSPropertyOp26
 70
     1
102
RTVSPropertyOp27
 70
     1
102
RTVSPropertyOp28
 70
     1
102
RTVSPropertyOp29
 70
     1
102
RTVSPropertyOp30
 70
     1
102
RTVSPropertyOp31
 70
     1
102
RTVSPropertyOp32
 70
     1
  0
XRECORD
  5
845
102
{ACAD_REACTORS
330
844
102
}
330
844
100
AcDbXrecord
280
     1
102
RTVSPropertyOp0
 70
     1
102
RTVSPropertyOp1
 70
     1
102
RTVSPropertyOp2
 70
     1
102
RTVSPropertyOp3
 70
     1
102
RTVSPropertyOp4
 70
     1
102
RTVSPropertyOp5
 70
     1
102
RTVSPropertyOp6
 70
     1
102
RTVSPropertyOp7
 70
     1
102
RTVSPropertyOp8
 70
     1
102
RTVSPropertyOp9
 70
     1
102
RTVSPropertyOp10
 70
     1
102
RTVSPropertyOp11
 70
     1
102
RTVSPropertyOp12
 70
     1
102
RTVSPropertyOp13
 70
     1
102
RTVSPropertyOp14
 70
     1
102
RTVSPropertyOp15
 70
     1
102
RTVSPropertyOp16
 70
     1
102
RTVSPropertyOp17
 70
     1
102
RTVSPropertyOp18
 70
     1
102
RTVSPropertyOp19
 70
     1
102
RTVSPropertyOp20
 70
     1
102
RTVSPropertyOp21
 70
     1
102
RTVSPropertyOp22
 70
     1
102
RTVSPropertyOp23
 70
     1
102
RTVSPropertyOp24
 70
     1
102
RTVSPropertyOp25
 70
     1
102
RTVSPropertyOp26
 70
     1
102
RTVSPropertyOp27
 70
     1
102
RTVSPropertyOp28
 70
     1
102
RTVSPropertyOp29
 70
     1
102
RTVSPropertyOp30
 70
     1
102
RTVSPropertyOp31
 70
     1
102
RTVSPropertyOp32
 70
     1
  0
XRECORD
  5
857
102
{ACAD_REACTORS
330
856
102
}
330
856
100
AcDbXrecord
280
     1
102
RTVSPropertyOp0
 70
     0
102
RTVSPropertyOp1
 70
     0
102
RTVSPropertyOp2
 70
     0
102
RTVSPropertyOp3
 70
     0
102
RTVSPropertyOp4
 70
     0
102
RTVSPropertyOp5
 70
     0
102
RTVSPropertyOp6
 70
     0
102
RTVSPropertyOp7
 70
     0
102
RTVSPropertyOp8
 70
     0
102
RTVSPropertyOp9
 70
     0
102
RTVSPropertyOp10
 70
     0
102
RTVSPropertyOp11
 70
     0
102
RTVSPropertyOp12
 70
     0
102
RTVSPropertyOp13
 70
     0
102
RTVSPropertyOp14
 70
     2
102
RTVSPropertyOp15
 70
     0
102
RTVSPropertyOp16
 70
     0
102
RTVSPropertyOp17
 70
     0
102
RTVSPropertyOp18
 70
     0
102
RTVSPropertyOp19
 70
     0
102
RTVSPropertyOp20
 70
     0
102
RTVSPropertyOp21
 70
     0
102
RTVSPropertyOp22
 70
     0
102
RTVSPropertyOp23
 70
     0
102
RTVSPropertyOp24
 70
     0
102
RTVSPropertyOp25
 70
     0
102
RTVSPropertyOp26
 70
     0
102
RTVSPropertyOp27
 70
     0
102
RTVSPropertyOp28
 70
     1
102
RTVSPropertyOp29
 70
     1
102
RTVSPropertyOp30
 70
     1
102
RTVSPropertyOp31
 70
     1
102
RTVSPropertyOp32
 70
     1
  0
XRECORD
  5
851
102
{ACAD_REACTORS
330
850
102
}
330
850
100
AcDbXrecord
280
     1
102
RTVSPropertyOp0
 70
     1
102
RTVSPropertyOp1
 70
     1
102
RTVSPropertyOp2
 70
     1
102
RTVSPropertyOp3
 70
     1
102
RTVSPropertyOp4
 70
     1
102
RTVSPropertyOp5
 70
     1
102
RTVSPropertyOp6
 70
     1
102
RTVSPropertyOp7
 70
     1
102
RTVSPropertyOp8
 70
     1
102
RTVSPropertyOp9
 70
     1
102
RTVSPropertyOp10
 70
     1
102
RTVSPropertyOp11
 70
     1
102
RTVSPropertyOp12
 70
     1
102
RTVSPropertyOp13
 70
     1
102
RTVSPropertyOp14
 70
     1
102
RTVSPropertyOp15
 70
     1
102
RTVSPropertyOp16
 70
     1
102
RTVSPropertyOp17
 70
     1
102
RTVSPropertyOp18
 70
     1
102
RTVSPropertyOp19
 70
     1
102
RTVSPropertyOp20
 70
     1
102
RTVSPropertyOp21
 70
     1
102
RTVSPropertyOp22
 70
     1
102
RTVSPropertyOp23
 70
     1
102
RTVSPropertyOp24
 70
     1
102
RTVSPropertyOp25
 70
     1
102
RTVSPropertyOp26
 70
     1
102
RTVSPropertyOp27
 70
     1
102
RTVSPropertyOp28
 70
     1
102
RTVSPropertyOp29
 70
     1
102
RTVSPropertyOp30
 70
     1
102
RTVSPropertyOp31
 70
     1
102
RTVSPropertyOp32
 70
     1
  0
XRECORD
  5
859
102
{ACAD_REACTORS
330
858
102
}
330
858
100
AcDbXrecord
280
     1
102
RTVSPropertyOp0
 70
     0
102
RTVSPropertyOp1
 70
     0
102
RTVSPropertyOp2
 70
     0
102
RTVSPropertyOp3
 70
     0
102
RTVSPropertyOp4
 70
     0
102
RTVSPropertyOp5
 70
     0
102
RTVSPropertyOp6
 70
     0
102
RTVSPropertyOp7
 70
     0
102
RTVSPropertyOp8
 70
     0
102
RTVSPropertyOp9
 70
     0
102
RTVSPropertyOp10
 70
     0
102
RTVSPropertyOp11
 70
     0
102
RTVSPropertyOp12
 70
     0
102
RTVSPropertyOp13
 70
     0
102
RTVSPropertyOp14
 70
     2
102
RTVSPropertyOp15
 70
     0
102
RTVSPropertyOp16
 70
     0
102
RTVSPropertyOp17
 70
     0
102
RTVSPropertyOp18
 70
     0
102
RTVSPropertyOp19
 70
     0
102
RTVSPropertyOp20
 70
     0
102
RTVSPropertyOp21
 70
     0
102
RTVSPropertyOp22
 70
     0
102
RTVSPropertyOp23
 70
     0
102
RTVSPropertyOp24
 70
     0
102
RTVSPropertyOp25
 70
     0
102
RTVSPropertyOp26
 70
     0
102
RTVSPropertyOp27
 70
     0
102
RTVSPropertyOp28
 70
     1
102
RTVSPropertyOp29
 70
     1
102
RTVSPropertyOp30
 70
     1
102
RTVSPropertyOp31
 70
     1
102
RTVSPropertyOp32
 70
     1
  0
XRECORD
  5
849
102
{ACAD_REACTORS
330
848
102
}
330
848
100
AcDbXrecord
280
     1
102
RTVSPropertyOp0
 70
     1
102
RTVSPropertyOp1
 70
     1
102
RTVSPropertyOp2
 70
     1
102
RTVSPropertyOp3
 70
     1
102
RTVSPropertyOp4
 70
     1
102
RTVSPropertyOp5
 70
     1
102
RTVSPropertyOp6
 70
     1
102
RTVSPropertyOp7
 70
     1
102
RTVSPropertyOp8
 70
     1
102
RTVSPropertyOp9
 70
     1
102
RTVSPropertyOp10
 70
     1
102
RTVSPropertyOp11
 70
     1
102
RTVSPropertyOp12
 70
     1
102
RTVSPropertyOp13
 70
     1
102
RTVSPropertyOp14
 70
     1
102
RTVSPropertyOp15
 70
     1
102
RTVSPropertyOp16
 70
     1
102
RTVSPropertyOp17
 70
     1
102
RTVSPropertyOp18
 70
     1
102
RTVSPropertyOp19
 70
     1
102
RTVSPropertyOp20
 70
     1
102
RTVSPropertyOp21
 70
     1
102
RTVSPropertyOp22
 70
     1
102
RTVSPropertyOp23
 70
     1
102
RTVSPropertyOp24
 70
     1
102
RTVSPropertyOp25
 70
     1
102
RTVSPropertyOp26
 70
     1
102
RTVSPropertyOp27
 70
     1
102
RTVSPropertyOp28
 70
     1
102
RTVSPropertyOp29
 70
     1
102
RTVSPropertyOp30
 70
     1
102
RTVSPropertyOp31
 70
     1
102
RTVSPropertyOp32
 70
     1
  0
XRECORD
  5
865
102
{ACAD_REACTORS
330
864
102
}
330
864
100
AcDbXrecord
280
     1
102
RTVSPropertyOp0
 70
     1
102
RTVSPropertyOp1
 70
     1
102
RTVSPropertyOp2
 70
     1
102
RTVSPropertyOp3
 70
     1
102
RTVSPropertyOp4
 70
     1
102
RTVSPropertyOp5
 70
     1
102
RTVSPropertyOp6
 70
     1
102
RTVSPropertyOp7
 70
     1
102
RTVSPropertyOp8
 70
     1
102
RTVSPropertyOp9
 70
     1
102
RTVSPropertyOp10
 70
     1
102
RTVSPropertyOp11
 70
     1
102
RTVSPropertyOp12
 70
     1
102
RTVSPropertyOp13
 70
     1
102
RTVSPropertyOp14
 70
     1
102
RTVSPropertyOp15
 70
     1
102
RTVSPropertyOp16
 70
     1
102
RTVSPropertyOp17
 70
     1
102
RTVSPropertyOp18
 70
     1
102
RTVSPropertyOp19
 70
     1
102
RTVSPropertyOp20
 70
     1
102
RTVSPropertyOp21
 70
     1
102
RTVSPropertyOp22
 70
     1
102
RTVSPropertyOp23
 70
     1
102
RTVSPropertyOp24
 70
     1
102
RTVSPropertyOp25
 70
     1
102
RTVSPropertyOp26
 70
     1
102
RTVSPropertyOp27
 70
     1
102
RTVSPropertyOp28
 70
     1
102
RTVSPropertyOp29
 70
     1
102
RTVSPropertyOp30
 70
     1
102
RTVSPropertyOp31
 70
     1
102
RTVSPropertyOp32
 70
     1
  0
XRECORD
  5
863
102
{ACAD_REACTORS
330
862
102
}
330
862
100
AcDbXrecord
280
     1
102
RTVSPropertyOp0
 70
     1
102
RTVSPropertyOp1
 70
     1
102
RTVSPropertyOp2
 70
     1
102
RTVSPropertyOp3
 70
     1
102
RTVSPropertyOp4
 70
     1
102
RTVSPropertyOp5
 70
     1
102
RTVSPropertyOp6
 70
     1
102
RTVSPropertyOp7
 70
     1
102
RTVSPropertyOp8
 70
     1
102
RTVSPropertyOp9
 70
     1
102
RTVSPropertyOp10
 70
     1
102
RTVSPropertyOp11
 70
     1
102
RTVSPropertyOp12
 70
     1
102
RTVSPropertyOp13
 70
     1
102
RTVSPropertyOp14
 70
     1
102
RTVSPropertyOp15
 70
     1
102
RTVSPropertyOp16
 70
     1
102
RTVSPropertyOp17
 70
     1
102
RTVSPropertyOp18
 70
     1
102
RTVSPropertyOp19
 70
     1
102
RTVSPropertyOp20
 70
     1
102
RTVSPropertyOp21
 70
     1
102
RTVSPropertyOp22
 70
     1
102
RTVSPropertyOp23
 70
     1
102
RTVSPropertyOp24
 70
     1
102
RTVSPropertyOp25
 70
     1
102
RTVSPropertyOp26
 70
     1
102
RTVSPropertyOp27
 70
     1
102
RTVSPropertyOp28
 70
     1
102
RTVSPropertyOp29
 70
     1
102
RTVSPropertyOp30
 70
     1
102
RTVSPropertyOp31
 70
     1
102
RTVSPropertyOp32
 70
     1
  0
XRECORD
  5
85D
102
{ACAD_REACTORS
330
85C
102
}
330
85C
100
AcDbXrecord
280
     1
102
RTVSPropertyOp0
 70
     1
102
RTVSPropertyOp1
 70
     1
102
RTVSPropertyOp2
 70
     1
102
RTVSPropertyOp3
 70
     1
102
RTVSPropertyOp4
 70
     1
102
RTVSPropertyOp5
 70
     1
102
RTVSPropertyOp6
 70
     1
102
RTVSPropertyOp7
 70
     1
102
RTVSPropertyOp8
 70
     1
102
RTVSPropertyOp9
 70
     1
102
RTVSPropertyOp10
 70
     1
102
RTVSPropertyOp11
 70
     1
102
RTVSPropertyOp12
 70
     1
102
RTVSPropertyOp13
 70
     1
102
RTVSPropertyOp14
 70
     1
102
RTVSPropertyOp15
 70
     1
102
RTVSPropertyOp16
 70
     1
102
RTVSPropertyOp17
 70
     1
102
RTVSPropertyOp18
 70
     1
102
RTVSPropertyOp19
 70
     1
102
RTVSPropertyOp20
 70
     1
102
RTVSPropertyOp21
 70
     1
102
RTVSPropertyOp22
 70
     1
102
RTVSPropertyOp23
 70
     1
102
RTVSPropertyOp24
 70
     1
102
RTVSPropertyOp25
 70
     1
102
RTVSPropertyOp26
 70
     1
102
RTVSPropertyOp27
 70
     1
102
RTVSPropertyOp28
 70
     1
102
RTVSPropertyOp29
 70
     1
102
RTVSPropertyOp30
 70
     1
102
RTVSPropertyOp31
 70
     1
102
RTVSPropertyOp32
 70
     1
  0
XRECORD
  5
85F
102
{ACAD_REACTORS
330
85E
102
}
330
85E
100
AcDbXrecord
280
     1
102
RTVSPropertyOp0
 70
     1
102
RTVSPropertyOp1
 70
     1
102
RTVSPropertyOp2
 70
     1
102
RTVSPropertyOp3
 70
     1
102
RTVSPropertyOp4
 70
     1
102
RTVSPropertyOp5
 70
     1
102
RTVSPropertyOp6
 70
     1
102
RTVSPropertyOp7
 70
     1
102
RTVSPropertyOp8
 70
     1
102
RTVSPropertyOp9
 70
     1
102
RTVSPropertyOp10
 70
     1
102
RTVSPropertyOp11
 70
     1
102
RTVSPropertyOp12
 70
     1
102
RTVSPropertyOp13
 70
     1
102
RTVSPropertyOp14
 70
     1
102
RTVSPropertyOp15
 70
     1
102
RTVSPropertyOp16
 70
     1
102
RTVSPropertyOp17
 70
     1
102
RTVSPropertyOp18
 70
     1
102
RTVSPropertyOp19
 70
     1
102
RTVSPropertyOp20
 70
     1
102
RTVSPropertyOp21
 70
     1
102
RTVSPropertyOp22
 70
     1
102
RTVSPropertyOp23
 70
     1
102
RTVSPropertyOp24
 70
     1
102
RTVSPropertyOp25
 70
     1
102
RTVSPropertyOp26
 70
     1
102
RTVSPropertyOp27
 70
     1
102
RTVSPropertyOp28
 70
     1
102
RTVSPropertyOp29
 70
     1
102
RTVSPropertyOp30
 70
     1
102
RTVSPropertyOp31
 70
     1
102
RTVSPropertyOp32
 70
     1
  0
XRECORD
  5
84F
102
{ACAD_REACTORS
330
84E
102
}
330
84E
100
AcDbXrecord
280
     1
102
RTVSPropertyOp0
 70
     1
102
RTVSPropertyOp1
 70
     1
102
RTVSPropertyOp2
 70
     1
102
RTVSPropertyOp3
 70
     1
102
RTVSPropertyOp4
 70
     1
102
RTVSPropertyOp5
 70
     1
102
RTVSPropertyOp6
 70
     1
102
RTVSPropertyOp7
 70
     1
102
RTVSPropertyOp8
 70
     1
102
RTVSPropertyOp9
 70
     1
102
RTVSPropertyOp10
 70
     1
102
RTVSPropertyOp11
 70
     1
102
RTVSPropertyOp12
 70
     1
102
RTVSPropertyOp13
 70
     1
102
RTVSPropertyOp14
 70
     1
102
RTVSPropertyOp15
 70
     1
102
RTVSPropertyOp16
 70
     1
102
RTVSPropertyOp17
 70
     1
102
RTVSPropertyOp18
 70
     1
102
RTVSPropertyOp19
 70
     1
102
RTVSPropertyOp20
 70
     1
102
RTVSPropertyOp21
 70
     1
102
RTVSPropertyOp22
 70
     1
102
RTVSPropertyOp23
 70
     1
102
RTVSPropertyOp24
 70
     1
102
RTVSPropertyOp25
 70
     1
102
RTVSPropertyOp26
 70
     1
102
RTVSPropertyOp27
 70
     1
102
RTVSPropertyOp28
 70
     1
102
RTVSPropertyOp29
 70
     1
102
RTVSPropertyOp30
 70
     1
102
RTVSPropertyOp31
 70
     1
102
RTVSPropertyOp32
 70
     1
  0
XRECORD
  5
843
102
{ACAD_REACTORS
330
842
102
}
330
842
100
AcDbXrecord
280
     1
102
RTVSPropertyOp0
 70
     1
102
RTVSPropertyOp1
 70
     1
102
RTVSPropertyOp2
 70
     1
102
RTVSPropertyOp3
 70
     1
102
RTVSPropertyOp4
 70
     1
102
RTVSPropertyOp5
 70
     1
102
RTVSPropertyOp6
 70
     1
102
RTVSPropertyOp7
 70
     1
102
RTVSPropertyOp8
 70
     1
102
RTVSPropertyOp9
 70
     1
102
RTVSPropertyOp10
 70
     1
102
RTVSPropertyOp11
 70
     1
102
RTVSPropertyOp12
 70
     1
102
RTVSPropertyOp13
 70
     1
102
RTVSPropertyOp14
 70
     1
102
RTVSPropertyOp15
 70
     1
102
RTVSPropertyOp16
 70
     1
102
RTVSPropertyOp17
 70
     1
102
RTVSPropertyOp18
 70
     1
102
RTVSPropertyOp19
 70
     1
102
RTVSPropertyOp20
 70
     1
102
RTVSPropertyOp21
 70
     1
102
RTVSPropertyOp22
 70
     1
102
RTVSPropertyOp23
 70
     1
102
RTVSPropertyOp24
 70
     1
102
RTVSPropertyOp25
 70
     1
102
RTVSPropertyOp26
 70
     1
102
RTVSPropertyOp27
 70
     1
102
RTVSPropertyOp28
 70
     1
102
RTVSPropertyOp29
 70
     1
102
RTVSPropertyOp30
 70
     1
102
RTVSPropertyOp31
 70
     1
102
RTVSPropertyOp32
 70
     1
  0
XRECORD
  5
861
102
{ACAD_REACTORS
330
860
102
}
330
860
100
AcDbXrecord
280
     1
102
RTVSPropertyOp0
 70
     1
102
RTVSPropertyOp1
 70
     1
102
RTVSPropertyOp2
 70
     1
102
RTVSPropertyOp3
 70
     1
102
RTVSPropertyOp4
 70
     1
102
RTVSPropertyOp5
 70
     1
102
RTVSPropertyOp6
 70
     1
102
RTVSPropertyOp7
 70
     1
102
RTVSPropertyOp8
 70
     1
102
RTVSPropertyOp9
 70
     1
102
RTVSPropertyOp10
 70
     1
102
RTVSPropertyOp11
 70
     1
102
RTVSPropertyOp12
 70
     1
102
RTVSPropertyOp13
 70
     1
102
RTVSPropertyOp14
 70
     1
102
RTVSPropertyOp15
 70
     1
102
RTVSPropertyOp16
 70
     1
102
RTVSPropertyOp17
 70
     1
102
RTVSPropertyOp18
 70
     1
102
RTVSPropertyOp19
 70
     1
102
RTVSPropertyOp20
 70
     1
102
RTVSPropertyOp21
 70
     1
102
RTVSPropertyOp22
 70
     1
102
RTVSPropertyOp23
 70
     1
102
RTVSPropertyOp24
 70
     1
102
RTVSPropertyOp25
 70
     1
102
RTVSPropertyOp26
 70
     1
102
RTVSPropertyOp27
 70
     1
102
RTVSPropertyOp28
 70
     1
102
RTVSPropertyOp29
 70
     1
102
RTVSPropertyOp30
 70
     1
102
RTVSPropertyOp31
 70
     1
102
RTVSPropertyOp32
 70
     1
  0
ENDSEC
  0
EOF
